osu file format v7

[General]
AudioFilename: Final boss.mp3
AudioLeadIn: 0
PreviewTime: -1
Countdown: 1
SampleSet: Soft
StackLeniency: 0.6
Mode: 0
LetterboxInBreaks: 1
SkinPreference:ouendan2

[Editor]
DistanceSpacing: 0.800000011920929
BeatDivisor: 4
GridSize: 8

[Metadata]
Title:Native Faith
Artist:ZUN
Creator:oact
Version:Normal
Source:
Tags:

[Difficulty]
HPDrainRate:5
CircleSize:4
OverallDifficulty:5
SliderMultiplier:0.6
SliderTickRate:3

[Events]
//Background and Video events
//Break Periods
2,38151,48860
2,61333,65769
2,73224,84260
2,102296,117696
2,155696,163787
2,167751,179933
//Storyboard Layer 0 (Background)
//Storyboard Layer 1 (Fail)
//Storyboard Layer 2 (Pass)
//Storyboard Layer 3 (Foreground)
//Storyboard Sound Samples
//Background Colour Transformations
3,100,163,162,255

[TimingPoints]
4678.81818181818,218.181818181818,4,2,0,100,1,0
4678.81818181818,-100,4,2,0,100,0,0
4678.81818181818,-100,4,2,0,100,0,0
4678.81818181818,-100,4,2,0,100,0,0
4678.81818181818,-100,4,2,0,100,0,0
4678.81818181818,-100,4,2,0,100,0,0
4678.81818181818,-100,4,2,0,100,0,0
4678.81818181818,-100,4,2,0,100,0,0
4678.81818181818,-100,4,2,0,100,0,0

[Colours]
Combo1 : 255,150,0
Combo2 : 5,240,5
Combo3 : 0,255,255
Combo4 : 128,64,64
Combo5 : 255,128,64

[HitObjects]
88,32,14933,1,0
152,88,15424,1,0
224,152,15642,1,0
296,192,16242,1,0
296,192,16460,1,0
336,128,16678,1,0
368,80,16951,1,0
312,80,17060,2,2,B|232:88|208:160,1,135
160,264,17933,5,0
232,320,18424,1,0
232,320,18642,1,0
304,264,18969,1,0
232,200,19187,1,0
232,200,19460,1,0
136,152,20606,6,0,B|168:80|208:56,3,120
206,56,22187,6,2,B|264:64|288:128,3,105
360,88,23769,5,0
432,200,24096,1,0
176,184,24478,1,0
232,304,24751,1,0
232,304,24969,1,0
288,264,25296,6,0,B|320:240|328:232,1,45
323,236,25678,2,0,B|280:200,1,45
288,207,26006,2,0,B|264:136|208:160,1,105
136,168,27969,5,2
144,64,28187,1,2
192,120,28406,1,2
248,176,28678,1,2
248,80,28896,1,2
304,128,29333,1,2
368,152,29715,2,0,B|464:200|408:272,2,150
368,152,30915,2,0,B|400:176|416:184|424:192|432:208|416:240|416:264|408:272,2,135
296,112,32606,5,0
224,120,33096,1,0
152,136,33315,1,0
104,192,33587,1,0
176,216,33860,1,0
248,240,34024,1,0
320,264,34242,1,0
264,312,34515,1,0
320,344,34733,1,0
376,304,35006,1,0
256,208,35387,12,0,36915
216,96,37242,5,0
216,96,37406,1,0
296,96,37678,1,0
296,96,37951,1,0
248,48,50060,5,0
128,104,50660,1,0
128,104,50824,1,0
176,200,51424,1,0
176,200,51587,1,0
224,152,51860,1,0
256,136,52024,2,0,B|288:112|344:96,1,90
337,98,52733,6,0,B|440:104|448:192,2,150
280,104,53987,5,0
280,104,54151,1,0
280,104,54478,2,0,B|176:112|168:192,1,150
176,272,55406,5,0
176,272,55569,1,0
216,40,55951,5,0
304,40,56333,1,0
216,120,56660,1,0
304,120,57042,1,0
360,168,57478,5,0
304,232,57642,1,0
240,288,57806,1,0
312,336,57969,1,0
376,280,58133,1,0
312,280,58351,1,0
376,280,58515,1,0
240,40,58951,5,0
184,96,59278,1,0
240,144,59606,1,0
296,96,59878,1,0
352,48,60151,1,0
408,96,60424,1,0
352,152,60587,1,0
304,208,60751,1,0
360,256,60969,1,0
360,256,61133,1,0
224,128,66969,6,0,B|248:128,10,15
224,56,68224,1,0
152,56,68442,1,0
224,56,68660,1,0
296,56,68933,1,0
224,56,69151,1,0
224,56,69369,1,0
224,136,69642,1,0
224,56,69860,1,0
288,112,70078,1,0
296,192,70296,1,0
208,192,70678,5,0
216,272,70951,1,0
336,320,71278,1,0
384,264,71606,1,0
432,256,71824,1,0
456,216,72042,1,0
408,200,72260,1,0
384,176,72424,1,0
368,144,72587,1,0
424,96,72751,1,0
264,72,73024,1,0
200,88,85460,5,0
144,72,85787,1,0
144,104,86006,1,0
200,88,86660,1,0
248,72,86933,1,0
264,168,87206,1,0
320,128,87424,1,0
352,208,87696,1,0
288,256,87915,1,0
376,296,88187,1,0
296,344,88460,1,0
216,304,88678,1,0
80,256,88896,1,0
168,176,89169,1,0
264,96,89606,5,0
136,104,89824,1,0
224,192,89987,1,0
264,96,90206,1,0
136,104,90369,1,0
264,96,90587,1,0
224,192,90751,1,0
256,208,91187,12,0,102096
160,112,118896,6,0,B|208:64,4,60
352,72,120369,5,0
248,80,121078,1,0
336,144,121678,1,0
168,152,121842,1,0
248,184,122333,1,0
208,240,122551,1,0
288,240,122824,1,0
248,296,123096,1,0
248,120,123315,1,0
304,160,123642,1,0
304,88,123806,1,0
360,128,123969,1,0
256,208,124678,12,0,126260
256,208,126587,12,0,129860
256,208,130242,12,0,131387
256,208,132806,12,0,149551
192,32,150369,5,0
184,136,150751,1,0
256,184,151078,1,0
216,256,151460,1,0
328,144,151842,1,0
336,48,152115,1,0
392,88,152333,1,0
408,160,152551,1,0
416,232,152878,1,0
376,208,153096,1,0
232,72,153315,1,0
320,272,153751,1,0
368,224,154078,1,0
400,184,154296,1,0
376,128,154569,1,0
344,120,154733,1,0
296,128,154951,1,0
264,152,155115,1,0
248,184,155278,1,0
200,192,155496,1,0
240,64,164987,5,0
192,120,165315,1,0
256,176,165696,1,0
312,144,165969,1,0
352,104,166187,1,0
336,48,166460,1,0
288,56,166678,1,0
192,120,166842,1,0
216,144,167006,1,0
256,152,167169,1,0
296,144,167387,1,0
272,120,167551,1,0
224,64,181133,5,0
176,112,181460,1,0
240,160,181787,1,0
320,128,182169,1,0
376,56,182551,1,0
256,48,183096,1,0
232,80,183260,1,0
216,208,183860,1,0
256,200,184024,1,0
312,176,184296,1,0
360,144,184569,1,0
360,104,184733,1,0
264,96,185169,5,0
224,104,185333,1,0
192,128,185551,1,0
240,224,186042,1,0
280,216,186260,1,0
320,184,186478,1,0
352,144,186696,1,0
360,104,186915,1,0
120,128,188006,5,0
200,160,188387,1,0
272,128,188769,1,0
344,104,189096,1,0
400,168,189478,1,0
360,240,189860,1,0
280,240,190242,1,0
232,176,190624,1,0
168,144,190951,1,0
256,208,191606,12,0,204533
