osu file format v13

[General]
AudioFilename: BGM.mp3
AudioLeadIn: 0
PreviewTime: 84548
Countdown: 0
SampleSet: Soft
StackLeniency: 0.7
Mode: 3
LetterboxInBreaks: 0
SpecialStyle: 0
WidescreenStoryboard: 0

[Editor]
DistanceSpacing: 0.8
BeatDivisor: 8
GridSize: 4
TimelineZoom: 2.799999

[Metadata]
Title:Naki Oujyo no Tame no Septet ~ U. N. Owen wa Kanojyo nano ka?
TitleUnicode:亡き王女の為のセプテット ~ U.N.オーエンは彼女なのか?
Artist:ZUN
ArtistUnicode:ZUN
Creator:[ S a k u r a ]
Version:Collab Marathon
Source:Touhou
Tags:東方 project 紅魔鄉 vocal ShikiNoHollow
BeatmapID:440850
BeatmapSetID:184105

[Difficulty]
HPDrainRate:8
CircleSize:4
OverallDifficulty:8
ApproachRate:5
SliderMultiplier:1.4
SliderTickRate:1

[Events]
//Background and Video events
0,0,"3123_1334218599 (1).jpg",0,0
//Break Periods
//Storyboard Layer 0 (Background)
//Storyboard Layer 1 (Fail)
//Storyboard Layer 2 (Pass)
//Storyboard Layer 3 (Foreground)
//Storyboard Sound Samples
//Background Colour Transformations
3,100,163,162,255

[TimingPoints]
12746,410.958904109589,4,2,1,6,1,0
13362,410.958904109589,4,2,1,6,1,0
79526,410.958904109589,4,2,1,6,1,0
79936,410.958904109589,4,2,1,6,1,1
104593,410.958904109589,4,2,1,6,1,0
145629,378.548895899054,5,2,1,6,1,0
160770,378.548895899054,4,2,1,6,1,0
172883,-100,4,2,1,6,0,1
197110,378.548895899054,4,2,1,6,1,0
240264,-100,4,2,1,6,0,1
264491,378.548895899054,4,2,1,6,1,0
277215,410.958904109589,4,2,1,6,1,0
296941,410.958904109589,3,2,1,6,1,0
316713,418.760469011725,3,2,1,6,1,1
356667,410.958904109589,4,2,1,6,1,0

[HitObjects]
64,192,211,5,0,0:0:0:0:
320,192,211,1,0,0:0:0:0:
448,192,622,1,0,0:0:0:30:G5S.wav
192,192,828,1,0,0:0:0:0:
448,192,1033,1,0,0:0:0:30:D#6S_Eb6S.wav
448,192,1444,1,0,0:0:0:30:D6S.wav
192,192,1650,1,0,0:0:0:30:F5S.wav
320,192,1855,1,0,0:0:0:30:G5S.wav
64,192,1855,1,0,0:0:0:30:G5S.wav
448,192,2266,1,0,0:0:0:30:G5S.wav
192,192,2472,1,0,0:0:0:30:G5S.wav
448,192,2677,1,0,0:0:0:70:D#6S_Eb6S.wav
448,192,3088,1,0,0:0:0:70:D6S.wav
192,192,3293,1,0,0:0:0:70:F5S.wav
320,192,3499,1,0,0:0:0:25:G5S.wav
64,192,3499,1,0,0:0:0:25:G5S.wav
448,192,3910,1,0,0:0:0:25:G5S.wav
192,192,4115,1,0,0:0:0:25:G5S.wav
448,192,4321,1,0,0:0:0:70:D#6S_Eb6S.wav
448,192,4732,1,0,0:0:0:50:D6S.wav
192,192,4937,1,0,0:0:0:50:F5S.wav
320,192,5143,1,0,0:0:0:25:G5S.wav
64,192,5143,1,0,0:0:0:25:G5S.wav
448,192,5554,1,0,0:0:0:25:G5S.wav
64,192,5759,1,0,0:0:0:25:G5S.wav
448,192,6170,1,0,0:0:0:70:D#6S_Eb6S.wav
64,192,6376,1,0,0:0:0:25:G5S.wav
448,192,6581,1,0,0:0:0:25:F5S.wav
192,192,6787,1,0,0:0:0:25:C5S.wav
64,192,6787,1,0,0:0:0:25:C5S.wav
64,192,7198,1,0,0:0:0:25:G5S.wav
320,192,7403,1,0,0:0:0:25:G5S.wav
448,192,7609,1,0,0:0:0:70:D#6S_Eb6S.wav
192,192,8019,1,0,0:0:0:50:D6S.wav
64,192,8225,1,0,0:0:0:50:F5S.wav
320,192,8430,1,0,0:0:0:25:G5S.wav
192,192,8430,1,0,0:0:0:25:G5S.wav
64,192,8841,1,0,0:0:0:25:G5S.wav
320,192,9047,1,0,0:0:0:25:G5S.wav
448,192,9252,1,0,0:0:0:70:D#6S_Eb6S.wav
192,192,9663,1,0,0:0:0:50:D6S.wav
64,192,9869,1,0,0:0:0:50:F5S.wav
320,192,10074,1,0,0:0:0:25:G5S.wav
192,192,10074,1,0,0:0:0:25:G5S.wav
64,192,10485,1,0,0:0:0:25:G5S.wav
448,192,10691,1,0,0:0:0:25:G5S.wav
64,192,10896,1,0,0:0:0:70:D#6S_Eb6S.wav
192,192,11307,1,0,0:0:0:50:D6S.wav
448,192,11513,1,0,0:0:0:50:F5S.wav
320,192,11718,1,0,0:0:0:25:G5S.wav
192,192,11718,128,0,12540:0:0:0:25:G5S.wav
64,192,12540,1,0,0:0:0:25:D#5S_Eb5S.wav
320,192,12745,5,0,0:0:0:25:G5S.wav
192,192,12951,1,0,0:0:0:50:C6S.wav
320,192,13156,1,0,0:0:0:50:D6S.wav
448,192,13362,1,0,0:0:0:25:D#6S_Eb6S.wav
64,192,13362,128,0,14800:0:0:0:25:D#6S_Eb6S.wav
448,192,13978,1,0,0:0:0:50:F6S.wav
320,192,14183,1,0,0:0:0:50:D6S.wav
448,192,14800,1,0,0:0:0:50:D#6S_Eb6S.wav
320,192,15005,1,0,0:0:0:25:C6S.wav
192,192,15005,128,0,15827:0:0:0:25:C6S.wav
64,192,16033,1,0,0:0:0:50:G5S.wav
192,192,16238,1,0,0:0:0:50:C6S.wav
320,192,16444,1,0,0:0:0:50:D6S.wav
64,192,16649,1,0,0:0:0:25:D#6S_Eb6S.wav
448,192,16649,128,0,18088:0:0:0:25:D#6S_Eb6S.wav
320,192,17266,1,0,0:0:0:30:F6S.wav
192,192,17471,1,0,0:0:0:50:D6S.wav
192,192,18088,1,0,0:0:0:50:A#6S_Bb6S.wav
64,192,18293,1,0,0:0:0:25:G5S.wav
320,192,18293,128,0,19115:0:0:0:25:G5S.wav
448,192,19320,1,0,0:0:0:30:G6S.wav
64,192,19320,1,0,0:0:0:30:G6S.wav
192,192,19526,1,0,0:0:0:50:A#6S_Bb6S.wav
320,192,19731,1,0,0:0:0:50:C6S.wav
192,192,19937,1,0,0:0:0:30:F6S.wav
448,192,19937,1,0,0:0:0:30:F6S.wav
448,192,20348,1,0,0:0:0:30:F6S.wav
64,192,20348,1,0,0:0:0:30:F6S.wav
64,192,20964,1,0,0:0:0:30:F6S.wav
192,192,21170,1,0,0:0:0:50:G5S.wav
320,192,21375,1,0,0:0:0:50:A#6S_Bb6S.wav
448,192,21581,1,0,0:0:0:50:D#6S_Eb6S.wav
192,192,21581,1,0,0:0:0:50:D#6S_Eb6S.wav
320,192,21992,1,0,0:0:0:50:D#6S_Eb6S.wav
64,192,21992,1,0,0:0:0:50:D#6S_Eb6S.wav
320,192,22608,1,0,0:0:0:70:C6S.wav
320,192,22814,1,0,0:0:0:70:C6S.wav
448,192,23019,1,0,0:0:0:70:D6S.wav
64,192,23225,128,0,23841:0:0:0:25:D#6S_Eb6S.wav
320,192,23225,1,0,0:0:0:25:D#6S_Eb6S.wav
448,192,23841,1,0,0:0:0:50:F6S.wav
192,192,24046,1,0,0:0:0:25:D6S.wav
320,192,24046,128,0,24663:0:0:0:25:B5S.wav
64,192,24663,1,0,0:0:0:25:B5S.wav
192,192,24868,1,0,0:0:0:50:C6S.wav
448,192,24868,1,0,0:0:0:25:C6S.wav
448,192,25690,1,0,0:0:0:25:D6S.wav
448,192,26101,1,0,0:0:0:0:C6S.wav
320,192,26204,1,0,0:0:0:0:C#6S_Db6S.wav
192,192,26307,1,0,0:0:0:0:D6S.wav
320,192,26409,1,0,0:0:0:25:C#6S_Db6S.wav
64,192,26512,1,0,0:0:0:25:D#6S_Eb6S.wav
448,192,26512,1,0,0:0:0:25:D#6S_Eb6S.wav
320,192,27540,1,0,0:0:0:25:D6S.wav
64,192,27540,128,0,28156:0:0:0:25:D6S.wav
448,192,27642,1,0,0:0:0:50:D#6S_Eb6S.wav
320,192,27745,1,0,0:0:0:50:D6S.wav
192,192,27848,1,0,0:0:0:50:A#5S_Bb5S.wav
320,192,27951,1,0,0:0:0:50:G5S.wav
448,192,28053,1,0,0:0:0:50:A5S.wav
320,192,28156,1,0,0:0:0:25:A#5S_Bb5S.wav
192,192,28156,128,0,29389:0:0:0:25:A#5S_Bb5S.wav
192,192,30211,1,0,0:0:0:25:C5S.wav
64,192,30211,1,0,0:0:0:25:C5S.wav
320,192,30314,1,0,0:0:0:25:D5S.wav
192,192,30416,1,0,0:0:0:25:D#6S_Eb6S.wav
448,192,30519,1,0,0:0:0:25:G5S.wav
64,192,30519,128,0,31033:0:0:0:25:G5S.wav
320,192,31033,1,0,0:0:0:25:C5S.wav
448,192,31033,1,0,0:0:0:25:C5S.wav
192,192,31135,1,0,0:0:0:25:D6S.wav
320,192,31238,1,0,0:0:0:25:D#6S_Eb6S.wav
192,192,31341,128,0,31855:0:0:0:30:G#5S_Ab5S.wav
448,192,31341,1,0,0:0:0:30:G#5S_Ab5S.wav
448,192,31855,1,0,0:0:0:30:C5S.wav
64,192,31855,1,0,0:0:0:30:C5S.wav
320,192,31957,1,0,0:0:0:25:D6S.wav
448,192,32060,1,0,0:0:0:25:D#6S_Eb6S.wav
192,192,32163,1,0,0:0:0:25:A5S.wav
320,192,32163,128,0,32677:0:0:0:25:A5S.wav
64,192,32677,1,0,0:0:0:25:C6S.wav
192,192,32779,1,0,0:0:0:25:D6S.wav
320,192,32882,1,0,0:0:0:25:D#6S_Eb6S.wav
448,192,32985,1,0,0:0:0:30:G#5S_Ab5S.wav
192,192,32985,128,0,33498:0:0:0:30:G#5S_Ab5S.wav
64,192,33498,1,0,0:0:0:25:C5S.wav
448,192,33498,1,0,0:0:0:25:C5S.wav
320,192,33601,1,0,0:0:0:25:D5S.wav
192,192,33704,1,0,0:0:0:25:D#5S_Eb5S.wav
448,192,33807,1,0,0:0:0:30:G5S.wav
64,192,33807,128,0,34320:0:0:0:30:G5S.wav
192,192,34320,1,0,0:0:0:25:C5S.wav
320,192,34423,1,0,0:0:0:25:D5S.wav
64,192,34526,1,0,0:0:0:25:D#5S_Eb5S.wav
192,192,34629,1,0,0:0:0:30:G#5S_Ab5S.wav
448,192,34629,128,0,35142:0:0:0:30:G#5S_Ab5S.wav
320,192,35142,1,0,0:0:0:25:C5S.wav
64,192,35142,1,0,0:0:0:25:C5S.wav
192,192,35245,1,0,0:0:0:25:D5S.wav
320,192,35348,1,0,0:0:0:25:D#5S_Eb5S.wav
448,192,35451,1,0,0:0:0:25:A5S.wav
64,192,35451,128,0,35964:0:0:0:25:A5S.wav
192,192,35964,1,0,0:0:0:25:C5S.wav
448,192,35964,1,0,0:0:0:25:C5S.wav
320,192,36067,1,0,0:0:0:25:D5S.wav
448,192,36170,1,0,0:0:0:25:D#5S_Eb5S.wav
320,192,36272,1,0,0:0:0:25:A5S.wav
192,192,36375,1,0,0:0:0:25:D#7S_Eb7S.wav
64,192,36375,1,0,0:0:0:25:D#7S_Eb7S.wav
320,192,37403,1,0,0:0:0:25:D6S.wav
64,192,37403,1,0,0:0:0:25:D6S.wav
448,192,37505,1,0,0:0:0:25:C6S.wav
320,192,37608,1,0,0:0:0:25:A#6S_Bb6S.wav
192,192,37711,1,0,0:0:0:25:A5S.wav
64,192,37814,1,0,0:0:0:25:G5S.wav
192,192,37916,1,0,0:0:0:25:F5S.wav
64,192,38019,128,0,38841:0:0:0:25:A5S.wav
320,192,38019,128,0,38841:0:0:0:25:A5S.wav
192,192,39046,1,0,0:0:0:25:G5S.wav
64,192,39046,1,0,0:0:0:25:G5S.wav
192,192,39252,1,0,0:0:0:25:C6S.wav
320,192,39252,1,0,0:0:0:25:C6S.wav
320,192,39457,1,0,0:0:0:25:D6S.wav
448,192,39457,1,0,0:0:0:25:D6S.wav
64,192,39663,1,0,0:0:0:25:D#6S_Eb6S.wav
448,192,39663,1,0,0:0:0:25:D#6S_Eb6S.wav
448,192,40279,1,0,0:0:0:10:F5S.wav
320,192,40279,1,0,0:0:0:10:F5S.wav
192,192,40485,1,0,0:0:0:10:D5S.wav
320,192,40485,1,0,0:0:0:10:D5S.wav
192,192,41101,1,0,0:0:0:10:D#5S_Eb5S.wav
320,192,41101,1,0,0:0:0:10:D#5S_Eb5S.wav
64,192,41307,1,0,0:0:0:10:C5S.wav
192,192,41307,1,0,0:0:0:10:C5S.wav
64,192,42334,1,0,0:0:0:25:G5S.wav
192,192,42334,1,0,0:0:0:25:G5S.wav
320,192,42540,1,0,0:0:0:25:G6S.wav
192,192,42540,1,0,0:0:0:25:G6S.wav
320,192,42745,1,0,0:0:0:25:D6S.wav
448,192,42745,1,0,0:0:0:25:D6S.wav
320,192,42951,1,0,0:0:0:25:D#6S_Eb6S.wav
192,192,42951,128,0,43567:0:0:0:25:D#6S_Eb6S.wav
64,192,43567,1,0,0:0:0:25:F6S.wav
448,192,43567,1,0,0:0:0:25:F6S.wav
64,192,43772,1,0,0:0:0:25:D6S.wav
192,192,43772,1,0,0:0:0:25:D6S.wav
448,192,43978,1,0,0:0:0:25:C6S.wav
320,192,44183,1,0,0:0:0:25:C5S.wav
64,192,44389,1,0,0:0:0:25:A#6S_Bb6S.wav
448,192,44389,1,0,0:0:0:25:A#6S_Bb6S.wav
320,192,44594,128,0,45622:0:0:0:30:G6S.wav
192,192,44594,1,0,0:0:0:30:G6S.wav
192,192,45622,1,0,0:0:0:30:G6S.wav
64,192,45622,1,0,0:0:0:30:G6S.wav
192,192,45827,1,0,0:0:0:25:A#5S_Bb5S.wav
320,192,45827,1,0,0:0:0:0:
320,192,46033,1,0,0:0:0:25:C6S.wav
448,192,46033,128,0,46649:0:0:0:25:C6S.wav
192,192,46238,1,0,0:0:0:25:F5S.wav
64,192,46238,1,0,0:0:0:25:F5S.wav
64,192,46649,1,0,0:0:0:25:F5S.wav
192,192,46649,1,0,0:0:0:25:F5S.wav
448,192,47266,1,0,0:0:0:25:F5S.wav
320,192,47266,1,0,0:0:0:25:F5S.wav
320,192,47471,1,0,0:0:0:25:G5S.wav
192,192,47471,1,0,0:0:0:25:G5S.wav
64,192,47677,1,0,0:0:0:25:A#5S_Bb5S.wav
192,192,47677,1,0,0:0:0:25:A#5S_Bb5S.wav
448,192,47882,1,0,0:0:0:25:D#6S_Eb6S.wav
192,192,47882,1,0,0:0:0:25:D#6S_Eb6S.wav
64,192,47882,128,0,48293:0:0:0:25:D#6S_Eb6S.wav
192,192,48293,1,0,0:0:0:25:D#6S_Eb6S.wav
448,192,48293,1,0,0:0:0:25:D#6S_Eb6S.wav
192,192,48909,1,0,0:0:0:25:C6S.wav
64,192,48909,1,0,0:0:0:25:C6S.wav
64,192,49115,1,0,0:0:0:25:C6S.wav
192,192,49115,1,0,0:0:0:25:C6S.wav
448,192,49320,1,0,0:0:0:25:D6S.wav
320,192,49320,1,0,0:0:0:25:D6S.wav
192,192,49526,1,0,0:0:0:25:D#6S_Eb6S.wav
320,192,49526,1,0,0:0:0:25:D#6S_Eb6S.wav
448,192,50142,1,0,0:0:0:10:F5S.wav
320,192,50142,1,0,0:0:0:10:F5S.wav
192,192,50348,1,0,0:0:0:25:D6S.wav
64,192,50348,128,0,50964:0:0:0:25:D6S.wav
320,192,50964,1,0,0:0:0:25:B5S.wav
192,192,50964,1,0,0:0:0:25:B5S.wav
448,192,51170,1,0,0:0:0:25:C6S.wav
320,192,51170,1,0,0:0:0:25:C6S.wav
192,192,51992,1,0,0:0:0:25:D6S.wav
320,192,51992,1,0,0:0:0:25:D6S.wav
448,192,51992,1,0,0:0:0:25:D6S.wav
192,192,52197,1,0,0:0:0:25:D#6S_Eb6S.wav
64,192,52197,1,0,0:0:0:25:D#6S_Eb6S.wav
320,192,52197,1,0,0:0:0:25:D#6S_Eb6S.wav
320,192,52403,1,0,0:0:0:25:D#6S_Eb6S.wav
64,192,52403,1,0,0:0:0:25:D#6S_Eb6S.wav
192,192,52403,1,0,0:0:0:25:D#6S_Eb6S.wav
192,192,52608,1,0,0:0:0:25:F6S.wav
448,192,52608,1,0,0:0:0:25:F6S.wav
320,192,52814,1,0,0:0:0:25:G6S.wav
64,192,52814,1,0,0:0:0:25:G6S.wav
448,192,52814,128,0,53430:0:0:0:25:G6S.wav
64,192,53430,1,0,0:0:0:25:A#6S_Bb6S.wav
192,192,53430,1,0,0:0:0:25:A#6S_Bb6S.wav
64,192,53635,1,0,0:0:0:25:F6S.wav
192,192,53635,128,0,54252:0:0:0:25:F6S.wav
448,192,54252,1,0,0:0:0:25:G6S.wav
320,192,54252,1,0,0:0:0:25:G6S.wav
192,192,54457,1,0,0:0:0:25:D#6S_Eb6S.wav
64,192,54457,128,0,55074:0:0:0:25:D#6S_Eb6S.wav
192,192,55485,1,0,0:0:0:25:D#6S_Eb6S.wav
64,192,55485,1,0,0:0:0:25:D#6S_Eb6S.wav
192,192,55690,1,0,0:0:0:25:D#6S_Eb6S.wav
64,192,55690,1,0,0:0:0:25:D#6S_Eb6S.wav
448,192,55896,1,0,0:0:0:25:F6S.wav
320,192,55896,1,0,0:0:0:25:F6S.wav
320,192,56101,1,0,0:0:0:25:G6S.wav
192,192,56101,128,0,56718:0:0:0:25:G6S.wav
320,192,56718,1,0,0:0:0:25:A#6S_Bb6S.wav
448,192,56718,1,0,0:0:0:25:A#6S_Bb6S.wav
64,192,56923,1,0,0:0:0:25:C7S.wav
320,192,57129,1,0,0:0:0:25:C7S.wav
192,192,57129,1,0,0:0:0:25:C7S.wav
448,192,57334,1,0,0:0:0:25:A#6S_Bb6S.wav
64,192,57334,1,0,0:0:0:25:A#6S_Bb6S.wav
448,192,57540,1,0,0:0:0:25:A#6S_Bb6S.wav
192,192,57540,1,0,0:0:0:25:A#6S_Bb6S.wav
64,192,57745,1,0,0:0:0:0:G6S.wav
320,192,57745,128,0,58772:0:0:0:25:A#6S_Bb6S.wav
64,192,58772,1,0,0:0:0:25:C6S.wav
192,192,58772,1,0,0:0:0:25:C6S.wav
320,192,58978,1,0,0:0:0:25:D6S.wav
192,192,58978,1,0,0:0:0:25:D6S.wav
448,192,59183,1,0,0:0:0:25:D#6S_Eb6S.wav
320,192,59183,1,0,0:0:0:25:D#6S_Eb6S.wav
64,192,59389,1,0,0:0:0:25:G#5S_Ab5S.wav
320,192,59389,1,0,0:0:0:25:G#5S_Ab5S.wav
192,192,59389,1,0,0:0:0:25:G#5S_Ab5S.wav
64,192,59800,1,0,0:0:0:25:G#5S_Ab5S.wav
192,192,59800,1,0,0:0:0:25:G#5S_Ab5S.wav
448,192,59800,1,0,0:0:0:25:G#5S_Ab5S.wav
64,192,60416,1,0,0:0:0:25:G#5S_Ab5S.wav
192,192,60416,1,0,0:0:0:25:G#5S_Ab5S.wav
192,192,60622,1,0,0:0:0:25:A#5S_Bb5S.wav
320,192,60622,1,0,0:0:0:25:A#5S_Bb5S.wav
320,192,60827,1,0,0:0:0:25:D6S.wav
448,192,60827,1,0,0:0:0:25:D6S.wav
192,192,61033,1,0,0:0:0:25:G5S.wav
64,192,61033,1,0,0:0:0:25:G5S.wav
448,192,61033,1,0,0:0:0:25:G5S.wav
64,192,61444,1,0,0:0:0:25:G6S.wav
320,192,61444,1,0,0:0:0:25:G6S.wav
192,192,61444,1,0,0:0:0:25:G6S.wav
192,192,62060,1,0,0:0:0:25:A#5S_Bb5S.wav
64,192,62060,1,0,0:0:0:25:A#5S_Bb5S.wav
192,192,62266,1,0,0:0:0:25:A#5S_Bb5S.wav
64,192,62266,1,0,0:0:0:25:A#5S_Bb5S.wav
320,192,62471,1,0,0:0:0:10:F5S.wav
448,192,62471,1,0,0:0:0:10:F5S.wav
192,192,62677,1,0,0:0:0:25:G5S.wav
320,192,62677,1,0,0:0:0:25:G5S.wav
448,192,63293,1,0,0:0:0:25:A#5S_Bb5S.wav
320,192,63293,128,0,63498:0:0:0:25:A#5S_Bb5S.wav
64,192,63498,1,0,0:0:0:25:F5S.wav
192,192,63498,1,0,0:0:0:25:F5S.wav
320,192,64115,1,0,0:0:0:25:D5S.wav
64,192,64115,1,0,0:0:0:0:
448,192,64320,1,0,0:0:0:25:D#5S_Eb5S.wav
192,192,64320,128,0,65142:0:0:0:25:D#5S_Eb5S.wav
320,192,65142,1,0,0:0:0:25:F5S.wav
448,192,65142,1,0,0:0:0:0:
192,192,65553,1,0,0:0:0:25:A#5S_Bb5S.wav
320,192,65759,1,0,0:0:0:25:C#6S_Db6S.wav
192,192,65964,1,0,0:0:0:25:D#5S_Eb5S.wav
448,192,65964,1,0,0:0:0:25:D#5S_Eb5S.wav
64,192,65964,1,0,0:0:0:25:D#5S_Eb5S.wav
320,192,66170,1,0,0:0:0:25:C#6S_Db6S.wav
192,192,66375,1,0,0:0:0:25:D#6S_Eb6S.wav
448,192,66375,1,0,0:0:0:25:D#6S_Eb6S.wav
64,192,66375,1,0,0:0:0:25:D#6S_Eb6S.wav
320,192,66581,1,0,0:0:0:25:C#6S_Db6S.wav
192,192,66786,1,0,0:0:0:30:D#6S_Eb6S.wav
448,192,66786,1,0,0:0:0:30:D#6S_Eb6S.wav
64,192,66992,1,0,0:0:0:30:F#6S_Gb6S.wav
320,192,67094,1,0,0:0:0:30:F#6S_Gb6S.wav
448,192,67094,1,0,0:0:0:30:F#6S_Gb6S.wav
192,192,67403,1,0,0:0:0:30:D#6S_Eb6S.wav
320,192,67608,1,0,0:0:0:30:D#6S_Eb6S.wav
64,192,67608,1,0,0:0:0:30:D#6S_Eb6S.wav
448,192,67608,1,0,0:0:0:30:D#6S_Eb6S.wav
192,192,67814,1,0,0:0:0:30:C#6S_Db6S.wav
320,192,68019,1,0,0:0:0:30:D#6S_Eb6S.wav
64,192,68019,1,0,0:0:0:30:D#6S_Eb6S.wav
448,192,68019,1,0,0:0:0:30:D#6S_Eb6S.wav
192,192,68225,1,0,0:0:0:30:C#6S_Db6S.wav
448,192,68430,1,0,0:0:0:30:D#6S_Eb6S.wav
64,192,68430,1,0,0:0:0:30:D#6S_Eb6S.wav
320,192,68430,1,0,0:0:0:30:D#6S_Eb6S.wav
192,192,68635,1,0,0:0:0:30:A#6S_Bb6S.wav
448,192,68738,1,0,0:0:0:30:A#6S_Bb6S.wav
320,192,68738,1,0,0:0:0:30:A#6S_Bb6S.wav
192,192,69046,1,0,0:0:0:30:G#5S_Ab5S.wav
320,192,69252,1,0,0:0:0:30:F#6S_Gb6S.wav
448,192,69252,1,0,0:0:0:30:F#6S_Gb6S.wav
64,192,69252,1,0,0:0:0:30:F#6S_Gb6S.wav
320,192,69457,1,0,0:0:0:30:F6S.wav
192,192,69560,1,0,0:0:0:30:F6S.wav
64,192,69560,1,0,0:0:0:30:F6S.wav
320,192,69868,1,0,0:0:0:30:D#6S_Eb6S.wav
192,192,69868,1,0,0:0:0:30:D#6S_Eb6S.wav
64,192,70074,1,0,0:0:0:30:D6S.wav
192,192,70074,1,0,0:0:0:30:D6S.wav
64,192,70382,1,0,0:0:0:30:A#5S_Bb5S.wav
448,192,70382,1,0,0:0:0:30:A#5S_Bb5S.wav
320,192,70690,1,0,0:0:0:30:G#5S_Ab5S.wav
192,192,70690,1,0,0:0:0:30:G#5S_Ab5S.wav
448,192,70896,1,0,0:0:0:30:A#5S_Bb5S.wav
64,192,70896,1,0,0:0:0:30:A#5S_Bb5S.wav
64,192,71101,1,0,0:0:0:30:A#5S_Bb5S.wav
64,192,71307,1,0,0:0:0:10:A#5S_Bb5S.wav
64,192,71512,1,0,0:0:0:10:A#5S_Bb5S.wav
64,192,71718,1,0,0:0:0:10:A#5S_Bb5S.wav
64,192,71923,1,0,0:0:0:10:A#5S_Bb5S.wav
64,192,72129,1,0,0:0:0:30:A#5S_Bb5S.wav
192,192,72129,1,0,0:0:0:30:A#5S_Bb5S.wav
320,192,72334,1,0,0:0:0:30:A#5S_Bb5S.wav
192,192,72334,1,0,0:0:0:30:A#5S_Bb5S.wav
64,192,72540,1,0,0:0:0:30:D#6S_Eb6S.wav
448,192,72540,1,0,0:0:0:30:D#6S_Eb6S.wav
320,192,72540,1,0,0:0:0:30:D#6S_Eb6S.wav
192,192,72745,1,0,0:0:0:30:C#6S_Db6S.wav
64,192,72951,1,0,0:0:0:30:D#6S_Eb6S.wav
320,192,72951,1,0,0:0:0:30:D#6S_Eb6S.wav
448,192,72951,1,0,0:0:0:30:D#6S_Eb6S.wav
192,192,73156,1,0,0:0:0:30:C#6S_Db6S.wav
448,192,73362,1,0,0:0:0:30:D#6S_Eb6S.wav
64,192,73362,1,0,0:0:0:30:D#6S_Eb6S.wav
320,192,73362,1,0,0:0:0:30:D#6S_Eb6S.wav
448,192,73567,1,0,0:0:0:25:F#6S_Gb6S.wav
320,192,73670,1,0,0:0:0:25:F#6S_Gb6S.wav
192,192,73670,1,0,0:0:0:25:F#6S_Gb6S.wav
64,192,73978,1,0,0:0:0:25:F6S.wav
64,192,74183,1,0,0:0:0:25:D#6S_Eb6S.wav
448,192,74183,1,0,0:0:0:25:D#6S_Eb6S.wav
192,192,74183,1,0,0:0:0:25:D#6S_Eb6S.wav
320,192,74389,1,0,0:0:0:25:C#6S_Db6S.wav
192,192,74594,1,0,0:0:0:25:D#6S_Eb6S.wav
64,192,74594,1,0,0:0:0:25:D#6S_Eb6S.wav
448,192,74594,1,0,0:0:0:25:D#6S_Eb6S.wav
320,192,74800,1,0,0:0:0:25:C#6S_Db6S.wav
448,192,75005,1,0,0:0:0:25:D#6S_Eb6S.wav
64,192,75005,1,0,0:0:0:25:D#6S_Eb6S.wav
192,192,75005,1,0,0:0:0:25:D#6S_Eb6S.wav
64,192,75211,1,0,0:0:0:25:A#6S_Bb6S.wav
448,192,75314,1,0,0:0:0:25:A#6S_Bb6S.wav
320,192,75314,1,0,0:0:0:25:A#6S_Bb6S.wav
320,192,75622,1,0,0:0:0:25:G#6S_Ab6S.wav
192,192,75622,1,0,0:0:0:25:G#6S_Ab6S.wav
64,192,75827,1,0,0:0:0:25:F#6S_Gb6S.wav
192,192,75827,1,0,0:0:0:25:F#6S_Gb6S.wav
192,192,76135,1,0,0:0:0:25:F6S.wav
320,192,76135,1,0,0:0:0:25:F6S.wav
320,192,76444,1,0,0:0:0:25:D#6S_Eb6S.wav
448,192,76444,1,0,0:0:0:25:D#6S_Eb6S.wav
320,192,76649,1,0,0:0:0:25:F6S.wav
192,192,76649,1,0,0:0:0:25:F6S.wav
64,192,76957,1,0,0:0:0:25:F#6S_Gb6S.wav
320,192,76957,1,0,0:0:0:25:F#6S_Gb6S.wav
64,192,77266,1,0,0:0:0:25:G#6S_Ab6S.wav
192,192,77266,1,0,0:0:0:25:G#6S_Ab6S.wav
448,192,77471,1,0,0:0:0:25:A#6S_Bb6S.wav
192,192,77471,1,0,0:0:0:25:A#6S_Bb6S.wav
320,192,77471,1,0,0:0:0:25:A#6S_Bb6S.wav
320,192,78088,1,0,0:0:0:25:A#6S_Bb6S.wav
64,192,78088,1,0,0:0:0:25:A#6S_Bb6S.wav
448,192,78088,1,0,0:0:0:25:A#6S_Bb6S.wav
64,192,78704,1,0,0:0:0:25:A#6S_Bb6S.wav
448,192,78704,1,0,0:0:0:25:A#6S_Bb6S.wav
320,192,78704,1,0,0:0:0:25:A#6S_Bb6S.wav
64,192,78909,1,0,0:0:0:25:A#6S_Bb6S.wav
320,192,78909,1,0,0:0:0:25:A#6S_Bb6S.wav
448,192,78909,1,0,0:0:0:25:A#6S_Bb6S.wav
64,192,79526,1,0,0:0:0:25:G5S.wav
192,192,79526,1,0,0:0:0:25:G5S.wav
448,192,79731,1,0,0:0:0:25:D6S.wav
192,192,79936,1,0,0:0:0:25:C6S.wav
320,192,79936,128,0,82812:0:0:0:0:
448,192,80552,1,0,0:0:0:0:
192,192,80757,1,0,0:0:0:0:
64,192,81066,1,0,0:0:0:0:
192,192,81374,1,0,0:0:0:25:G5S.wav
64,192,81579,1,0,0:0:0:25:G5S.wav
448,192,81785,1,0,0:0:0:25:G5S.wav
64,192,81990,1,0,0:0:0:25:G5S.wav
448,192,82196,1,0,0:0:0:25:G5S.wav
64,192,82401,1,0,0:0:0:25:G5S.wav
448,192,82607,1,0,0:0:0:25:G5S.wav
64,192,82812,1,0,0:0:0:25:G5S.wav
192,192,82812,1,0,0:0:0:25:G5S.wav
320,192,83018,1,0,0:0:0:25:D6S.wav
448,192,83018,1,0,0:0:0:25:D6S.wav
320,192,83223,1,0,0:0:0:25:C6S.wav
192,192,83223,128,0,83840:0:0:0:25:C6S.wav
320,192,83840,1,0,0:0:0:25:A#5S_Bb5S.wav
448,192,83840,1,0,0:0:0:25:A#5S_Bb5S.wav
64,192,84045,128,0,84662:0:0:0:25:A5S.wav
192,192,84251,1,0,0:0:0:25:F6S.wav
448,192,84456,1,0,0:0:0:25:F6S.wav
320,192,84662,128,0,86100:0:0:0:25:D6S.wav
448,192,84867,1,0,0:0:0:25:D5S.wav
64,192,85072,1,0,0:0:0:25:D5S.wav
448,192,85278,1,0,0:0:0:25:D5S.wav
64,192,85483,1,0,0:0:0:25:D5S.wav
448,192,85689,1,0,0:0:0:25:D5S.wav
64,192,85894,1,0,0:0:0:25:D5S.wav
448,192,86100,1,0,0:0:0:25:G5S.wav
192,192,86100,1,0,0:0:0:25:G5S.wav
448,192,86305,1,0,0:0:0:25:D6S.wav
320,192,86511,128,0,87127:0:0:0:25:C6S.wav
64,192,86511,1,0,0:0:0:25:C6S.wav
192,192,86716,1,0,0:0:0:25:C6S.wav
64,192,86922,1,0,0:0:0:25:C6S.wav
448,192,87127,1,0,0:0:0:25:A#5S_Bb5S.wav
192,192,87127,1,0,0:0:0:25:A#5S_Bb5S.wav
320,192,87333,1,0,0:0:0:25:A5S.wav
64,192,87333,1,0,0:0:0:25:A5S.wav
192,192,87641,1,0,0:0:0:10:F5S.wav
448,192,87641,128,0,87949:0:0:0:10:F5S.wav
64,192,87949,1,0,0:0:0:25:G5S.wav
320,192,87949,128,0,89388:0:0:0:25:G5S.wav
448,192,88155,1,0,0:0:0:25:G5S.wav
192,192,88360,1,0,0:0:0:25:G5S.wav
448,192,88566,1,0,0:0:0:25:G5S.wav
192,192,88771,1,0,0:0:0:25:G5S.wav
448,192,88977,1,0,0:0:0:25:G5S.wav
192,192,89182,1,0,0:0:0:25:G5S.wav
64,192,89388,1,0,0:0:0:25:G5S.wav
448,192,89388,1,0,0:0:0:25:G5S.wav
192,192,89593,1,0,0:0:0:25:A5S.wav
320,192,89799,128,0,90209:0:0:0:25:B5S.wav
192,192,90004,1,0,0:0:0:25:A5S.wav
64,192,90209,1,0,0:0:0:25:F5S.wav
448,192,90415,128,0,91442:0:0:0:25:G5S.wav
192,192,90415,1,0,0:0:0:25:G5S.wav
320,192,90620,1,0,0:0:0:25:G5S.wav
192,192,90826,1,0,0:0:0:25:G5S.wav
320,192,91031,1,0,0:0:0:25:G5S.wav
192,192,91237,1,0,0:0:0:25:G5S.wav
320,192,91442,1,0,0:0:0:25:D6S.wav
64,192,91442,128,0,92675:0:0:0:25:D6S.wav
192,192,91648,1,0,0:0:0:25:D6S.wav
320,192,91853,1,0,0:0:0:25:D6S.wav
192,192,92059,1,0,0:0:0:25:D6S.wav
320,192,92264,1,0,0:0:0:25:D6S.wav
192,192,92470,1,0,0:0:0:25:D6S.wav
192,192,92675,1,0,0:0:0:25:G5S.wav
320,192,92675,1,0,0:0:0:25:G5S.wav
448,192,92881,1,0,0:0:0:25:D6S.wav
320,192,92881,1,0,0:0:0:25:D6S.wav
192,192,93086,128,0,94525:0:0:0:25:C6S.wav
64,192,93086,1,0,0:0:0:25:C6S.wav
320,192,93703,1,0,0:0:0:25:B5S.wav
448,192,93908,128,0,94216:0:0:0:25:A5S.wav
64,192,94216,1,0,0:0:0:25:F5S.wav
320,192,94525,1,0,0:0:0:25:G5S.wav
64,192,94730,1,0,0:0:0:25:G5S.wav
448,192,94936,1,0,0:0:0:25:G5S.wav
64,192,95141,1,0,0:0:0:25:G5S.wav
448,192,95346,1,0,0:0:0:25:G5S.wav
64,192,95552,1,0,0:0:0:25:G5S.wav
448,192,95757,1,0,0:0:0:25:G5S.wav
64,192,95963,1,0,0:0:0:25:G5S.wav
192,192,95963,1,0,0:0:0:25:G5S.wav
448,192,96168,128,0,96374:0:0:0:25:D6S.wav
320,192,96168,1,0,0:0:0:25:D6S.wav
64,192,96374,1,0,0:0:0:25:C6S.wav
192,192,96374,128,0,96990:0:0:0:25:C6S.wav
320,192,96990,1,0,0:0:0:25:A#5S_Bb5S.wav
64,192,96990,1,0,0:0:0:25:A#5S_Bb5S.wav
448,192,97196,128,0,97812:0:0:0:25:A5S.wav
192,192,97196,1,0,0:0:0:25:A5S.wav
64,192,97401,1,0,0:0:0:25:F6S.wav
320,192,97504,1,0,0:0:0:25:F6S.wav
192,192,97812,128,0,99251:0:0:0:25:D6S.wav
64,192,97812,1,0,0:0:0:25:D6S.wav
64,192,98018,1,0,0:0:0:25:D6S.wav
320,192,98223,1,0,0:0:0:25:D6S.wav
64,192,98429,1,0,0:0:0:25:D6S.wav
320,192,98634,1,0,0:0:0:25:D6S.wav
64,192,98840,1,0,0:0:0:25:D6S.wav
320,192,99045,1,0,0:0:0:25:D6S.wav
64,192,99251,1,0,0:0:0:25:G5S.wav
192,192,99456,1,0,0:0:0:25:D6S.wav
448,192,99662,1,0,0:0:0:25:C6S.wav
320,192,99662,128,0,101100:0:0:0:25:C6S.wav
192,192,99867,1,0,0:0:0:25:C6S.wav
448,192,100072,1,0,0:0:0:25:C6S.wav
192,192,100278,1,0,0:0:0:25:A#5S_Bb5S.wav
448,192,100278,1,0,0:0:0:25:A#5S_Bb5S.wav
64,192,100483,1,0,0:0:0:25:A5S.wav
448,192,100689,1,0,0:0:0:25:F5S.wav
192,192,100792,1,0,0:0:0:25:F5S.wav
192,192,101100,1,0,0:0:0:25:G5S.wav
448,192,101100,128,0,102538:0:0:0:25:G5S.wav
64,192,101305,1,0,0:0:0:25:G5S.wav
320,192,101511,1,0,0:0:0:25:G5S.wav
64,192,101716,1,0,0:0:0:25:G5S.wav
320,192,101922,1,0,0:0:0:25:G5S.wav
64,192,102127,1,0,0:0:0:25:G5S.wav
320,192,102333,1,0,0:0:0:25:G5S.wav
64,192,102538,1,0,0:0:0:25:G5S.wav
192,192,102538,1,0,0:0:0:25:G5S.wav
192,192,102744,1,0,0:0:0:25:A5S.wav
320,192,102744,1,0,0:0:0:25:A5S.wav
448,192,102949,1,0,0:0:0:25:A#5S_Bb5S.wav
320,192,102949,1,0,0:0:0:25:A#5S_Bb5S.wav
192,192,103155,1,0,0:0:0:25:A5S.wav
320,192,103155,1,0,0:0:0:25:A5S.wav
64,192,103360,1,0,0:0:0:25:G5S.wav
192,192,103360,1,0,0:0:0:25:G5S.wav
64,192,103566,1,0,0:0:0:25:G5S.wav
448,192,103566,128,0,104593:0:0:0:25:G5S.wav
320,192,103771,1,0,0:0:0:25:G#5S_Ab5S.wav
64,192,103977,1,0,0:0:0:25:G#5S_Ab5S.wav
320,192,104182,1,0,0:0:0:25:G#5S_Ab5S.wav
64,192,104388,1,0,0:0:0:25:G#5S_Ab5S.wav
192,192,104593,128,0,105414:0:0:0:25:D6S.wav
320,192,104593,1,0,0:0:0:25:D6S.wav
64,192,104798,1,0,0:0:0:25:D6S.wav
320,192,105003,1,0,0:0:0:25:D6S.wav
64,192,105209,1,0,0:0:0:25:D6S.wav
448,192,105414,1,0,0:0:0:25:G5S.wav
320,192,105517,1,0,0:0:0:25:A5S.wav
192,192,105620,1,0,0:0:0:25:A#5S_Bb5S.wav
320,192,105723,1,0,0:0:0:25:D6S.wav
448,192,105825,1,0,0:0:0:25:A5S.wav
64,192,105825,1,0,0:0:0:25:A5S.wav
192,192,106031,1,0,0:0:0:25:F5S.wav
320,192,106134,1,0,0:0:0:25:G5S.wav
64,192,106442,1,0,0:0:0:25:F5S.wav
192,192,106442,1,0,0:0:0:25:F5S.wav
448,192,106647,1,0,0:0:0:25:G5S.wav
320,192,106647,1,0,0:0:0:25:G5S.wav
192,192,106853,1,0,0:0:0:25:A5S.wav
320,192,106853,1,0,0:0:0:25:A5S.wav
64,192,107058,1,0,0:0:0:25:G5S.wav
448,192,107161,1,0,0:0:0:25:D6S.wav
192,192,107264,1,0,0:0:0:25:A5S.wav
448,192,107366,1,0,0:0:0:25:D6S.wav
320,192,107469,1,0,0:0:0:25:A5S.wav
64,192,107572,1,0,0:0:0:25:D6S.wav
192,192,107675,1,0,0:0:0:25:G5S.wav
448,192,107777,1,0,0:0:0:25:A5S.wav
320,192,107880,1,0,0:0:0:25:G5S.wav
64,192,107880,1,0,0:0:0:25:G5S.wav
448,192,108017,1,0,0:0:0:25:D6S.wav
192,192,108017,1,0,0:0:0:25:D6S.wav
320,192,108188,1,0,0:0:0:25:C6S.wav
64,192,108291,1,0,0:0:0:25:G5S.wav
192,192,108291,1,0,0:0:0:25:G5S.wav
320,192,108428,128,0,108599:0:0:0:25:D6S.wav
448,192,108428,1,0,0:0:0:25:D6S.wav
192,192,108599,1,0,0:0:0:25:C6S.wav
64,192,108599,1,0,0:0:0:25:C6S.wav
448,192,108702,1,0,0:0:0:25:A5S.wav
192,192,108805,1,0,0:0:0:25:B5S.wav
320,192,108908,1,0,0:0:0:25:G5S.wav
192,192,109010,1,0,0:0:0:25:A5S.wav
320,192,109113,1,0,0:0:0:25:B5S.wav
64,192,109216,1,0,0:0:0:25:F5S.wav
192,192,109319,1,0,0:0:0:25:G5S.wav
320,192,109421,1,0,0:0:0:25:D5S.wav
64,192,109524,1,0,0:0:0:25:D5S.wav
448,192,109524,1,0,0:0:0:25:D5S.wav
192,192,109558,1,0,0:0:0:25:G5S.wav
64,192,109627,1,0,0:0:0:25:D5S.wav
192,192,109661,1,0,0:0:0:25:G5S.wav
320,192,109729,1,0,0:0:0:25:D5S.wav
448,192,109764,1,0,0:0:0:25:C5S.wav
320,192,109832,1,0,0:0:0:25:D5S.wav
192,192,109866,1,0,0:0:0:25:F5S.wav
64,192,109935,1,0,0:0:0:25:G5S.wav
320,192,110038,1,0,0:0:0:25:C5S.wav
64,192,110140,1,0,0:0:0:25:D5S.wav
192,192,110243,1,0,0:0:0:25:B5S.wav
320,192,110346,1,0,0:0:0:25:C5S.wav
192,192,110483,1,0,0:0:0:25:A5S.wav
64,192,110620,1,0,0:0:0:25:B5S.wav
192,192,110757,1,0,0:0:0:25:A5S.wav
448,192,110894,1,0,0:0:0:25:B5S.wav
320,192,111065,1,0,0:0:0:25:F5S.wav
64,192,111065,1,0,0:0:0:25:F5S.wav
192,192,111168,1,0,0:0:0:25:G5S.wav
448,192,111271,1,0,0:0:0:25:F5S.wav
64,192,111373,1,0,0:0:0:25:D5S.wav
192,192,111476,1,0,0:0:0:25:F5S.wav
320,192,111579,128,0,111990:0:0:0:25:G5S.wav
448,192,111784,1,0,0:0:0:25:D5S.wav
192,192,111990,1,0,0:0:0:25:C5S.wav
64,192,112093,1,0,0:0:0:25:B5S.wav
192,192,112195,1,0,0:0:0:25:A5S.wav
320,192,112298,1,0,0:0:0:25:F5S.wav
448,192,112401,1,0,0:0:0:25:G5S.wav
64,192,112401,1,0,0:0:0:25:G5S.wav
64,192,112709,1,0,0:0:0:25:A5S.wav
320,192,112812,1,0,0:0:0:25:G5S.wav
192,192,112914,1,0,0:0:0:25:A5S.wav
64,192,113017,1,0,0:0:0:25:B5S.wav
192,192,113120,1,0,0:0:0:25:C6S.wav
320,192,113223,1,0,0:0:0:25:D6S.wav
448,192,113325,1,0,0:0:0:25:F5S.wav
192,192,113428,1,0,0:0:0:25:G6S.wav
448,192,113531,1,0,0:0:0:25:D6S.wav
192,192,113634,1,0,0:0:0:25:A5S.wav
448,192,113736,1,0,0:0:0:25:D5S.wav
192,192,113839,1,0,0:0:0:25:B5S.wav
448,192,113942,1,0,0:0:0:25:C6S.wav
192,192,114045,1,0,0:0:0:25:A5S.wav
320,192,114079,1,0,0:0:0:25:B5S.wav
448,192,114147,1,0,0:0:0:25:G5S.wav
320,192,114182,1,0,0:0:0:25:A5S.wav
192,192,114250,1,0,0:0:0:25:F5S.wav
64,192,114353,1,0,0:0:0:25:D#6S_Eb6S.wav
192,192,114456,1,0,0:0:0:25:C6S.wav
320,192,114558,1,0,0:0:0:25:B5S.wav
64,192,114661,1,0,0:0:0:25:A5S.wav
448,192,114661,1,0,0:0:0:25:A5S.wav
192,192,114764,1,0,0:0:0:25:A5S.wav
320,192,114764,1,0,0:0:0:25:A5S.wav
64,192,114798,1,0,0:0:0:25:A#5S_Bb5S.wav
448,192,114798,1,0,0:0:0:25:A#5S_Bb5S.wav
320,192,114866,1,0,0:0:0:25:C6S.wav
192,192,114969,1,0,0:0:0:25:B5S.wav
448,192,115072,1,0,0:0:0:25:C6S.wav
320,192,115175,1,0,0:0:0:25:D#6S_Eb6S.wav
448,192,115277,1,0,0:0:0:25:F6S.wav
320,192,115380,1,0,0:0:0:25:A5S.wav
192,192,115483,1,0,0:0:0:25:B5S.wav
448,192,115586,1,0,0:0:0:25:C7S.wav
64,192,115688,1,0,0:0:0:25:A#5S_Bb5S.wav
320,192,115688,1,0,0:0:0:25:A#5S_Bb5S.wav
192,192,115791,1,0,0:0:0:25:A5S.wav
64,192,115894,1,0,0:0:0:25:G6S.wav
192,192,115997,1,0,0:0:0:25:F6S.wav
448,192,115997,1,0,0:0:0:25:F6S.wav
64,192,116099,1,0,0:0:0:25:G6S.wav
320,192,116099,1,0,0:0:0:25:G6S.wav
192,192,116202,1,0,0:0:0:25:F6S.wav
192,192,116305,1,0,0:0:0:25:D6S.wav
448,192,116305,1,0,0:0:0:25:D6S.wav
64,192,116408,1,0,0:0:0:25:G6S.wav
320,192,116408,1,0,0:0:0:25:G6S.wav
192,192,116510,1,0,0:0:0:25:F6S.wav
448,192,116613,1,0,0:0:0:25:D6S.wav
64,192,116613,1,0,0:0:0:25:D6S.wav
192,192,116716,1,0,0:0:0:25:G6S.wav
320,192,116921,1,0,0:0:0:25:D6S.wav
192,192,117024,1,0,0:0:0:25:C6S.wav
448,192,117127,1,0,0:0:0:25:A#5S_Bb5S.wav
64,192,117127,1,0,0:0:0:25:A#5S_Bb5S.wav
320,192,117229,1,0,0:0:0:25:D6S.wav
448,192,117332,1,0,0:0:0:25:C6S.wav
64,192,117332,1,0,0:0:0:25:C6S.wav
192,192,117332,1,0,0:0:0:25:C6S.wav
192,192,117538,1,0,0:0:0:25:A5S.wav
448,192,117538,1,0,0:0:0:25:A5S.wav
320,192,117743,1,0,0:0:0:25:D6S.wav
192,192,117743,1,0,0:0:0:25:D6S.wav
64,192,117846,1,0,0:0:0:25:A#5S_Bb5S.wav
320,192,117949,1,0,0:0:0:25:A5S.wav
192,192,118051,1,0,0:0:0:25:G5S.wav
320,192,118154,1,0,0:0:0:25:D5S.wav
192,192,118257,1,0,0:0:0:25:A#5S_Bb5S.wav
448,192,118360,1,0,0:0:0:25:A5S.wav
192,192,118462,1,0,0:0:0:25:G5S.wav
64,192,118565,1,0,0:0:0:25:D5S.wav
320,192,118668,1,0,0:0:0:25:G5S.wav
448,192,118771,1,0,0:0:0:25:A5S.wav
320,192,118873,1,0,0:0:0:25:A#5S_Bb5S.wav
192,192,118976,1,0,0:0:0:25:D6S.wav
64,192,119079,1,0,0:0:0:25:G6S.wav
192,192,119182,1,0,0:0:0:25:A5S.wav
320,192,119284,1,0,0:0:0:25:B5S.wav
320,192,119593,1,0,0:0:0:25:F5S.wav
448,192,119593,1,0,0:0:0:25:F5S.wav
192,192,119798,1,0,0:0:0:25:G5S.wav
64,192,119798,1,0,0:0:0:25:G5S.wav
192,192,120003,1,0,0:0:0:25:A5S.wav
320,192,120003,1,0,0:0:0:25:A5S.wav
320,192,120209,1,0,0:0:0:25:G5S.wav
64,192,120209,1,0,0:0:0:25:G5S.wav
448,192,120312,1,0,0:0:0:25:C6S.wav
192,192,120414,1,0,0:0:0:25:A#5S_Bb5S.wav
320,192,120414,1,0,0:0:0:25:A#5S_Bb5S.wav
448,192,120517,1,0,0:0:0:25:C6S.wav
64,192,120620,1,0,0:0:0:25:A5S.wav
320,192,120620,1,0,0:0:0:25:A5S.wav
448,192,120723,1,0,0:0:0:25:C6S.wav
64,192,120825,1,0,0:0:0:25:G5S.wav
320,192,120825,1,0,0:0:0:25:G5S.wav
448,192,120928,1,0,0:0:0:25:A#5S_Bb5S.wav
320,192,121031,1,0,0:0:0:25:G5S.wav
192,192,121168,1,0,0:0:0:25:D6S.wav
64,192,121168,1,0,0:0:0:25:D6S.wav
320,192,121339,1,0,0:0:0:25:C6S.wav
192,192,121339,1,0,0:0:0:25:C6S.wav
64,192,121442,1,0,0:0:0:25:G5S.wav
192,192,121579,1,0,0:0:0:25:D6S.wav
64,192,121579,1,0,0:0:0:25:D6S.wav
320,192,121750,1,0,0:0:0:25:C6S.wav
192,192,121750,1,0,0:0:0:25:C6S.wav
64,192,121853,1,0,0:0:0:25:A5S.wav
448,192,121853,1,0,0:0:0:25:A5S.wav
192,192,121956,1,0,0:0:0:25:B5S.wav
320,192,122058,1,0,0:0:0:25:G5S.wav
64,192,122161,1,0,0:0:0:25:A5S.wav
192,192,122264,1,0,0:0:0:25:F5S.wav
320,192,122366,1,0,0:0:0:25:G5S.wav
448,192,122469,1,0,0:0:0:25:D5S.wav
64,192,122572,1,0,0:0:0:25:D5S.wav
448,192,122675,1,0,0:0:0:25:D5S.wav
64,192,122675,1,0,0:0:0:25:D5S.wav
320,192,122709,1,0,0:0:0:25:G5S.wav
192,192,122777,1,0,0:0:0:25:D5S.wav
64,192,122812,1,0,0:0:0:25:G5S.wav
448,192,122880,1,0,0:0:0:25:D5S.wav
320,192,122914,1,0,0:0:0:25:C5S.wav
192,192,122983,1,0,0:0:0:25:D5S.wav
64,192,123017,1,0,0:0:0:25:F5S.wav
448,192,123086,1,0,0:0:0:25:G5S.wav
192,192,123188,1,0,0:0:0:25:C5S.wav
320,192,123291,1,0,0:0:0:25:D5S.wav
64,192,123394,1,0,0:0:0:25:A#5S_Bb5S.wav
448,192,123497,1,0,0:0:0:25:C5S.wav
64,192,123634,1,0,0:0:0:25:A5S.wav
448,192,123805,1,0,0:0:0:25:B5S.wav
320,192,123908,1,0,0:0:0:25:A5S.wav
448,192,124045,1,0,0:0:0:25:B5S.wav
64,192,124216,1,0,0:0:0:25:F5S.wav
192,192,124319,1,0,0:0:0:25:G5S.wav
64,192,124421,1,0,0:0:0:25:F5S.wav
192,192,124524,1,0,0:0:0:25:D5S.wav
64,192,124627,128,0,124729:0:0:0:25:F5S.wav
320,192,124729,128,0,124935:0:0:0:25:G5S.wav
192,192,124729,1,0,0:0:0:25:G5S.wav
448,192,124935,1,0,0:0:0:25:D6S.wav
192,192,125140,1,0,0:0:0:25:C6S.wav
64,192,125243,1,0,0:0:0:25:B5S.wav
192,192,125346,1,0,0:0:0:25:A5S.wav
320,192,125449,1,0,0:0:0:25:F5S.wav
64,192,125551,128,0,125860:0:0:0:25:G5S.wav
320,192,125860,128,0,125962:0:0:0:25:A5S.wav
448,192,125860,1,0,0:0:0:25:A5S.wav
64,192,125962,1,0,0:0:0:25:G5S.wav
192,192,126065,1,0,0:0:0:25:A5S.wav
320,192,126168,1,0,0:0:0:25:B5S.wav
448,192,126271,1,0,0:0:0:25:C6S.wav
320,192,126373,1,0,0:0:0:25:D6S.wav
64,192,126476,1,0,0:0:0:25:F6S.wav
320,192,126579,1,0,0:0:0:25:G6S.wav
64,192,126682,1,0,0:0:0:25:D6S.wav
448,192,126784,1,0,0:0:0:25:A5S.wav
192,192,126784,1,0,0:0:0:25:A5S.wav
64,192,126887,1,0,0:0:0:25:D6S.wav
320,192,126990,1,0,0:0:0:25:A#6S_Bb6S.wav
448,192,127093,1,0,0:0:0:25:C7S.wav
192,192,127195,1,0,0:0:0:25:A5S.wav
320,192,127229,1,0,0:0:0:25:A#5S_Bb5S.wav
64,192,127298,1,0,0:0:0:25:G6S.wav
448,192,127298,1,0,0:0:0:25:G6S.wav
192,192,127332,1,0,0:0:0:25:A5S.wav
320,192,127401,1,0,0:0:0:25:F5S.wav
64,192,127503,1,0,0:0:0:25:E6S.wav
192,192,127503,1,0,0:0:0:25:E6S.wav
320,192,127606,1,0,0:0:0:25:C6S.wav
192,192,127709,1,0,0:0:0:25:B5S.wav
448,192,127812,1,0,0:0:0:25:G5S.wav
64,192,127914,1,0,0:0:0:25:A5S.wav
192,192,127949,1,0,0:0:0:25:B5S.wav
320,192,128017,1,0,0:0:0:25:C6S.wav
448,192,128120,1,0,0:0:0:25:B5S.wav
64,192,128223,1,0,0:0:0:25:C6S.wav
192,192,128325,1,0,0:0:0:25:D#6S_Eb6S.wav
448,192,128428,1,0,0:0:0:25:F6S.wav
320,192,128531,1,0,0:0:0:25:A5S.wav
192,192,128634,1,0,0:0:0:25:B5S.wav
448,192,128736,1,0,0:0:0:25:C6S.wav
64,192,128839,1,0,0:0:0:25:B5S.wav
192,192,128942,1,0,0:0:0:25:A5S.wav
448,192,128942,1,0,0:0:0:25:A5S.wav
320,192,129045,1,0,0:0:0:25:G5S.wav
64,192,129147,1,0,0:0:0:25:F5S.wav
320,192,129250,1,0,0:0:0:25:G5S.wav
448,192,129250,1,0,0:0:0:25:G5S.wav
192,192,129353,1,0,0:0:0:25:F5S.wav
320,192,129353,1,0,0:0:0:25:F5S.wav
64,192,129456,1,0,0:0:0:25:D5S.wav
192,192,129456,1,0,0:0:0:25:D5S.wav
448,192,129558,1,0,0:0:0:25:G5S.wav
320,192,129558,1,0,0:0:0:25:G5S.wav
320,192,129661,1,0,0:0:0:25:F5S.wav
192,192,129661,1,0,0:0:0:25:F5S.wav
192,192,129764,1,0,0:0:0:25:D5S.wav
64,192,129764,1,0,0:0:0:25:D5S.wav
192,192,129866,1,0,0:0:0:25:G5S.wav
320,192,129866,1,0,0:0:0:25:G5S.wav
448,192,130072,1,0,0:0:0:25:D6S.wav
192,192,130175,1,0,0:0:0:25:C6S.wav
320,192,130277,1,0,0:0:0:25:B5S.wav
448,192,130380,1,0,0:0:0:25:D6S.wav
192,192,130483,128,0,130688:0:0:0:25:C6S.wav
320,192,130688,1,0,0:0:0:25:A#5S_Bb5S.wav
64,192,130688,1,0,0:0:0:25:A#5S_Bb5S.wav
64,192,130894,1,0,0:0:0:25:G5S.wav
192,192,130997,1,0,0:0:0:25:A5S.wav
320,192,131099,1,0,0:0:0:25:B5S.wav
448,192,131202,1,0,0:0:0:25:C6S.wav
320,192,131305,1,0,0:0:0:25:D6S.wav
64,192,131408,1,0,0:0:0:25:A#6S_Bb6S.wav
320,192,131510,1,0,0:0:0:25:C6S.wav
448,192,131613,1,0,0:0:0:25:F6S.wav
320,192,131716,1,0,0:0:0:25:A#5S_Bb5S.wav
64,192,131819,1,0,0:0:0:25:A5S.wav
192,192,131921,1,0,0:0:0:25:A#5S_Bb5S.wav
320,192,132024,1,0,0:0:0:25:C6S.wav
448,192,132127,1,0,0:0:0:25:D6S.wav
64,192,132127,1,0,0:0:0:25:D6S.wav
192,192,132229,1,0,0:0:0:25:F6S.wav
64,192,132332,1,0,0:0:0:25:C6S.wav
448,192,132435,1,0,0:0:0:25:D6S.wav
320,192,132538,1,0,0:0:0:25:D#6S_Eb6S.wav
192,192,132538,128,0,133565:0:0:0:25:D#6S_Eb6S.wav
64,192,132743,1,0,0:0:0:25:C5S.wav
320,192,132949,1,0,0:0:0:25:G5S.wav
64,192,133154,1,0,0:0:0:25:C5S.wav
320,192,133360,1,0,0:0:0:0:
448,192,133565,1,0,0:0:0:25:D6S.wav
64,192,133565,1,0,0:0:0:25:D6S.wav
320,192,133668,1,0,0:0:0:25:D#6S_Eb6S.wav
448,192,133771,1,0,0:0:0:25:D6S.wav
192,192,133873,1,0,0:0:0:25:A#5S_Bb5S.wav
64,192,133976,1,0,0:0:0:25:G5S.wav
192,192,134079,1,0,0:0:0:25:G#5S_Ab5S.wav
320,192,134182,128,0,136236:0:0:0:25:A5S.wav
64,192,134387,1,0,0:0:0:25:A5S.wav
448,192,134593,1,0,0:0:0:25:A5S.wav
64,192,134798,1,0,0:0:0:25:A5S.wav
448,192,135003,1,0,0:0:0:25:C5S.wav
192,192,135209,1,0,0:0:0:25:G5S.wav
448,192,135414,1,0,0:0:0:25:C5S.wav
64,192,135620,1,0,0:0:0:25:G5S.wav
448,192,135825,1,0,0:0:0:25:C5S.wav
192,192,136031,1,0,0:0:0:25:F6S.wav
192,192,136236,1,0,0:0:0:25:C5S.wav
64,192,136236,1,0,0:0:0:25:C5S.wav
320,192,136339,1,0,0:0:0:25:D5S.wav
192,192,136442,1,0,0:0:0:25:D#5S_Eb5S.wav
64,192,136545,1,0,0:0:0:25:G5S.wav
448,192,136545,128,0,136853:0:0:0:25:G5S.wav
192,192,136853,1,0,0:0:0:25:A5S.wav
320,192,136853,1,0,0:0:0:25:A5S.wav
192,192,137058,1,0,0:0:0:25:C5S.wav
320,192,137058,1,0,0:0:0:25:C5S.wav
64,192,137161,1,0,0:0:0:25:D5S.wav
192,192,137264,1,0,0:0:0:25:D#5S_Eb5S.wav
320,192,137366,1,0,0:0:0:25:G#5S_Ab5S.wav
64,192,137366,128,0,137675:0:0:0:25:G#5S_Ab5S.wav
448,192,137675,1,0,0:0:0:25:A5S.wav
320,192,137675,1,0,0:0:0:25:A5S.wav
320,192,137880,1,0,0:0:0:25:C5S.wav
448,192,137880,1,0,0:0:0:25:C5S.wav
192,192,137983,1,0,0:0:0:25:D5S.wav
64,192,138086,1,0,0:0:0:25:D#5S_Eb5S.wav
192,192,138188,1,0,0:0:0:25:G5S.wav
448,192,138188,128,0,138497:0:0:0:25:G#5S_Ab5S.wav
64,192,138497,1,0,0:0:0:25:G#5S_Ab5S.wav
192,192,138497,1,0,0:0:0:25:G#5S_Ab5S.wav
320,192,138702,1,0,0:0:0:25:C5S.wav
192,192,138702,1,0,0:0:0:25:C5S.wav
64,192,138805,1,0,0:0:0:25:D5S.wav
192,192,138908,1,0,0:0:0:25:D#5S_Eb5S.wav
320,192,139010,1,0,0:0:0:25:G#5S_Ab5S.wav
448,192,139010,128,0,139319:0:0:0:25:G#5S_Ab5S.wav
64,192,139319,1,0,0:0:0:25:G5S.wav
192,192,139319,1,0,0:0:0:25:G5S.wav
320,192,139524,1,0,0:0:0:25:C5S.wav
64,192,139524,1,0,0:0:0:25:C5S.wav
192,192,139627,1,0,0:0:0:25:D5S.wav
320,192,139729,1,0,0:0:0:25:D#5S_Eb5S.wav
64,192,139832,1,0,0:0:0:25:G5S.wav
448,192,139832,128,0,140140:0:0:0:25:G5S.wav
320,192,140140,1,0,0:0:0:25:A5S.wav
192,192,140140,1,0,0:0:0:25:A5S.wav
64,192,140346,1,0,0:0:0:25:C5S.wav
192,192,140346,1,0,0:0:0:25:C5S.wav
320,192,140449,1,0,0:0:0:25:D5S.wav
448,192,140551,1,0,0:0:0:25:D#5S_Eb5S.wav
192,192,140654,1,0,0:0:0:25:G#5S_Ab5S.wav
64,192,140654,128,0,140962:0:0:0:25:G#5S_Ab5S.wav
320,192,140962,1,0,0:0:0:25:A5S.wav
192,192,141168,1,0,0:0:0:25:C5S.wav
320,192,141271,1,0,0:0:0:25:D5S.wav
64,192,141373,1,0,0:0:0:25:D#5S_Eb5S.wav
448,192,141476,1,0,0:0:0:25:G#5S_Ab5S.wav
448,192,141784,1,0,0:0:0:25:G5S.wav
64,192,141990,1,0,0:0:0:25:C5S.wav
192,192,142093,1,0,0:0:0:25:D5S.wav
320,192,142195,1,0,0:0:0:25:D#6S_Eb6S.wav
448,192,142298,1,0,0:0:0:25:A5S.wav
320,192,142401,1,0,0:0:0:25:D#7S_Eb7S.wav
192,192,142401,1,0,0:0:0:25:D#7S_Eb7S.wav
448,192,145629,5,0,0:0:0:0:
320,192,145723,1,0,0:0:0:0:
64,192,145818,1,0,0:0:0:0:
448,192,145912,1,0,0:0:0:0:
320,192,146007,1,0,0:0:0:0:
64,192,146102,1,0,0:0:0:0:
448,192,146196,1,0,0:0:0:0:
320,192,146291,1,0,0:0:0:0:
64,192,146386,1,0,0:0:0:0:
448,192,146480,1,0,0:0:0:0:
320,192,146575,1,0,0:0:0:0:
64,192,146670,1,0,0:0:0:0:
64,192,146764,1,0,0:0:0:0:
448,192,146764,1,0,0:0:0:0:
448,192,147048,1,0,0:0:0:0:
64,192,147048,1,0,0:0:0:0:
64,192,147332,1,0,0:0:0:0:
448,192,147332,1,0,0:0:0:0:
192,192,147521,1,0,0:0:0:0:
448,192,147521,1,0,0:0:0:0:
320,192,147616,1,0,0:0:0:0:
64,192,147711,1,0,0:0:0:0:
192,192,147805,1,0,0:0:0:0:
448,192,147805,1,0,0:0:0:0:
320,192,147900,1,0,0:0:0:0:
64,192,147994,1,0,0:0:0:0:
192,192,148089,1,0,0:0:0:0:
448,192,148089,1,0,0:0:0:0:
320,192,148184,1,0,0:0:0:0:
64,192,148278,1,0,0:0:0:0:
192,192,148373,1,0,0:0:0:0:
448,192,148373,1,0,0:0:0:0:
320,192,148468,1,0,0:0:0:0:
192,192,148562,1,0,0:0:0:0:
64,192,148657,1,0,0:0:0:0:
448,192,148657,1,0,0:0:0:0:
448,192,148941,1,0,0:0:0:0:
64,192,148941,1,0,0:0:0:0:
64,192,149225,1,0,0:0:0:0:
448,192,149225,1,0,0:0:0:0:
64,192,149414,1,0,0:0:0:0:
320,192,149414,1,0,0:0:0:0:
192,192,149509,1,0,0:0:0:0:
64,192,149603,1,0,0:0:0:0:
192,192,149698,1,0,0:0:0:0:
448,192,149698,1,0,0:0:0:0:
320,192,149793,1,0,0:0:0:0:
192,192,149887,1,0,0:0:0:0:
64,192,149982,1,0,0:0:0:0:
448,192,149982,1,0,0:0:0:0:
320,192,150076,1,0,0:0:0:0:
192,192,150171,1,0,0:0:0:0:
64,192,150266,1,0,0:0:0:0:
320,192,150266,1,0,0:0:0:0:
192,192,150360,1,0,0:0:0:0:
64,192,150455,1,0,0:0:0:0:
192,192,150550,1,0,0:0:0:0:
448,192,150550,1,0,0:0:0:0:
192,192,150834,1,0,0:0:0:0:
448,192,150834,1,0,0:0:0:0:
192,192,151117,1,0,0:0:0:0:
448,192,151117,1,0,0:0:0:0:
64,192,151307,1,0,0:0:0:0:
448,192,151307,1,0,0:0:0:0:
320,192,151401,1,0,0:0:0:0:
192,192,151496,1,0,0:0:0:0:
64,192,151591,1,0,0:0:0:0:
448,192,151591,1,0,0:0:0:0:
320,192,151685,1,0,0:0:0:0:
192,192,151780,1,0,0:0:0:0:
64,192,151875,1,0,0:0:0:0:
448,192,151875,1,0,0:0:0:0:
320,192,151969,1,0,0:0:0:0:
192,192,152064,1,0,0:0:0:0:
64,192,152158,1,0,0:0:0:0:
448,192,152158,1,0,0:0:0:0:
320,192,152253,1,0,0:0:0:0:
192,192,152348,1,0,0:0:0:0:
64,192,152442,1,0,0:0:0:0:
448,192,152442,1,0,0:0:0:0:
320,192,152726,1,0,0:0:0:0:
448,192,152726,1,0,0:0:0:0:
320,192,153010,1,0,0:0:0:0:
448,192,153010,1,0,0:0:0:0:
64,192,153199,1,0,0:0:0:0:
448,192,153199,1,0,0:0:0:0:
320,192,153294,1,0,0:0:0:0:
192,192,153389,1,0,0:0:0:0:
448,192,153483,1,0,0:0:0:0:
320,192,153483,1,0,0:0:0:0:
192,192,153578,1,0,0:0:0:0:
64,192,153673,1,0,0:0:0:0:
192,192,153767,1,0,0:0:0:0:
448,192,153767,1,0,0:0:0:0:
320,192,153862,1,0,0:0:0:0:
64,192,153957,1,0,0:0:0:0:
448,192,154051,1,0,0:0:0:0:
320,192,154051,1,0,0:0:0:0:
192,192,154146,1,0,0:0:0:0:
64,192,154240,1,0,0:0:0:0:
192,192,154335,1,0,0:0:0:0:
448,192,154335,1,0,0:0:0:0:
192,192,154619,1,0,0:0:0:0:
448,192,154619,1,0,0:0:0:0:
192,192,154903,1,0,0:0:0:0:
448,192,154903,1,0,0:0:0:0:
64,192,155092,1,0,0:0:0:0:
448,192,155092,1,0,0:0:0:0:
320,192,155187,1,0,0:0:0:0:
448,192,155281,1,0,0:0:0:0:
64,192,155376,1,0,0:0:0:0:
320,192,155376,1,0,0:0:0:0:
192,192,155471,1,0,0:0:0:0:
64,192,155565,1,0,0:0:0:0:
448,192,155660,1,0,0:0:0:0:
320,192,155660,1,0,0:0:0:0:
192,192,155755,1,0,0:0:0:0:
64,192,155849,1,0,0:0:0:0:
320,192,155944,1,0,0:0:0:0:
192,192,155944,1,0,0:0:0:0:
448,192,156039,1,0,0:0:0:0:
320,192,156133,1,0,0:0:0:0:
448,192,156228,1,0,0:0:0:0:
192,192,156228,1,0,0:0:0:0:
192,192,156512,1,0,0:0:0:0:
448,192,156512,1,0,0:0:0:0:
192,192,156796,1,0,0:0:0:0:
448,192,156796,1,0,0:0:0:0:
64,192,156985,1,0,0:0:0:0:
192,192,156985,1,0,0:0:0:0:
448,192,157080,1,0,0:0:0:0:
320,192,157174,1,0,0:0:0:0:
64,192,157269,1,0,0:0:0:0:
448,192,157269,1,0,0:0:0:0:
192,192,157364,1,0,0:0:0:0:
320,192,157458,1,0,0:0:0:0:
64,192,157553,1,0,0:0:0:0:
448,192,157553,1,0,0:0:0:0:
320,192,157647,1,0,0:0:0:0:
192,192,157742,1,0,0:0:0:0:
320,192,157837,1,0,0:0:0:0:
448,192,157837,1,0,0:0:0:0:
192,192,157931,1,0,0:0:0:0:
64,192,158026,1,0,0:0:0:0:
320,192,158121,1,0,0:0:0:0:
192,192,158121,1,0,0:0:0:0:
192,192,158405,1,0,0:0:0:0:
320,192,158405,1,0,0:0:0:0:
320,192,158688,1,0,0:0:0:0:
448,192,158688,1,0,0:0:0:0:
64,192,158878,1,0,0:0:0:0:
320,192,158878,1,0,0:0:0:0:
192,192,158972,1,0,0:0:0:0:
64,192,159067,1,0,0:0:0:0:
320,192,159067,1,0,0:0:0:0:
192,192,159162,1,0,0:0:0:0:
448,192,159162,1,0,0:0:0:0:
320,192,159256,1,0,0:0:0:0:
192,192,159351,1,0,0:0:0:0:
448,192,159351,1,0,0:0:0:0:
64,192,159446,1,0,0:0:0:0:
320,192,159446,1,0,0:0:0:0:
192,192,159540,1,0,0:0:0:0:
64,192,159635,1,0,0:0:0:0:
320,192,159635,1,0,0:0:0:0:
192,192,159729,1,0,0:0:0:0:
448,192,159729,1,0,0:0:0:0:
320,192,159824,1,0,0:0:0:0:
192,192,159919,1,0,0:0:0:0:
448,192,159919,1,0,0:0:0:0:
64,192,160013,1,0,0:0:0:0:
320,192,160013,1,0,0:0:0:0:
192,192,160297,1,0,0:0:0:0:
448,192,160297,1,0,0:0:0:0:
64,192,160297,1,0,0:0:0:0:
64,192,160581,1,0,0:0:0:0:
320,192,160581,1,0,0:0:0:0:
448,192,160581,1,0,0:0:0:0:
192,192,160770,1,0,0:0:0:0:
448,192,160770,1,0,0:0:0:0:
320,192,161148,1,0,0:0:0:0:
64,192,161527,1,0,0:0:0:0:
448,192,161527,1,0,0:0:0:0:
192,192,161905,1,0,0:0:0:0:
320,192,162284,1,0,0:0:0:0:
448,192,162284,1,0,0:0:0:0:
64,192,162662,1,0,0:0:0:0:
64,192,163041,1,0,0:0:0:0:
192,192,163041,1,0,0:0:0:0:
320,192,163419,1,0,0:0:0:0:
192,192,163798,1,0,0:0:0:0:
448,192,163798,1,0,0:0:0:0:
192,192,164176,1,0,0:0:0:0:
192,192,164555,1,0,0:0:0:0:
448,192,164555,1,0,0:0:0:0:
64,192,164934,1,0,0:0:0:0:
64,192,165312,1,0,0:0:0:0:
448,192,165312,1,0,0:0:0:0:
192,192,165691,1,0,0:0:0:0:
64,192,166069,1,0,0:0:0:0:
320,192,166069,128,0,166826:0:0:0:0:
192,192,166826,1,0,0:0:0:0:
448,192,166826,1,0,0:0:0:0:
64,192,167205,1,0,0:0:0:0:
192,192,167583,1,0,0:0:0:0:
320,192,167583,1,0,0:0:0:0:
192,192,167962,1,0,0:0:0:0:
64,192,168340,1,0,0:0:0:0:
320,192,168340,1,0,0:0:0:0:
192,192,168719,1,0,0:0:0:0:
64,192,169098,1,0,0:0:0:0:
192,192,169098,1,0,0:0:0:0:
448,192,169476,1,0,0:0:0:0:
64,192,169855,1,0,0:0:0:0:
448,192,169855,1,0,0:0:0:0:
192,192,170233,1,0,0:0:0:0:
320,192,170612,1,0,0:0:0:0:
192,192,170612,1,0,0:0:0:0:
64,192,170990,1,0,0:0:0:0:
64,192,171369,1,0,0:0:0:0:
320,192,171369,1,0,0:0:0:0:
448,192,171369,1,0,0:0:0:0:
192,192,171747,1,0,0:0:0:0:
320,192,171747,1,0,0:0:0:0:
64,192,172126,1,0,0:0:0:0:
192,192,172126,1,0,0:0:0:0:
320,192,172126,128,0,172883:0:0:0:0:
64,192,172883,1,0,0:0:0:0:
192,192,172883,1,0,0:0:0:0:
448,192,172883,1,0,0:0:0:0:
192,192,173262,1,0,0:0:0:0:
448,192,173262,1,0,0:0:0:0:
64,192,173640,1,0,0:0:0:0:
320,192,173640,1,0,0:0:0:0:
448,192,173640,1,0,0:0:0:0:
320,192,174019,1,0,0:0:0:0:
448,192,174019,1,0,0:0:0:0:
192,192,174397,1,0,0:0:0:0:
448,192,174397,1,0,0:0:0:0:
320,192,174397,1,0,0:0:0:0:
192,192,174776,1,0,0:0:0:0:
64,192,174776,1,0,0:0:0:0:
448,192,174965,1,0,0:0:0:0:
192,192,174965,1,0,0:0:0:0:
320,192,175154,1,0,0:0:0:0:
64,192,175154,1,0,0:0:0:0:
448,192,175533,1,0,0:0:0:0:
192,192,175533,1,0,0:0:0:0:
192,192,175911,1,0,0:0:0:0:
448,192,175911,1,0,0:0:0:0:
320,192,176101,1,0,0:0:0:0:
64,192,176290,1,0,0:0:0:0:
320,192,176290,1,0,0:0:0:0:
448,192,176479,1,0,0:0:0:0:
192,192,176479,1,0,0:0:0:0:
64,192,176669,1,0,0:0:0:0:
320,192,176669,1,0,0:0:0:0:
448,192,176858,1,0,0:0:0:0:
320,192,176858,1,0,0:0:0:0:
192,192,176952,1,0,0:0:0:0:
448,192,177047,128,0,177426:0:0:0:0:
192,192,177236,1,0,0:0:0:0:
320,192,177426,1,0,0:0:0:0:
64,192,177426,1,0,0:0:0:0:
448,192,177615,1,0,0:0:0:0:
192,192,177615,1,0,0:0:0:0:
64,192,177804,1,0,0:0:0:0:
320,192,177804,1,0,0:0:0:0:
448,192,177993,1,0,0:0:0:0:
64,192,178183,1,0,0:0:0:0:
320,192,178183,128,0,178940:0:0:0:0:
448,192,178561,1,0,0:0:0:0:
192,192,178940,1,0,0:0:0:0:
64,192,178940,1,0,0:0:0:0:
448,192,179318,1,0,0:0:0:0:
64,192,179697,1,0,0:0:0:0:
320,192,179697,1,0,0:0:0:0:
320,192,180075,1,0,0:0:0:0:
192,192,180454,1,0,0:0:0:0:
448,192,180454,1,0,0:0:0:0:
64,192,180833,1,0,0:0:0:0:
192,192,181022,1,0,0:0:0:0:
64,192,181211,1,0,0:0:0:0:
320,192,181211,1,0,0:0:0:0:
192,192,181590,1,0,0:0:0:0:
448,192,181590,1,0,0:0:0:0:
64,192,181968,1,0,0:0:0:0:
320,192,181968,1,0,0:0:0:0:
192,192,182158,1,0,0:0:0:0:
192,192,182347,1,0,0:0:0:0:
448,192,182347,1,0,0:0:0:0:
320,192,182536,1,0,0:0:0:0:
448,192,182536,1,0,0:0:0:0:
64,192,182725,1,0,0:0:0:0:
320,192,182725,1,0,0:0:0:0:
448,192,182915,1,0,0:0:0:0:
64,192,182915,1,0,0:0:0:0:
320,192,183009,1,0,0:0:0:0:
448,192,183104,1,0,0:0:0:0:
192,192,183293,1,0,0:0:0:0:
448,192,183482,1,0,0:0:0:0:
320,192,183482,128,0,184997:0:0:0:0:
192,192,183861,1,0,0:0:0:0:
192,192,184240,1,0,0:0:0:0:
192,192,184618,1,0,0:0:0:0:
64,192,184997,1,0,0:0:0:0:
192,192,184997,128,0,185375:0:0:0:0:
320,192,185375,1,0,0:0:0:0:
64,192,185375,128,0,185754:0:0:0:0:
320,192,185754,1,0,0:0:0:0:
448,192,185754,128,0,186132:0:0:0:0:
192,192,186132,128,0,186511:0:0:0:0:
64,192,186132,1,0,0:0:0:0:
448,192,186511,128,0,186889:0:0:0:0:
320,192,186511,1,0,0:0:0:0:
320,192,186889,1,0,0:0:0:0:
64,192,186889,1,0,0:0:0:0:
192,192,187079,1,0,0:0:0:0:
320,192,187268,1,0,0:0:0:0:
448,192,187646,1,0,0:0:0:0:
192,192,187646,1,0,0:0:0:0:
64,192,188025,1,0,0:0:0:0:
320,192,188025,1,0,0:0:0:0:
192,192,188214,1,0,0:0:0:0:
320,192,188404,1,0,0:0:0:0:
448,192,188404,1,0,0:0:0:0:
192,192,188593,1,0,0:0:0:0:
64,192,188782,1,0,0:0:0:0:
448,192,188782,1,0,0:0:0:0:
64,192,188971,1,0,0:0:0:0:
192,192,189066,1,0,0:0:0:0:
320,192,189161,1,0,0:0:0:0:
448,192,189161,1,0,0:0:0:0:
192,192,189350,1,0,0:0:0:0:
64,192,189539,1,0,0:0:0:0:
320,192,189539,1,0,0:0:0:0:
192,192,189728,1,0,0:0:0:0:
320,192,189918,1,0,0:0:0:0:
448,192,189918,1,0,0:0:0:0:
192,192,190107,1,0,0:0:0:0:
64,192,190296,1,0,0:0:0:0:
320,192,190296,1,0,0:0:0:0:
320,192,190675,1,0,0:0:0:0:
192,192,191053,1,0,0:0:0:0:
448,192,191053,1,0,0:0:0:0:
320,192,191432,1,0,0:0:0:0:
192,192,191811,1,0,0:0:0:0:
320,192,191811,1,0,0:0:0:0:
64,192,192189,1,0,0:0:0:0:
320,192,192568,1,0,0:0:0:0:
448,192,192568,1,0,0:0:0:0:
64,192,192946,1,0,0:0:0:0:
192,192,193135,1,0,0:0:0:0:
320,192,193325,1,0,0:0:0:0:
448,192,193325,1,0,0:0:0:0:
192,192,193703,1,0,0:0:0:0:
320,192,193703,1,0,0:0:0:0:
64,192,194082,1,0,0:0:0:0:
448,192,194082,1,0,0:0:0:0:
192,192,194271,1,0,0:0:0:0:
320,192,194460,1,0,0:0:0:0:
448,192,194460,1,0,0:0:0:0:
192,192,194650,1,0,0:0:0:0:
64,192,194650,1,0,0:0:0:0:
192,192,194839,1,0,0:0:0:0:
320,192,194839,1,0,0:0:0:0:
320,192,195028,1,0,0:0:0:0:
192,192,195123,1,0,0:0:0:0:
320,192,195217,1,0,0:0:0:0:
64,192,195217,1,0,0:0:0:0:
192,192,195407,1,0,0:0:0:0:
448,192,195596,1,0,0:0:0:0:
320,192,195596,128,0,196353:0:0:0:0:
64,192,195975,1,0,0:0:0:0:
64,192,196353,1,0,0:0:0:0:
64,192,196732,1,0,0:0:0:0:
64,192,197110,1,0,0:0:0:0:
448,192,197110,1,0,0:0:0:0:
192,192,197236,1,0,0:0:0:0:
320,192,197362,1,0,0:0:0:0:
64,192,197488,1,0,0:0:0:0:
192,192,197614,1,0,0:0:0:0:
320,192,197740,1,0,0:0:0:0:
64,192,197867,1,0,0:0:0:0:
192,192,197993,1,0,0:0:0:0:
320,192,198119,1,0,0:0:0:0:
64,192,198245,1,0,0:0:0:0:
192,192,198371,1,0,0:0:0:0:
320,192,198498,1,0,0:0:0:0:
64,192,198624,1,0,0:0:0:0:
448,192,198624,1,0,0:0:0:0:
192,192,198750,1,0,0:0:0:0:
320,192,198876,1,0,0:0:0:0:
64,192,199002,1,0,0:0:0:0:
192,192,199128,1,0,0:0:0:0:
320,192,199255,1,0,0:0:0:0:
64,192,199381,1,0,0:0:0:0:
192,192,199507,1,0,0:0:0:0:
320,192,199633,1,0,0:0:0:0:
64,192,199759,1,0,0:0:0:0:
192,192,199886,1,0,0:0:0:0:
320,192,200012,1,0,0:0:0:0:
64,192,200138,1,0,0:0:0:0:
448,192,200138,1,0,0:0:0:0:
448,192,200264,1,0,0:0:0:0:
320,192,200390,1,0,0:0:0:0:
192,192,200516,1,0,0:0:0:0:
448,192,200643,1,0,0:0:0:0:
320,192,200769,1,0,0:0:0:0:
192,192,200895,1,0,0:0:0:0:
448,192,201021,1,0,0:0:0:0:
320,192,201147,1,0,0:0:0:0:
192,192,201274,1,0,0:0:0:0:
448,192,201400,1,0,0:0:0:0:
320,192,201526,1,0,0:0:0:0:
448,192,201652,1,0,0:0:0:0:
192,192,201652,1,0,0:0:0:0:
64,192,201778,1,0,0:0:0:0:
320,192,201904,1,0,0:0:0:0:
64,192,202031,1,0,0:0:0:0:
192,192,202157,1,0,0:0:0:0:
320,192,202283,1,0,0:0:0:0:
64,192,202409,1,0,0:0:0:0:
192,192,202535,1,0,0:0:0:0:
320,192,202662,1,0,0:0:0:0:
64,192,202788,1,0,0:0:0:0:
448,192,202788,1,0,0:0:0:0:
192,192,202914,1,0,0:0:0:0:
320,192,203040,1,0,0:0:0:0:
64,192,203166,1,0,0:0:0:0:
320,192,203166,1,0,0:0:0:0:
192,192,203292,1,0,0:0:0:0:
320,192,203419,1,0,0:0:0:0:
64,192,203545,1,0,0:0:0:0:
192,192,203545,1,0,0:0:0:0:
192,192,203671,1,0,0:0:0:0:
320,192,203797,1,0,0:0:0:0:
448,192,203923,1,0,0:0:0:0:
64,192,203923,1,0,0:0:0:0:
320,192,204050,1,0,0:0:0:0:
192,192,204176,1,0,0:0:0:0:
448,192,204302,1,0,0:0:0:0:
64,192,204302,1,0,0:0:0:0:
320,192,204428,1,0,0:0:0:0:
192,192,204554,1,0,0:0:0:0:
448,192,204680,1,0,0:0:0:0:
64,192,204680,1,0,0:0:0:0:
320,192,204807,1,0,0:0:0:0:
192,192,204933,1,0,0:0:0:0:
448,192,205059,1,0,0:0:0:0:
64,192,205059,1,0,0:0:0:0:
192,192,205185,1,0,0:0:0:0:
320,192,205185,1,0,0:0:0:0:
320,192,205311,1,0,0:0:0:0:
448,192,205311,1,0,0:0:0:0:
192,192,205438,1,0,0:0:0:0:
64,192,205438,1,0,0:0:0:0:
448,192,205627,1,0,0:0:0:0:
192,192,205816,1,0,0:0:0:0:
320,192,206005,1,0,0:0:0:0:
192,192,206100,1,0,0:0:0:0:
64,192,206195,1,0,0:0:0:0:
448,192,206195,1,0,0:0:0:0:
192,192,206321,1,0,0:0:0:0:
320,192,206447,1,0,0:0:0:0:
64,192,206573,1,0,0:0:0:0:
448,192,206573,1,0,0:0:0:0:
192,192,206699,1,0,0:0:0:0:
320,192,206826,1,0,0:0:0:0:
192,192,206952,1,0,0:0:0:0:
64,192,206952,1,0,0:0:0:0:
320,192,207078,1,0,0:0:0:0:
448,192,207204,1,0,0:0:0:0:
192,192,207330,1,0,0:0:0:0:
64,192,207330,1,0,0:0:0:0:
320,192,207457,1,0,0:0:0:0:
448,192,207583,1,0,0:0:0:0:
192,192,207709,1,0,0:0:0:0:
64,192,207709,1,0,0:0:0:0:
320,192,207835,1,0,0:0:0:0:
448,192,207961,1,0,0:0:0:0:
192,192,208087,1,0,0:0:0:0:
64,192,208087,1,0,0:0:0:0:
320,192,208214,1,0,0:0:0:0:
448,192,208308,1,0,0:0:0:0:
64,192,208466,1,0,0:0:0:0:
320,192,208466,1,0,0:0:0:0:
192,192,208655,1,0,0:0:0:0:
320,192,208845,1,0,0:0:0:0:
192,192,209034,1,0,0:0:0:0:
448,192,209223,1,0,0:0:0:0:
64,192,209223,1,0,0:0:0:0:
192,192,209349,1,0,0:0:0:0:
320,192,209475,1,0,0:0:0:0:
64,192,209602,1,0,0:0:0:0:
448,192,209602,1,0,0:0:0:0:
192,192,209728,1,0,0:0:0:0:
320,192,209854,1,0,0:0:0:0:
64,192,209980,1,0,0:0:0:0:
448,192,209980,1,0,0:0:0:0:
320,192,210106,1,0,0:0:0:0:
192,192,210233,1,0,0:0:0:0:
448,192,210359,1,0,0:0:0:0:
64,192,210359,1,0,0:0:0:0:
320,192,210485,1,0,0:0:0:0:
192,192,210611,1,0,0:0:0:0:
448,192,210737,1,0,0:0:0:0:
64,192,210737,1,0,0:0:0:0:
320,192,210863,1,0,0:0:0:0:
64,192,210990,1,0,0:0:0:0:
192,192,211116,1,0,0:0:0:0:
320,192,211116,1,0,0:0:0:0:
320,192,211242,1,0,0:0:0:0:
448,192,211242,1,0,0:0:0:0:
192,192,211368,1,0,0:0:0:0:
64,192,211368,1,0,0:0:0:0:
320,192,211494,1,0,0:0:0:0:
448,192,211494,1,0,0:0:0:0:
192,192,211684,1,0,0:0:0:0:
320,192,211873,1,0,0:0:0:0:
192,192,212062,1,0,0:0:0:0:
320,192,212157,1,0,0:0:0:0:
448,192,212251,1,0,0:0:0:0:
64,192,212251,1,0,0:0:0:0:
192,192,212378,1,0,0:0:0:0:
320,192,212504,1,0,0:0:0:0:
64,192,212630,1,0,0:0:0:0:
448,192,212630,1,0,0:0:0:0:
192,192,212756,1,0,0:0:0:0:
320,192,212882,1,0,0:0:0:0:
192,192,213009,1,0,0:0:0:0:
64,192,213009,1,0,0:0:0:0:
320,192,213135,1,0,0:0:0:0:
448,192,213261,1,0,0:0:0:0:
192,192,213387,1,0,0:0:0:0:
64,192,213387,1,0,0:0:0:0:
320,192,213513,1,0,0:0:0:0:
448,192,213639,1,0,0:0:0:0:
64,192,213766,1,0,0:0:0:0:
320,192,213766,1,0,0:0:0:0:
192,192,213892,1,0,0:0:0:0:
320,192,214018,1,0,0:0:0:0:
64,192,214144,1,0,0:0:0:0:
448,192,214144,1,0,0:0:0:0:
192,192,214270,1,0,0:0:0:0:
320,192,214397,1,0,0:0:0:0:
64,192,214523,1,0,0:0:0:0:
192,192,214523,1,0,0:0:0:0:
448,192,214523,1,0,0:0:0:0:
448,192,214807,1,0,0:0:0:0:
320,192,214807,1,0,0:0:0:0:
192,192,214807,1,0,0:0:0:0:
64,192,215091,1,0,0:0:0:0:
192,192,215091,1,0,0:0:0:0:
320,192,215091,1,0,0:0:0:0:
320,192,215280,1,0,0:0:0:0:
448,192,215280,1,0,0:0:0:0:
64,192,215469,1,0,0:0:0:0:
192,192,215658,1,0,0:0:0:0:
64,192,215848,1,0,0:0:0:0:
448,192,216037,1,0,0:0:0:0:
320,192,216037,1,0,0:0:0:0:
64,192,216226,1,0,0:0:0:0:
192,192,216415,1,0,0:0:0:0:
64,192,216605,1,0,0:0:0:0:
192,192,216794,1,0,0:0:0:0:
64,192,216794,1,0,0:0:0:0:
448,192,216983,1,0,0:0:0:0:
320,192,217173,1,0,0:0:0:0:
448,192,217362,1,0,0:0:0:0:
64,192,217551,1,0,0:0:0:0:
192,192,217551,1,0,0:0:0:0:
448,192,217740,1,0,0:0:0:0:
320,192,217930,1,0,0:0:0:0:
448,192,218119,1,0,0:0:0:0:
320,192,218308,1,0,0:0:0:0:
192,192,218498,1,0,0:0:0:0:
448,192,218498,1,0,0:0:0:0:
320,192,218687,1,0,0:0:0:0:
448,192,218876,1,0,0:0:0:0:
192,192,218876,1,0,0:0:0:0:
448,192,219065,1,0,0:0:0:0:
192,192,219255,1,0,0:0:0:0:
64,192,219255,1,0,0:0:0:0:
448,192,219444,1,0,0:0:0:0:
192,192,219633,1,0,0:0:0:0:
64,192,219633,1,0,0:0:0:0:
320,192,219822,1,0,0:0:0:0:
192,192,220012,1,0,0:0:0:0:
448,192,220012,1,0,0:0:0:0:
320,192,220201,1,0,0:0:0:0:
192,192,220390,1,0,0:0:0:0:
448,192,220390,1,0,0:0:0:0:
64,192,220580,1,0,0:0:0:0:
192,192,220769,1,0,0:0:0:0:
448,192,220769,1,0,0:0:0:0:
64,192,220958,1,0,0:0:0:0:
192,192,221147,1,0,0:0:0:0:
448,192,221147,1,0,0:0:0:0:
192,192,221337,1,0,0:0:0:0:
320,192,221337,1,0,0:0:0:0:
64,192,221526,1,0,0:0:0:0:
448,192,221526,1,0,0:0:0:0:
320,192,221715,1,0,0:0:0:0:
64,192,221904,1,0,0:0:0:0:
448,192,221904,1,0,0:0:0:0:
64,192,222094,1,0,0:0:0:0:
192,192,222094,1,0,0:0:0:0:
320,192,222283,1,0,0:0:0:0:
448,192,222283,1,0,0:0:0:0:
64,192,222472,1,0,0:0:0:0:
320,192,222662,1,0,0:0:0:0:
448,192,222662,1,0,0:0:0:0:
320,192,222851,1,0,0:0:0:0:
448,192,222851,1,0,0:0:0:0:
192,192,223040,1,0,0:0:0:0:
64,192,223040,1,0,0:0:0:0:
320,192,223229,1,0,0:0:0:0:
192,192,223419,1,0,0:0:0:0:
64,192,223419,1,0,0:0:0:0:
192,192,223608,1,0,0:0:0:0:
448,192,223608,1,0,0:0:0:0:
320,192,223797,1,0,0:0:0:0:
64,192,223797,1,0,0:0:0:0:
448,192,223986,1,0,0:0:0:0:
320,192,224176,1,0,0:0:0:0:
64,192,224176,1,0,0:0:0:0:
192,192,224365,1,0,0:0:0:0:
448,192,224365,1,0,0:0:0:0:
320,192,224554,1,0,0:0:0:0:
64,192,224554,1,0,0:0:0:0:
192,192,224744,1,0,0:0:0:0:
64,192,224933,1,0,0:0:0:0:
320,192,224933,1,0,0:0:0:0:
320,192,225122,1,0,0:0:0:0:
448,192,225122,1,0,0:0:0:0:
192,192,225311,1,0,0:0:0:0:
64,192,225311,1,0,0:0:0:0:
448,192,225501,1,0,0:0:0:0:
192,192,225690,1,0,0:0:0:0:
64,192,225690,1,0,0:0:0:0:
192,192,225879,1,0,0:0:0:0:
320,192,225879,1,0,0:0:0:0:
64,192,226068,1,0,0:0:0:0:
448,192,226068,1,0,0:0:0:0:
192,192,226258,1,0,0:0:0:0:
320,192,226258,1,0,0:0:0:0:
64,192,226447,1,0,0:0:0:0:
448,192,226447,1,0,0:0:0:0:
192,192,226636,1,0,0:0:0:0:
64,192,226636,1,0,0:0:0:0:
320,192,226826,1,0,0:0:0:0:
448,192,226826,1,0,0:0:0:0:
192,192,227015,1,0,0:0:0:0:
64,192,227015,1,0,0:0:0:0:
320,192,227204,1,0,0:0:0:0:
448,192,227204,1,0,0:0:0:0:
64,192,227393,1,0,0:0:0:0:
448,192,227393,1,0,0:0:0:0:
448,192,227772,1,0,0:0:0:0:
192,192,227772,1,0,0:0:0:0:
64,192,228151,1,0,0:0:0:0:
192,192,228151,1,0,0:0:0:0:
192,192,228529,1,0,0:0:0:0:
448,192,228529,1,0,0:0:0:0:
448,192,228908,1,0,0:0:0:0:
64,192,228908,1,0,0:0:0:0:
192,192,229286,1,0,0:0:0:0:
448,192,229286,1,0,0:0:0:0:
320,192,229665,1,0,0:0:0:0:
448,192,229665,1,0,0:0:0:0:
64,192,230043,1,0,0:0:0:0:
320,192,230043,1,0,0:0:0:0:
192,192,230422,1,0,0:0:0:0:
448,192,230422,1,0,0:0:0:0:
192,192,230800,1,0,0:0:0:0:
320,192,230800,1,0,0:0:0:0:
64,192,231179,1,0,0:0:0:0:
448,192,231179,1,0,0:0:0:0:
320,192,231557,1,0,0:0:0:0:
448,192,231557,1,0,0:0:0:0:
64,192,231936,1,0,0:0:0:0:
320,192,231936,1,0,0:0:0:0:
192,192,232315,1,0,0:0:0:0:
320,192,232315,1,0,0:0:0:0:
320,192,232693,1,0,0:0:0:0:
448,192,232693,128,0,233450:0:0:0:0:
64,192,232882,1,0,0:0:0:0:
192,192,233072,1,0,0:0:0:0:
64,192,233261,1,0,0:0:0:0:
192,192,233450,1,0,0:0:0:0:
320,192,233450,1,0,0:0:0:0:
192,192,233639,1,0,0:0:0:0:
448,192,233829,1,0,0:0:0:0:
320,192,233829,1,0,0:0:0:0:
192,192,234018,1,0,0:0:0:0:
64,192,234207,1,0,0:0:0:0:
320,192,234207,1,0,0:0:0:0:
192,192,234397,1,0,0:0:0:0:
448,192,234586,1,0,0:0:0:0:
320,192,234586,1,0,0:0:0:0:
192,192,234775,1,0,0:0:0:0:
64,192,234964,1,0,0:0:0:0:
448,192,234964,1,0,0:0:0:0:
320,192,235154,1,0,0:0:0:0:
192,192,235343,1,0,0:0:0:0:
64,192,235343,1,0,0:0:0:0:
320,192,235532,1,0,0:0:0:0:
192,192,235721,1,0,0:0:0:0:
448,192,235721,1,0,0:0:0:0:
320,192,235911,1,0,0:0:0:0:
64,192,236100,1,0,0:0:0:0:
192,192,236100,1,0,0:0:0:0:
320,192,236289,1,0,0:0:0:0:
64,192,236479,1,0,0:0:0:0:
448,192,236479,1,0,0:0:0:0:
192,192,236668,1,0,0:0:0:0:
320,192,236857,1,0,0:0:0:0:
448,192,236857,1,0,0:0:0:0:
192,192,237046,1,0,0:0:0:0:
64,192,237236,1,0,0:0:0:0:
320,192,237236,1,0,0:0:0:0:
192,192,237425,1,0,0:0:0:0:
320,192,237614,1,0,0:0:0:0:
448,192,237614,1,0,0:0:0:0:
192,192,237804,1,0,0:0:0:0:
64,192,237993,1,0,0:0:0:0:
448,192,237993,1,0,0:0:0:0:
320,192,237993,1,0,0:0:0:0:
192,192,238182,1,0,0:0:0:0:
448,192,238371,1,0,0:0:0:0:
192,192,238371,1,0,0:0:0:0:
64,192,238371,1,0,0:0:0:0:
64,192,238561,1,0,0:0:0:0:
448,192,238750,1,0,0:0:0:0:
320,192,238750,1,0,0:0:0:0:
192,192,238750,1,0,0:0:0:0:
320,192,238939,1,0,0:0:0:0:
192,192,239128,1,0,0:0:0:0:
320,192,239318,1,0,0:0:0:0:
64,192,240264,1,0,0:0:0:0:
320,192,240264,1,0,0:0:0:0:
448,192,240264,1,0,0:0:0:0:
192,192,240643,1,0,0:0:0:0:
320,192,241021,1,0,0:0:0:0:
448,192,241021,1,0,0:0:0:0:
192,192,241400,1,0,0:0:0:0:
64,192,241778,1,0,0:0:0:0:
320,192,241778,1,0,0:0:0:0:
192,192,242157,1,0,0:0:0:0:
64,192,242157,1,0,0:0:0:0:
320,192,242346,1,0,0:0:0:0:
192,192,242346,1,0,0:0:0:0:
448,192,242535,1,0,0:0:0:0:
320,192,242535,1,0,0:0:0:0:
64,192,242914,1,0,0:0:0:0:
192,192,243292,1,0,0:0:0:0:
448,192,243292,1,0,0:0:0:0:
320,192,243482,1,0,0:0:0:0:
192,192,243671,1,0,0:0:0:0:
64,192,243671,1,0,0:0:0:0:
192,192,243860,1,0,0:0:0:0:
320,192,243860,1,0,0:0:0:0:
448,192,244050,1,0,0:0:0:0:
64,192,244050,1,0,0:0:0:0:
192,192,244239,1,0,0:0:0:0:
320,192,244333,1,0,0:0:0:0:
448,192,244428,1,0,0:0:0:0:
192,192,244428,1,0,0:0:0:0:
192,192,244617,1,0,0:0:0:0:
64,192,244807,1,0,0:0:0:0:
320,192,244807,1,0,0:0:0:0:
192,192,244996,1,0,0:0:0:0:
320,192,245185,1,0,0:0:0:0:
448,192,245185,1,0,0:0:0:0:
320,192,245374,1,0,0:0:0:0:
64,192,245564,1,0,0:0:0:0:
448,192,245564,1,0,0:0:0:0:
64,192,245942,1,0,0:0:0:0:
64,192,246321,1,0,0:0:0:0:
320,192,246321,1,0,0:0:0:0:
192,192,246321,1,0,0:0:0:0:
448,192,246699,1,0,0:0:0:0:
64,192,247078,1,0,0:0:0:0:
192,192,247078,1,0,0:0:0:0:
320,192,247457,1,0,0:0:0:0:
192,192,247835,1,0,0:0:0:0:
448,192,247835,1,0,0:0:0:0:
64,192,248214,1,0,0:0:0:0:
192,192,248214,1,0,0:0:0:0:
192,192,248403,1,0,0:0:0:0:
320,192,248403,1,0,0:0:0:0:
320,192,248592,1,0,0:0:0:0:
448,192,248592,1,0,0:0:0:0:
64,192,248971,1,0,0:0:0:0:
192,192,249349,1,0,0:0:0:0:
448,192,249349,1,0,0:0:0:0:
320,192,249539,1,0,0:0:0:0:
64,192,249728,1,0,0:0:0:0:
448,192,249728,1,0,0:0:0:0:
192,192,249917,1,0,0:0:0:0:
320,192,250106,1,0,0:0:0:0:
448,192,250106,1,0,0:0:0:0:
64,192,250296,1,0,0:0:0:0:
320,192,250390,1,0,0:0:0:0:
64,192,250485,1,0,0:0:0:0:
192,192,250674,1,0,0:0:0:0:
320,192,250863,1,0,0:0:0:0:
448,192,250863,128,0,251621:0:0:0:0:
64,192,250863,1,0,0:0:0:0:
64,192,251242,1,0,0:0:0:0:
64,192,251621,1,0,0:0:0:0:
64,192,251999,1,0,0:0:0:0:
64,192,252378,1,0,0:0:0:0:
448,192,252378,1,0,0:0:0:0:
192,192,252378,1,0,0:0:0:0:
320,192,252756,1,0,0:0:0:0:
64,192,253135,1,0,0:0:0:0:
448,192,253135,1,0,0:0:0:0:
192,192,253513,1,0,0:0:0:0:
64,192,253892,1,0,0:0:0:0:
448,192,253892,1,0,0:0:0:0:
64,192,254270,1,0,0:0:0:0:
192,192,254270,1,0,0:0:0:0:
192,192,254460,1,0,0:0:0:0:
320,192,254460,1,0,0:0:0:0:
320,192,254649,1,0,0:0:0:0:
448,192,254649,1,0,0:0:0:0:
320,192,255027,1,0,0:0:0:0:
192,192,255027,1,0,0:0:0:0:
448,192,255406,1,0,0:0:0:0:
64,192,255406,1,0,0:0:0:0:
192,192,255595,1,0,0:0:0:0:
64,192,255785,1,0,0:0:0:0:
320,192,255785,1,0,0:0:0:0:
192,192,255974,1,0,0:0:0:0:
448,192,255974,1,0,0:0:0:0:
64,192,256163,1,0,0:0:0:0:
448,192,256163,1,0,0:0:0:0:
192,192,256352,1,0,0:0:0:0:
320,192,256447,1,0,0:0:0:0:
448,192,256542,1,0,0:0:0:0:
192,192,256542,1,0,0:0:0:0:
448,192,256731,1,0,0:0:0:0:
320,192,256920,1,0,0:0:0:0:
64,192,256920,1,0,0:0:0:0:
192,192,257110,1,0,0:0:0:0:
320,192,257299,1,0,0:0:0:0:
448,192,257299,1,0,0:0:0:0:
192,192,257488,1,0,0:0:0:0:
64,192,257677,1,0,0:0:0:0:
448,192,257677,1,0,0:0:0:0:
64,192,258056,1,0,0:0:0:0:
64,192,258434,1,0,0:0:0:0:
320,192,258434,1,0,0:0:0:0:
320,192,258813,1,0,0:0:0:0:
192,192,259192,1,0,0:0:0:0:
448,192,259192,1,0,0:0:0:0:
192,192,259570,1,0,0:0:0:0:
64,192,259949,1,0,0:0:0:0:
448,192,259949,1,0,0:0:0:0:
64,192,260327,1,0,0:0:0:0:
192,192,260327,1,0,0:0:0:0:
192,192,260516,1,0,0:0:0:0:
320,192,260516,1,0,0:0:0:0:
448,192,260706,1,0,0:0:0:0:
320,192,260706,1,0,0:0:0:0:
192,192,261084,1,0,0:0:0:0:
320,192,261463,1,0,0:0:0:0:
64,192,261463,1,0,0:0:0:0:
192,192,261652,1,0,0:0:0:0:
64,192,261841,1,0,0:0:0:0:
448,192,261841,1,0,0:0:0:0:
320,192,262031,1,0,0:0:0:0:
192,192,262220,1,0,0:0:0:0:
64,192,262220,1,0,0:0:0:0:
320,192,262409,1,0,0:0:0:0:
64,192,262504,1,0,0:0:0:0:
448,192,262598,1,0,0:0:0:0:
320,192,262598,1,0,0:0:0:0:
192,192,262788,1,0,0:0:0:0:
320,192,262788,1,0,0:0:0:0:
64,192,262977,1,0,0:0:0:0:
448,192,262977,128,0,264113:0:0:0:0:
64,192,263356,1,0,0:0:0:0:
64,192,263734,1,0,0:0:0:0:
64,192,264113,1,0,0:0:0:0:
64,192,264491,1,0,0:0:0:0:
192,192,264585,1,0,0:0:0:0:
320,192,264680,1,0,0:0:0:0:
64,192,264774,1,0,0:0:0:0:
192,192,264869,1,0,0:0:0:0:
320,192,264964,1,0,0:0:0:0:
64,192,265058,1,0,0:0:0:0:
192,192,265153,1,0,0:0:0:0:
320,192,265248,1,0,0:0:0:0:
64,192,265342,1,0,0:0:0:0:
192,192,265437,1,0,0:0:0:0:
320,192,265532,1,0,0:0:0:0:
192,192,265626,1,0,0:0:0:0:
448,192,265626,1,0,0:0:0:0:
64,192,265626,1,0,0:0:0:0:
64,192,265910,1,0,0:0:0:0:
320,192,265910,1,0,0:0:0:0:
64,192,266194,1,0,0:0:0:0:
448,192,266194,1,0,0:0:0:0:
448,192,266383,1,0,0:0:0:0:
320,192,266478,1,0,0:0:0:0:
192,192,266573,1,0,0:0:0:0:
448,192,266667,1,0,0:0:0:0:
320,192,266762,1,0,0:0:0:0:
192,192,266856,1,0,0:0:0:0:
448,192,266951,1,0,0:0:0:0:
320,192,267046,1,0,0:0:0:0:
192,192,267140,1,0,0:0:0:0:
448,192,267235,1,0,0:0:0:0:
320,192,267330,1,0,0:0:0:0:
192,192,267424,1,0,0:0:0:0:
64,192,267519,1,0,0:0:0:0:
320,192,267519,1,0,0:0:0:0:
448,192,267519,1,0,0:0:0:0:
448,192,267803,1,0,0:0:0:0:
192,192,267803,1,0,0:0:0:0:
320,192,268087,1,0,0:0:0:0:
64,192,268087,1,0,0:0:0:0:
64,192,268276,1,0,0:0:0:0:
192,192,268371,1,0,0:0:0:0:
320,192,268465,1,0,0:0:0:0:
64,192,268560,1,0,0:0:0:0:
192,192,268655,1,0,0:0:0:0:
320,192,268749,1,0,0:0:0:0:
64,192,268844,1,0,0:0:0:0:
192,192,268938,1,0,0:0:0:0:
320,192,269033,1,0,0:0:0:0:
64,192,269128,1,0,0:0:0:0:
192,192,269222,1,0,0:0:0:0:
320,192,269317,1,0,0:0:0:0:
64,192,269412,1,0,0:0:0:0:
192,192,269412,1,0,0:0:0:0:
448,192,269412,1,0,0:0:0:0:
64,192,269696,1,0,0:0:0:0:
320,192,269696,1,0,0:0:0:0:
192,192,269979,1,0,0:0:0:0:
448,192,269979,1,0,0:0:0:0:
448,192,270169,1,0,0:0:0:0:
320,192,270263,1,0,0:0:0:0:
192,192,270358,1,0,0:0:0:0:
448,192,270453,1,0,0:0:0:0:
320,192,270547,1,0,0:0:0:0:
192,192,270642,1,0,0:0:0:0:
448,192,270737,1,0,0:0:0:0:
320,192,270831,1,0,0:0:0:0:
192,192,270926,1,0,0:0:0:0:
448,192,271020,1,0,0:0:0:0:
320,192,271115,1,0,0:0:0:0:
192,192,271210,1,0,0:0:0:0:
448,192,271304,1,0,0:0:0:0:
320,192,271304,1,0,0:0:0:0:
64,192,271304,1,0,0:0:0:0:
64,192,271588,1,0,0:0:0:0:
448,192,271588,1,0,0:0:0:0:
64,192,271872,1,0,0:0:0:0:
320,192,271872,1,0,0:0:0:0:
64,192,272061,1,0,0:0:0:0:
192,192,272156,1,0,0:0:0:0:
320,192,272251,1,0,0:0:0:0:
64,192,272345,1,0,0:0:0:0:
192,192,272440,1,0,0:0:0:0:
320,192,272535,1,0,0:0:0:0:
64,192,272629,1,0,0:0:0:0:
192,192,272724,1,0,0:0:0:0:
320,192,272819,1,0,0:0:0:0:
64,192,272913,1,0,0:0:0:0:
192,192,273008,1,0,0:0:0:0:
320,192,273102,1,0,0:0:0:0:
192,192,273197,1,0,0:0:0:0:
448,192,273197,1,0,0:0:0:0:
448,192,273481,1,0,0:0:0:0:
448,192,273765,1,0,0:0:0:0:
448,192,273954,1,0,0:0:0:0:
320,192,274049,1,0,0:0:0:0:
192,192,274143,1,0,0:0:0:0:
448,192,274238,1,0,0:0:0:0:
320,192,274333,1,0,0:0:0:0:
192,192,274427,1,0,0:0:0:0:
448,192,274522,1,0,0:0:0:0:
320,192,274617,1,0,0:0:0:0:
192,192,274711,1,0,0:0:0:0:
448,192,274806,1,0,0:0:0:0:
320,192,274901,1,0,0:0:0:0:
192,192,274995,1,0,0:0:0:0:
64,192,275090,1,0,0:0:0:0:
448,192,275374,1,0,0:0:0:0:
448,192,275658,1,0,0:0:0:0:
192,192,277203,1,0,0:0:0:0:
64,192,277203,1,0,0:0:0:0:
448,192,277203,1,0,0:0:0:0:
320,192,277317,128,0,277625:0:0:0:0:
192,192,277317,1,0,0:0:0:0:
192,192,277625,1,0,0:0:0:0:
64,192,277728,1,0,0:0:0:0:
448,192,277728,1,0,0:0:0:0:
64,192,277831,1,0,0:0:0:0:
192,192,277831,1,0,0:0:0:0:
320,192,277934,1,0,0:0:0:0:
448,192,278036,1,0,0:0:0:0:
192,192,278036,1,0,0:0:0:0:
64,192,278139,1,0,0:0:0:0:
192,192,278242,1,0,0:0:0:0:
320,192,278550,1,0,0:0:0:0:
192,192,278653,1,0,0:0:0:0:
448,192,278653,1,0,0:0:0:0:
320,192,278858,1,0,0:0:0:0:
64,192,278858,128,0,279269:0:0:0:0:
64,192,279475,1,0,0:0:0:0:
320,192,279475,1,0,0:0:0:0:
448,192,279475,1,0,0:0:0:0:
192,192,279680,1,0,0:0:0:0:
448,192,279680,1,0,0:0:0:0:
320,192,279783,1,0,0:0:0:0:
192,192,279886,1,0,0:0:0:0:
64,192,279886,1,0,0:0:0:0:
320,192,279988,1,0,0:0:0:0:
448,192,280091,1,0,0:0:0:0:
192,192,280091,1,0,0:0:0:0:
320,192,280194,1,0,0:0:0:0:
192,192,280297,1,0,0:0:0:0:
64,192,280297,1,0,0:0:0:0:
320,192,280399,1,0,0:0:0:0:
448,192,280502,1,0,0:0:0:0:
192,192,280502,1,0,0:0:0:0:
320,192,280605,128,0,280913:0:0:0:0:
448,192,281119,1,0,0:0:0:0:
192,192,281119,1,0,0:0:0:0:
320,192,281324,1,0,0:0:0:0:
64,192,281324,128,0,281735:0:0:0:0:
448,192,281632,1,0,0:0:0:0:
64,192,281941,1,0,0:0:0:0:
320,192,281941,1,0,0:0:0:0:
192,192,282146,1,0,0:0:0:0:
448,192,282146,128,0,282557:0:0:0:0:
64,192,282762,1,0,0:0:0:0:
320,192,282762,1,0,0:0:0:0:
192,192,282865,1,0,0:0:0:0:
320,192,282968,1,0,0:0:0:0:
448,192,282968,1,0,0:0:0:0:
192,192,283071,1,0,0:0:0:0:
64,192,283173,1,0,0:0:0:0:
320,192,283173,1,0,0:0:0:0:
192,192,283276,1,0,0:0:0:0:
320,192,283379,1,0,0:0:0:0:
64,192,283379,1,0,0:0:0:0:
192,192,283482,1,0,0:0:0:0:
64,192,283584,1,0,0:0:0:0:
448,192,283584,1,0,0:0:0:0:
192,192,283687,1,0,0:0:0:0:
320,192,283790,1,0,0:0:0:0:
64,192,283790,1,0,0:0:0:0:
448,192,283995,1,0,0:0:0:0:
320,192,284098,1,0,0:0:0:0:
64,192,284098,128,0,284406:0:0:0:0:
320,192,284406,1,0,0:0:0:0:
448,192,284406,1,0,0:0:0:0:
192,192,284612,1,0,0:0:0:0:
64,192,284817,1,0,0:0:0:0:
320,192,284817,1,0,0:0:0:0:
448,192,285023,1,0,0:0:0:0:
64,192,285228,1,0,0:0:0:0:
192,192,285228,1,0,0:0:0:0:
320,192,285434,1,0,0:0:0:0:
192,192,285639,1,0,0:0:0:0:
320,192,285845,1,0,0:0:0:0:
192,192,286050,1,0,0:0:0:0:
64,192,286153,1,0,0:0:0:0:
320,192,286153,1,0,0:0:0:0:
192,192,286256,1,0,0:0:0:0:
448,192,286256,1,0,0:0:0:0:
320,192,286461,1,0,0:0:0:0:
64,192,286461,1,0,0:0:0:0:
192,192,286667,1,0,0:0:0:0:
320,192,286667,1,0,0:0:0:0:
320,192,286872,1,0,0:0:0:0:
448,192,286872,1,0,0:0:0:0:
64,192,287078,1,0,0:0:0:0:
192,192,287180,1,0,0:0:0:0:
320,192,287283,1,0,0:0:0:0:
64,192,287386,1,0,0:0:0:0:
192,192,287488,1,0,0:0:0:0:
320,192,287591,1,0,0:0:0:0:
448,192,287694,1,0,0:0:0:0:
320,192,287797,1,0,0:0:0:0:
192,192,287899,1,0,0:0:0:0:
320,192,288002,1,0,0:0:0:0:
192,192,288105,1,0,0:0:0:0:
64,192,288208,1,0,0:0:0:0:
192,192,288310,1,0,0:0:0:0:
64,192,288413,1,0,0:0:0:0:
192,192,288516,1,0,0:0:0:0:
320,192,288619,1,0,0:0:0:0:
192,192,288721,1,0,0:0:0:0:
64,192,288721,1,0,0:0:0:0:
320,192,288824,1,0,0:0:0:0:
192,192,288927,1,0,0:0:0:0:
64,192,288927,1,0,0:0:0:0:
320,192,289030,1,0,0:0:0:0:
64,192,289132,1,0,0:0:0:0:
192,192,289132,1,0,0:0:0:0:
320,192,289235,1,0,0:0:0:0:
192,192,289338,1,0,0:0:0:0:
64,192,289338,1,0,0:0:0:0:
320,192,289441,1,0,0:0:0:0:
192,192,289543,1,0,0:0:0:0:
448,192,289543,1,0,0:0:0:0:
64,192,289646,1,0,0:0:0:0:
192,192,289749,1,0,0:0:0:0:
448,192,289749,1,0,0:0:0:0:
320,192,289851,1,0,0:0:0:0:
192,192,289954,1,0,0:0:0:0:
448,192,289954,1,0,0:0:0:0:
64,192,290057,1,0,0:0:0:0:
192,192,290160,1,0,0:0:0:0:
448,192,290160,1,0,0:0:0:0:
320,192,290262,1,0,0:0:0:0:
192,192,290365,1,0,0:0:0:0:
448,192,290365,1,0,0:0:0:0:
64,192,290365,1,0,0:0:0:0:
192,192,290776,1,0,0:0:0:0:
320,192,290776,1,0,0:0:0:0:
64,192,290982,1,0,0:0:0:0:
448,192,290982,1,0,0:0:0:0:
64,192,291393,1,0,0:0:0:0:
192,192,291495,1,0,0:0:0:0:
320,192,291598,1,0,0:0:0:0:
64,192,291598,128,0,292009:0:0:0:0:
448,192,291701,1,0,0:0:0:0:
320,192,291804,1,0,0:0:0:0:
192,192,291906,1,0,0:0:0:0:
320,192,292009,1,0,0:0:0:0:
448,192,292009,128,0,292420:0:0:0:0:
64,192,292420,1,0,0:0:0:0:
320,192,292420,1,0,0:0:0:0:
192,192,292625,1,0,0:0:0:0:
448,192,292625,1,0,0:0:0:0:
320,192,293036,1,0,0:0:0:0:
192,192,293139,1,0,0:0:0:0:
448,192,293242,1,0,0:0:0:0:
64,192,293242,128,0,293653:0:0:0:0:
320,192,293345,1,0,0:0:0:0:
192,192,293447,1,0,0:0:0:0:
320,192,293550,1,0,0:0:0:0:
448,192,293653,1,0,0:0:0:0:
192,192,293653,1,0,0:0:0:0:
320,192,293858,1,0,0:0:0:0:
64,192,294064,1,0,0:0:0:0:
192,192,294064,1,0,0:0:0:0:
192,192,294269,1,0,0:0:0:0:
320,192,294269,1,0,0:0:0:0:
448,192,294475,1,0,0:0:0:0:
320,192,294680,1,0,0:0:0:0:
192,192,294783,1,0,0:0:0:0:
64,192,294886,1,0,0:0:0:0:
448,192,294886,1,0,0:0:0:0:
320,192,294988,1,0,0:0:0:0:
192,192,295091,1,0,0:0:0:0:
448,192,295091,1,0,0:0:0:0:
64,192,295194,1,0,0:0:0:0:
192,192,295297,1,0,0:0:0:0:
320,192,295297,1,0,0:0:0:0:
448,192,295502,1,0,0:0:0:0:
320,192,295708,1,0,0:0:0:0:
64,192,295708,1,0,0:0:0:0:
192,192,295913,1,0,0:0:0:0:
448,192,295913,1,0,0:0:0:0:
320,192,296119,1,0,0:0:0:0:
64,192,296324,1,0,0:0:0:0:
192,192,296427,1,0,0:0:0:0:
320,192,296530,1,0,0:0:0:0:
64,192,296530,1,0,0:0:0:0:
192,192,296632,1,0,0:0:0:0:
320,192,296735,1,0,0:0:0:0:
64,192,296735,1,0,0:0:0:0:
448,192,296838,1,0,0:0:0:0:
320,192,296941,1,0,0:0:0:0:
192,192,296941,1,0,0:0:0:0:
64,192,296941,1,0,0:0:0:0:
448,192,297146,1,0,0:0:0:0:
320,192,297351,1,0,0:0:0:0:
64,192,297351,1,0,0:0:0:0:
192,192,297557,1,0,0:0:0:0:
448,192,297557,1,0,0:0:0:0:
320,192,297762,1,0,0:0:0:0:
448,192,297762,1,0,0:0:0:0:
192,192,297968,1,0,0:0:0:0:
64,192,298173,1,0,0:0:0:0:
320,192,298173,1,0,0:0:0:0:
192,192,298379,1,0,0:0:0:0:
320,192,298379,1,0,0:0:0:0:
448,192,298584,1,0,0:0:0:0:
192,192,298790,1,0,0:0:0:0:
320,192,298790,1,0,0:0:0:0:
64,192,298995,1,0,0:0:0:0:
192,192,299201,1,0,0:0:0:0:
448,192,299201,1,0,0:0:0:0:
320,192,299304,1,0,0:0:0:0:
64,192,299406,1,0,0:0:0:0:
448,192,299406,1,0,0:0:0:0:
192,192,299612,1,0,0:0:0:0:
320,192,299817,1,0,0:0:0:0:
448,192,300023,1,0,0:0:0:0:
64,192,300023,1,0,0:0:0:0:
320,192,300228,1,0,0:0:0:0:
192,192,300434,1,0,0:0:0:0:
64,192,300639,1,0,0:0:0:0:
320,192,300639,1,0,0:0:0:0:
192,192,300845,1,0,0:0:0:0:
448,192,300845,1,0,0:0:0:0:
64,192,300947,1,0,0:0:0:0:
320,192,301050,1,0,0:0:0:0:
448,192,301050,1,0,0:0:0:0:
448,192,301256,1,0,0:0:0:0:
192,192,301256,1,0,0:0:0:0:
320,192,301461,1,0,0:0:0:0:
448,192,301461,1,0,0:0:0:0:
192,192,301667,1,0,0:0:0:0:
320,192,301667,1,0,0:0:0:0:
64,192,301769,1,0,0:0:0:0:
192,192,301872,1,0,0:0:0:0:
448,192,301872,1,0,0:0:0:0:
320,192,302077,1,0,0:0:0:0:
448,192,302283,1,0,0:0:0:0:
320,192,302488,1,0,0:0:0:0:
64,192,302488,1,0,0:0:0:0:
192,192,302694,1,0,0:0:0:0:
64,192,302899,1,0,0:0:0:0:
320,192,302899,1,0,0:0:0:0:
448,192,303002,1,0,0:0:0:0:
192,192,303105,1,0,0:0:0:0:
320,192,303105,1,0,0:0:0:0:
320,192,303310,1,0,0:0:0:0:
448,192,303516,1,0,0:0:0:0:
320,192,303721,1,0,0:0:0:0:
448,192,303721,1,0,0:0:0:0:
192,192,303927,1,0,0:0:0:0:
320,192,303927,1,0,0:0:0:0:
64,192,304132,1,0,0:0:0:0:
320,192,304132,1,0,0:0:0:0:
448,192,304235,1,0,0:0:0:0:
192,192,304338,1,0,0:0:0:0:
320,192,304338,1,0,0:0:0:0:
320,192,304543,1,0,0:0:0:0:
448,192,304749,1,0,0:0:0:0:
320,192,304954,1,0,0:0:0:0:
64,192,304954,1,0,0:0:0:0:
192,192,305160,1,0,0:0:0:0:
320,192,305365,1,0,0:0:0:0:
448,192,305365,1,0,0:0:0:0:
192,192,305468,1,0,0:0:0:0:
448,192,305571,1,0,0:0:0:0:
64,192,305571,1,0,0:0:0:0:
320,192,305776,1,0,0:0:0:0:
192,192,305982,1,0,0:0:0:0:
64,192,306187,1,0,0:0:0:0:
320,192,306187,1,0,0:0:0:0:
192,192,306393,1,0,0:0:0:0:
320,192,306598,1,0,0:0:0:0:
64,192,306598,1,0,0:0:0:0:
192,192,306701,1,0,0:0:0:0:
448,192,306804,1,0,0:0:0:0:
320,192,306804,1,0,0:0:0:0:
320,192,307009,1,0,0:0:0:0:
192,192,307214,1,0,0:0:0:0:
64,192,307420,1,0,0:0:0:0:
192,192,307420,1,0,0:0:0:0:
192,192,307625,1,0,0:0:0:0:
320,192,307625,1,0,0:0:0:0:
320,192,307831,1,0,0:0:0:0:
448,192,308036,1,0,0:0:0:0:
192,192,308036,1,0,0:0:0:0:
320,192,308242,1,0,0:0:0:0:
192,192,308447,1,0,0:0:0:0:
320,192,308447,1,0,0:0:0:0:
64,192,308653,1,0,0:0:0:0:
192,192,308858,1,0,0:0:0:0:
320,192,308858,1,0,0:0:0:0:
320,192,309064,1,0,0:0:0:0:
448,192,309064,1,0,0:0:0:0:
64,192,309167,1,0,0:0:0:0:
448,192,309269,1,0,0:0:0:0:
192,192,309269,1,0,0:0:0:0:
320,192,309475,1,0,0:0:0:0:
192,192,309680,1,0,0:0:0:0:
64,192,309886,1,0,0:0:0:0:
320,192,309886,1,0,0:0:0:0:
192,192,310091,1,0,0:0:0:0:
448,192,310091,1,0,0:0:0:0:
320,192,310194,1,0,0:0:0:0:
448,192,310297,1,0,0:0:0:0:
192,192,310297,1,0,0:0:0:0:
448,192,310502,1,0,0:0:0:0:
64,192,310502,1,0,0:0:0:0:
320,192,310639,1,0,0:0:0:0:
192,192,310776,1,0,0:0:0:0:
64,192,310913,1,0,0:0:0:0:
320,192,310913,1,0,0:0:0:0:
192,192,311050,1,0,0:0:0:0:
320,192,311187,1,0,0:0:0:0:
192,192,311324,1,0,0:0:0:0:
448,192,311324,1,0,0:0:0:0:
320,192,311530,1,0,0:0:0:0:
448,192,311530,1,0,0:0:0:0:
192,192,311632,1,0,0:0:0:0:
64,192,311735,1,0,0:0:0:0:
320,192,311735,1,0,0:0:0:0:
192,192,311941,1,0,0:0:0:0:
320,192,312146,1,0,0:0:0:0:
448,192,312351,1,0,0:0:0:0:
64,192,312557,1,0,0:0:0:0:
320,192,312557,1,0,0:0:0:0:
192,192,312762,1,0,0:0:0:0:
448,192,312865,1,0,0:0:0:0:
64,192,312968,1,0,0:0:0:0:
320,192,312968,1,0,0:0:0:0:
192,192,313173,1,0,0:0:0:0:
320,192,313379,1,0,0:0:0:0:
64,192,313379,1,0,0:0:0:0:
448,192,313584,1,0,0:0:0:0:
192,192,313790,1,0,0:0:0:0:
320,192,313790,1,0,0:0:0:0:
192,192,313995,1,0,0:0:0:0:
320,192,313995,1,0,0:0:0:0:
448,192,314098,1,0,0:0:0:0:
64,192,314201,1,0,0:0:0:0:
320,192,314201,1,0,0:0:0:0:
192,192,314406,1,0,0:0:0:0:
320,192,314612,1,0,0:0:0:0:
448,192,314817,1,0,0:0:0:0:
192,192,314817,1,0,0:0:0:0:
320,192,315023,1,0,0:0:0:0:
192,192,315228,1,0,0:0:0:0:
448,192,315228,1,0,0:0:0:0:
320,192,315331,1,0,0:0:0:0:
64,192,315434,1,0,0:0:0:0:
448,192,315434,1,0,0:0:0:0:
192,192,315639,1,0,0:0:0:0:
320,192,315845,1,0,0:0:0:0:
448,192,316050,1,0,0:0:0:0:
64,192,316050,1,0,0:0:0:0:
320,192,316256,1,0,0:0:0:0:
192,192,316461,1,0,0:0:0:0:
320,192,316461,1,0,0:0:0:0:
448,192,316564,1,0,0:0:0:0:
64,192,316615,1,0,0:0:0:0:
320,192,316615,1,0,0:0:0:0:
192,192,316870,1,0,0:0:0:0:
320,192,317079,1,0,0:0:0:0:
64,192,317079,1,0,0:0:0:0:
448,192,317289,1,0,0:0:0:0:
320,192,317446,1,0,0:0:0:0:
64,192,317446,1,0,0:0:0:0:
192,192,317655,1,0,0:0:0:0:
320,192,317760,1,0,0:0:0:0:
448,192,317864,1,0,0:0:0:0:
192,192,317864,1,0,0:0:0:0:
320,192,317969,1,0,0:0:0:0:
192,192,318074,1,0,0:0:0:0:
64,192,318283,1,0,0:0:0:0:
320,192,318283,1,0,0:0:0:0:
320,192,318492,1,0,0:0:0:0:
192,192,318702,1,0,0:0:0:0:
448,192,318702,1,0,0:0:0:0:
320,192,318911,1,0,0:0:0:0:
192,192,319121,1,0,0:0:0:0:
64,192,319121,1,0,0:0:0:0:
320,192,319330,1,0,0:0:0:0:
448,192,319435,1,0,0:0:0:0:
320,192,319539,1,0,0:0:0:0:
64,192,319539,1,0,0:0:0:0:
192,192,319749,1,0,0:0:0:0:
64,192,319958,1,0,0:0:0:0:
192,192,319958,1,0,0:0:0:0:
320,192,320167,1,0,0:0:0:0:
192,192,320377,1,0,0:0:0:0:
448,192,320377,1,0,0:0:0:0:
320,192,320586,1,0,0:0:0:0:
64,192,320796,1,0,0:0:0:0:
448,192,320796,1,0,0:0:0:0:
320,192,321005,1,0,0:0:0:0:
192,192,321110,1,0,0:0:0:0:
448,192,321214,1,0,0:0:0:0:
64,192,321214,1,0,0:0:0:0:
192,192,321319,1,0,0:0:0:0:
320,192,321424,1,0,0:0:0:0:
448,192,321528,1,0,0:0:0:0:
192,192,321633,1,0,0:0:0:0:
320,192,321633,1,0,0:0:0:0:
448,192,321843,1,0,0:0:0:0:
192,192,322052,1,0,0:0:0:0:
64,192,322052,1,0,0:0:0:0:
448,192,322261,1,0,0:0:0:0:
64,192,322471,1,0,0:0:0:0:
320,192,322471,1,0,0:0:0:0:
192,192,322680,1,0,0:0:0:0:
320,192,322785,1,0,0:0:0:0:
192,192,322889,1,0,0:0:0:0:
448,192,322889,1,0,0:0:0:0:
64,192,322994,1,0,0:0:0:0:
192,192,323099,1,0,0:0:0:0:
320,192,323308,1,0,0:0:0:0:
448,192,323308,1,0,0:0:0:0:
192,192,323518,1,0,0:0:0:0:
64,192,323727,1,0,0:0:0:0:
320,192,323727,1,0,0:0:0:0:
192,192,323936,1,0,0:0:0:0:
320,192,324146,1,0,0:0:0:0:
64,192,324146,1,0,0:0:0:0:
192,192,324355,1,0,0:0:0:0:
320,192,324460,1,0,0:0:0:0:
192,192,324564,1,0,0:0:0:0:
64,192,324564,1,0,0:0:0:0:
320,192,324669,1,0,0:0:0:0:
448,192,324774,1,0,0:0:0:0:
320,192,324983,1,0,0:0:0:0:
192,192,324983,1,0,0:0:0:0:
64,192,325193,1,0,0:0:0:0:
192,192,325402,1,0,0:0:0:0:
320,192,325402,1,0,0:0:0:0:
448,192,325611,1,0,0:0:0:0:
192,192,325821,1,0,0:0:0:0:
320,192,325821,1,0,0:0:0:0:
64,192,326030,1,0,0:0:0:0:
192,192,326135,1,0,0:0:0:0:
64,192,326240,1,0,0:0:0:0:
320,192,326240,1,0,0:0:0:0:
320,192,326449,1,0,0:0:0:0:
192,192,326658,1,0,0:0:0:0:
448,192,326658,1,0,0:0:0:0:
64,192,326868,1,0,0:0:0:0:
320,192,327077,1,0,0:0:0:0:
448,192,327077,1,0,0:0:0:0:
192,192,327286,1,0,0:0:0:0:
64,192,327523,1,0,0:0:0:0:
448,192,327523,1,0,0:0:0:0:
320,192,327705,1,0,0:0:0:0:
192,192,327810,1,0,0:0:0:0:
320,192,327915,1,0,0:0:0:0:
64,192,327915,1,0,0:0:0:0:
448,192,328019,1,0,0:0:0:0:
320,192,328124,1,0,0:0:0:0:
192,192,328229,1,0,0:0:0:0:
64,192,328333,1,0,0:0:0:0:
320,192,328333,1,0,0:0:0:0:
448,192,328543,1,0,0:0:0:0:
64,192,328752,1,0,0:0:0:0:
320,192,328752,1,0,0:0:0:0:
192,192,328961,1,0,0:0:0:0:
64,192,329171,1,0,0:0:0:0:
320,192,329171,1,0,0:0:0:0:
192,192,329380,1,0,0:0:0:0:
320,192,329485,1,0,0:0:0:0:
192,192,329590,1,0,0:0:0:0:
64,192,329590,1,0,0:0:0:0:
320,192,329694,1,0,0:0:0:0:
448,192,329799,1,0,0:0:0:0:
64,192,330008,1,0,0:0:0:0:
320,192,330008,1,0,0:0:0:0:
192,192,330218,1,0,0:0:0:0:
64,192,330427,1,0,0:0:0:0:
320,192,330427,1,0,0:0:0:0:
320,192,330637,1,0,0:0:0:0:
192,192,330846,1,0,0:0:0:0:
448,192,330846,1,0,0:0:0:0:
320,192,331055,1,0,0:0:0:0:
192,192,331160,1,0,0:0:0:0:
64,192,331265,1,0,0:0:0:0:
448,192,331265,1,0,0:0:0:0:
320,192,331369,1,0,0:0:0:0:
192,192,331474,1,0,0:0:0:0:
64,192,331683,1,0,0:0:0:0:
320,192,331683,1,0,0:0:0:0:
192,192,331893,1,0,0:0:0:0:
320,192,332102,1,0,0:0:0:0:
448,192,332102,1,0,0:0:0:0:
192,192,332312,1,0,0:0:0:0:
64,192,332521,1,0,0:0:0:0:
448,192,332521,1,0,0:0:0:0:
192,192,332730,1,0,0:0:0:0:
320,192,332835,1,0,0:0:0:0:
448,192,332940,1,0,0:0:0:0:
192,192,332940,1,0,0:0:0:0:
448,192,333149,1,0,0:0:0:0:
192,192,333358,1,0,0:0:0:0:
64,192,333358,1,0,0:0:0:0:
320,192,333568,1,0,0:0:0:0:
192,192,333777,1,0,0:0:0:0:
448,192,333777,1,0,0:0:0:0:
64,192,333987,1,0,0:0:0:0:
192,192,334196,1,0,0:0:0:0:
320,192,334196,1,0,0:0:0:0:
448,192,334405,1,0,0:0:0:0:
320,192,334510,1,0,0:0:0:0:
192,192,334615,1,0,0:0:0:0:
448,192,334615,1,0,0:0:0:0:
64,192,334719,1,0,0:0:0:0:
192,192,334824,1,0,0:0:0:0:
320,192,334824,1,0,0:0:0:0:
448,192,334929,1,0,0:0:0:0:
64,192,334929,1,0,0:0:0:0:
192,192,335138,1,0,0:0:0:0:
320,192,335348,1,0,0:0:0:0:
448,192,335348,1,0,0:0:0:0:
192,192,335557,1,0,0:0:0:0:
64,192,335871,1,0,0:0:0:0:
320,192,335871,1,0,0:0:0:0:
448,192,336080,1,0,0:0:0:0:
320,192,336185,1,0,0:0:0:0:
192,192,336290,1,0,0:0:0:0:
64,192,336290,1,0,0:0:0:0:
320,192,336394,1,0,0:0:0:0:
192,192,336499,1,0,0:0:0:0:
64,192,336604,1,0,0:0:0:0:
320,192,336604,1,0,0:0:0:0:
192,192,336813,1,0,0:0:0:0:
64,192,337023,1,0,0:0:0:0:
448,192,337023,1,0,0:0:0:0:
320,192,337232,1,0,0:0:0:0:
192,192,337441,1,0,0:0:0:0:
448,192,337441,1,0,0:0:0:0:
320,192,337651,1,0,0:0:0:0:
192,192,337755,1,0,0:0:0:0:
64,192,337860,1,0,0:0:0:0:
448,192,337860,1,0,0:0:0:0:
320,192,337965,1,0,0:0:0:0:
192,192,338070,1,0,0:0:0:0:
64,192,338279,1,0,0:0:0:0:
448,192,338279,1,0,0:0:0:0:
192,192,338488,1,0,0:0:0:0:
64,192,338698,1,0,0:0:0:0:
320,192,338698,1,0,0:0:0:0:
192,192,338907,1,0,0:0:0:0:
320,192,339116,1,0,0:0:0:0:
448,192,339116,1,0,0:0:0:0:
192,192,339326,1,0,0:0:0:0:
64,192,339430,1,0,0:0:0:0:
192,192,339535,1,0,0:0:0:0:
448,192,339535,1,0,0:0:0:0:
320,192,339745,1,0,0:0:0:0:
64,192,339954,1,0,0:0:0:0:
192,192,339954,1,0,0:0:0:0:
320,192,340163,1,0,0:0:0:0:
192,192,340373,1,0,0:0:0:0:
448,192,340373,1,0,0:0:0:0:
320,192,340582,1,0,0:0:0:0:
64,192,340791,1,0,0:0:0:0:
448,192,340791,1,0,0:0:0:0:
320,192,341001,1,0,0:0:0:0:
192,192,341106,1,0,0:0:0:0:
64,192,341210,1,0,0:0:0:0:
320,192,341210,1,0,0:0:0:0:
192,192,341315,1,0,0:0:0:0:
320,192,341420,1,0,0:0:0:0:
448,192,341524,1,0,0:0:0:0:
320,192,341629,1,0,0:0:0:0:
64,192,341629,1,0,0:0:0:0:
192,192,341838,1,0,0:0:0:0:
320,192,342048,1,0,0:0:0:0:
448,192,342048,1,0,0:0:0:0:
64,192,342257,1,0,0:0:0:0:
192,192,342466,1,0,0:0:0:0:
448,192,342466,1,0,0:0:0:0:
320,192,342676,1,0,0:0:0:0:
192,192,342781,1,0,0:0:0:0:
64,192,342885,1,0,0:0:0:0:
448,192,342885,1,0,0:0:0:0:
192,192,342990,1,0,0:0:0:0:
320,192,343095,1,0,0:0:0:0:
192,192,343304,1,0,0:0:0:0:
448,192,343304,1,0,0:0:0:0:
320,192,343513,1,0,0:0:0:0:
64,192,343513,1,0,0:0:0:0:
64,192,343723,1,0,0:0:0:0:
192,192,343723,1,0,0:0:0:0:
448,192,343932,1,0,0:0:0:0:
192,192,343932,1,0,0:0:0:0:
64,192,344142,1,0,0:0:0:0:
320,192,344142,1,0,0:0:0:0:
192,192,344351,1,0,0:0:0:0:
448,192,344351,1,0,0:0:0:0:
320,192,344456,1,0,0:0:0:0:
192,192,344560,1,0,0:0:0:0:
64,192,344560,1,0,0:0:0:0:
448,192,344665,1,0,0:0:0:0:
320,192,344770,1,0,0:0:0:0:
192,192,344770,1,0,0:0:0:0:
192,192,344979,1,0,0:0:0:0:
448,192,344979,1,0,0:0:0:0:
64,192,345188,1,0,0:0:0:0:
192,192,345188,1,0,0:0:0:0:
448,192,345398,1,0,0:0:0:0:
192,192,345398,1,0,0:0:0:0:
320,192,345607,1,0,0:0:0:0:
64,192,345607,1,0,0:0:0:0:
192,192,345817,1,0,0:0:0:0:
448,192,345817,1,0,0:0:0:0:
320,192,346026,1,0,0:0:0:0:
64,192,346026,1,0,0:0:0:0:
192,192,346131,1,0,0:0:0:0:
64,192,346235,1,0,0:0:0:0:
320,192,346235,1,0,0:0:0:0:
192,192,346445,1,0,0:0:0:0:
320,192,346445,1,0,0:0:0:0:
320,192,346654,1,0,0:0:0:0:
448,192,346654,1,0,0:0:0:0:
64,192,346863,1,0,0:0:0:0:
448,192,346863,1,0,0:0:0:0:
192,192,347073,1,0,0:0:0:0:
448,192,347073,1,0,0:0:0:0:
320,192,347282,1,0,0:0:0:0:
448,192,347282,1,0,0:0:0:0:
192,192,347492,1,0,0:0:0:0:
320,192,347492,1,0,0:0:0:0:
64,192,347701,1,0,0:0:0:0:
448,192,347701,1,0,0:0:0:0:
192,192,347806,1,0,0:0:0:0:
320,192,347910,1,0,0:0:0:0:
448,192,347910,1,0,0:0:0:0:
192,192,348015,1,0,0:0:0:0:
448,192,348120,1,0,0:0:0:0:
64,192,348120,1,0,0:0:0:0:
192,192,348224,1,0,0:0:0:0:
448,192,348329,1,0,0:0:0:0:
320,192,348329,1,0,0:0:0:0:
64,192,348539,1,0,0:0:0:0:
320,192,348539,1,0,0:0:0:0:
192,192,348748,1,0,0:0:0:0:
448,192,348748,1,0,0:0:0:0:
64,192,348957,1,0,0:0:0:0:
192,192,348957,1,0,0:0:0:0:
192,192,349167,1,0,0:0:0:0:
320,192,349167,1,0,0:0:0:0:
448,192,349376,1,0,0:0:0:0:
192,192,349376,1,0,0:0:0:0:
320,192,349481,1,0,0:0:0:0:
192,192,349585,1,0,0:0:0:0:
64,192,349585,1,0,0:0:0:0:
320,192,349690,1,0,0:0:0:0:
192,192,349795,1,0,0:0:0:0:
448,192,349795,1,0,0:0:0:0:
320,192,350004,1,0,0:0:0:0:
64,192,350004,1,0,0:0:0:0:
192,192,350214,1,0,0:0:0:0:
320,192,350214,1,0,0:0:0:0:
320,192,350423,1,0,0:0:0:0:
448,192,350423,1,0,0:0:0:0:
448,192,350632,1,0,0:0:0:0:
192,192,350632,1,0,0:0:0:0:
64,192,350842,1,0,0:0:0:0:
320,192,350842,1,0,0:0:0:0:
192,192,351051,1,0,0:0:0:0:
448,192,351051,1,0,0:0:0:0:
64,192,351156,1,0,0:0:0:0:
192,192,351260,1,0,0:0:0:0:
320,192,351260,1,0,0:0:0:0:
448,192,351365,1,0,0:0:0:0:
320,192,351470,1,0,0:0:0:0:
64,192,351470,1,0,0:0:0:0:
192,192,351679,1,0,0:0:0:0:
320,192,351679,1,0,0:0:0:0:
64,192,351889,1,0,0:0:0:0:
320,192,351889,1,0,0:0:0:0:
192,192,352098,1,0,0:0:0:0:
320,192,352098,1,0,0:0:0:0:
320,192,352307,1,0,0:0:0:0:
448,192,352307,1,0,0:0:0:0:
320,192,352517,1,0,0:0:0:0:
192,192,352517,1,0,0:0:0:0:
448,192,352726,1,0,0:0:0:0:
64,192,352726,1,0,0:0:0:0:
192,192,352831,1,0,0:0:0:0:
64,192,352935,1,0,0:0:0:0:
448,192,352935,1,0,0:0:0:0:
192,192,353145,1,0,0:0:0:0:
448,192,353145,1,0,0:0:0:0:
192,192,353354,1,0,0:0:0:0:
64,192,353354,1,0,0:0:0:0:
192,192,353564,1,0,0:0:0:0:
448,192,353564,1,0,0:0:0:0:
320,192,353773,1,0,0:0:0:0:
64,192,353773,1,0,0:0:0:0:
448,192,353982,1,0,0:0:0:0:
64,192,353982,1,0,0:0:0:0:
192,192,354192,1,0,0:0:0:0:
448,192,354192,1,0,0:0:0:0:
64,192,354401,1,0,0:0:0:0:
448,192,354401,1,0,0:0:0:0:
192,192,354506,1,0,0:0:0:0:
64,192,354611,1,0,0:0:0:0:
448,192,354611,1,0,0:0:0:0:
320,192,354715,1,0,0:0:0:0:
192,192,354820,1,0,0:0:0:0:
448,192,354820,1,0,0:0:0:0:
320,192,354925,1,0,0:0:0:0:
64,192,355029,1,0,0:0:0:0:
448,192,355029,1,0,0:0:0:0:
192,192,355239,1,0,0:0:0:0:
448,192,355239,1,0,0:0:0:0:
320,192,355448,1,0,0:0:0:0:
192,192,355448,1,0,0:0:0:0:
64,192,355657,1,0,0:0:0:0:
448,192,355657,1,0,0:0:0:0:
192,192,355867,1,0,0:0:0:0:
448,192,355867,1,0,0:0:0:0:
320,192,356076,1,0,0:0:0:0:
64,192,356076,1,0,0:0:0:0:
192,192,356181,1,0,0:0:0:0:
320,192,356286,1,0,0:0:0:0:
448,192,356286,1,0,0:0:0:0:
192,192,356390,1,0,0:0:0:0:
64,192,356495,1,0,0:0:0:0:
448,192,356495,1,0,0:0:0:0:
192,192,356667,1,0,0:0:0:0:
320,192,356667,1,0,0:0:0:0:
448,192,356667,1,0,0:0:0:0:
64,192,356769,128,0,357077:0:0:0:0:
192,192,357077,1,0,0:0:0:0:
448,192,357180,1,0,0:0:0:0:
64,192,357180,1,0,0:0:0:0:
192,192,357283,1,0,0:0:0:0:
320,192,357283,1,0,0:0:0:0:
448,192,357386,1,0,0:0:0:0:
192,192,357488,1,0,0:0:0:0:
64,192,357488,1,0,0:0:0:0:
320,192,357591,1,0,0:0:0:0:
448,192,357694,1,0,0:0:0:0:
192,192,358002,1,0,0:0:0:0:
64,192,358105,1,0,0:0:0:0:
448,192,358105,1,0,0:0:0:0:
64,192,358310,1,0,0:0:0:0:
448,192,358310,128,0,358721:0:0:0:0:
64,192,358927,1,0,0:0:0:0:
320,192,358927,1,0,0:0:0:0:
192,192,359030,1,0,0:0:0:0:
64,192,359132,1,0,0:0:0:0:
320,192,359132,1,0,0:0:0:0:
192,192,359235,1,0,0:0:0:0:
448,192,359338,1,0,0:0:0:0:
320,192,359338,1,0,0:0:0:0:
192,192,359440,1,0,0:0:0:0:
320,192,359543,1,0,0:0:0:0:
448,192,359543,1,0,0:0:0:0:
64,192,359646,1,0,0:0:0:0:
192,192,359749,1,0,0:0:0:0:
320,192,359749,1,0,0:0:0:0:
64,192,359851,1,0,0:0:0:0:
192,192,359954,1,0,0:0:0:0:
320,192,359954,1,0,0:0:0:0:
448,192,360057,128,0,360365:0:0:0:0:
64,192,360571,1,0,0:0:0:0:
320,192,360571,1,0,0:0:0:0:
192,192,360776,1,0,0:0:0:0:
448,192,360776,1,0,0:0:0:0:
448,192,361084,1,0,0:0:0:0:
320,192,361393,1,0,0:0:0:0:
64,192,361393,1,0,0:0:0:0:
320,192,361598,1,0,0:0:0:0:
192,192,361598,128,0,362009:0:0:0:0:
192,192,362214,1,0,0:0:0:0:
448,192,362214,1,0,0:0:0:0:
320,192,362317,1,0,0:0:0:0:
192,192,362420,1,0,0:0:0:0:
448,192,362420,1,0,0:0:0:0:
320,192,362523,1,0,0:0:0:0:
192,192,362625,1,0,0:0:0:0:
64,192,362625,1,0,0:0:0:0:
320,192,362728,1,0,0:0:0:0:
192,192,362831,1,0,0:0:0:0:
64,192,362831,1,0,0:0:0:0:
320,192,362934,1,0,0:0:0:0:
192,192,363036,1,0,0:0:0:0:
448,192,363036,1,0,0:0:0:0:
320,192,363139,1,0,0:0:0:0:
64,192,363242,1,0,0:0:0:0:
448,192,363242,1,0,0:0:0:0:
192,192,363242,1,0,0:0:0:0:
320,192,363447,1,0,0:0:0:0:
192,192,363550,1,0,0:0:0:0:
448,192,363550,128,0,364064:0:0:0:0:
64,192,363858,1,0,0:0:0:0:
192,192,364064,1,0,0:0:0:0:
320,192,364269,1,0,0:0:0:0:
448,192,364475,1,0,0:0:0:0:
320,192,364680,1,0,0:0:0:0:
192,192,364886,1,0,0:0:0:0:
320,192,365091,1,0,0:0:0:0:
192,192,365297,1,0,0:0:0:0:
320,192,365502,1,0,0:0:0:0:
448,192,365605,1,0,0:0:0:0:
192,192,365708,1,0,0:0:0:0:
64,192,365913,1,0,0:0:0:0:
320,192,365913,1,0,0:0:0:0:
192,192,366119,1,0,0:0:0:0:
320,192,366324,1,0,0:0:0:0:
448,192,366324,1,0,0:0:0:0:
192,192,366530,1,0,0:0:0:0:
320,192,366632,1,0,0:0:0:0:
448,192,366735,1,0,0:0:0:0:
64,192,366838,1,0,0:0:0:0:
192,192,366940,1,0,0:0:0:0:
320,192,367043,1,0,0:0:0:0:
192,192,367146,1,0,0:0:0:0:
320,192,367249,1,0,0:0:0:0:
448,192,367351,1,0,0:0:0:0:
320,192,367454,1,0,0:0:0:0:
448,192,367557,1,0,0:0:0:0:
320,192,367660,1,0,0:0:0:0:
192,192,367762,1,0,0:0:0:0:
64,192,367865,1,0,0:0:0:0:
192,192,367968,1,0,0:0:0:0:
320,192,368071,1,0,0:0:0:0:
448,192,368173,1,0,0:0:0:0:
