osu file format v10

[General]
AudioFilename: Meigasunaito.mp3
AudioLeadIn: 2000
PreviewTime: 11825
Countdown: 0
SampleSet: Normal
StackLeniency: 0.5
Mode: 0
LetterboxInBreaks: 1

[Editor]
DistanceSpacing: 1.2
BeatDivisor: 4
GridSize: 4

[Metadata]
Title:Magus Night
TitleUnicode:
Artist:ZUN
ArtistUnicode:
Creator:x847606653
Version:Normal
Source:Touhou
Tags:kg2161012 Kirisame Marisa th12.8 Great Fairy Wars
BeatmapID:139196
BeatmapSetID:44435

[Difficulty]
HPDrainRate:3
CircleSize:3
OverallDifficulty:3
ApproachRate:5
SliderMultiplier:1
SliderTickRate:1

[Events]
//Background and Video events
0,0,"BG.jpg"
//Break Periods
2,35019,45116
//Storyboard Layer 0 (Background)
//Storyboard Layer 1 (Fail)
//Storyboard Layer 2 (Pass)
//Storyboard Layer 3 (Foreground)
//Storyboard Sound Samples
//Background Colour Transformations
3,100,163,162,255

[TimingPoints]
328,359.281437125748,4,1,1,50,1,0
34819,-100,4,1,0,50,0,0
34998,-100,4,1,1,50,0,0
103441,-100,4,1,0,50,0,0
103621,-100,4,1,1,50,0,0
103801,-100,4,1,1,50,0,1
126795,-100,4,1,0,50,0,0

[Colours]
Combo1 : 228,164,244
Combo2 : 64,0,64
Combo3 : 5,5,240
Combo4 : 255,227,117

[HitObjects]
168,108,328,2,0,B|104:156|104:232|168:276,1,200,4|0,0:0|0:0,0:0:0
340,108,1765,2,0,B|404:152|404:228|340:276,1,200,8|0,0:0|0:0,0:0:0
256,52,3202,6,0,B|256:120,2,50,4|0|0,0:0|0:0|0:0,0:0:0
256,172,3920,2,0,B|256:280,1,100,8|0,0:0|0:0,0:0:0
140,240,4639,2,0,B|108:260|68:240,2,75,8|0|0,0:0|0:0|0:0,0:0:0
140,240,5357,1,8,0:0:0
308,68,6076,6,0,B|364:68|420:112,1,100,4|0,0:0|0:0,0:0:0
448,136,6615,1,0,0:0:0
476,192,6795,2,0,B|504:232|480:296,1,100,8|0,0:0|0:0,0:0:0
360,292,7513,2,0,B|336:240|360:196,2,100,8|0|8,0:0|0:0|0:0,0:0:0
252,244,8591,1,0,0:0:0
256,124,8950,6,0,B|204:96|148:96,1,100,4|0,0:0|0:0,0:0:0
160,156,9489,1,0,0:0:0
160,216,9669,2,0,B|88:220|56:172,1,100,8|0,0:0|0:0,0:0:0
56,68,10387,6,0,B|96:40|144:40,2,75,8|0|0,0:0|0:0|0:0,0:0:0
28,120,11106,1,8,0:0:0
264,164,11825,6,0,B|284:124|264:92,2,75,4|0|0,0:0|0:0|0:0,0:0:0
212,192,12543,2,0,B|176:208|136:192,2,75,8|0|0,0:0|0:0|0:0,0:0:0
268,212,13262,2,0,B|352:288,1,100,8|0,0:0|0:0,0:0:0
384,320,13801,1,0,0:0:0
444,328,13980,2,0,B|472:276|440:220,1,100,8|0,0:0|0:0,0:0:0
424,112,14699,6,0,B|400:72|420:24,2,75,4|0|0,0:0|0:0|0:0,0:0:0
388,160,15417,2,0,B|320:160|284:120,1,100,8|0,0:0|0:0,0:0:0
244,100,15956,1,0,0:0:0
192,72,16136,2,0,B|128:52|48:100|48:184,1,200,8|8,0:0|0:0,0:0:0
152,320,17393,5,0,0:0:0
152,320,17573,2,0,B|112:292|112:256,2,75,4|0|0,0:0|0:0|0:0,0:0:0
216,324,18292,2,0,B|256:288|256:244,1,75,8|0,0:0|0:0,0:0:0
260,172,18830,1,0,0:0:0
260,172,19010,6,0,B|280:68,1,100,8|0,0:0|0:0,0:0:0
321,31,19549,1,0,0:0:0
380,44,19729,2,0,B|416:44|456:72|456:104,1,100,8|0,0:0|0:0,0:0:0
464,156,20268,1,0,0:0:0
452,216,20447,6,0,B|404:208|384:164,2,75,4|0|0,0:0|0:0|0:0,0:0:0
452,276,21166,2,0,B|404:284|384:336,1,75,8|0,0:0|0:0,0:0:0
308,344,21705,1,0,0:0:0
308,344,21884,2,0,B|236:344|180:288|180:192,1,200,8|8,0:0|0:0,0:0:0
380,80,23322,6,0,B|340:56|288:56,2,75,4|0|0,0:0|0:0|0:0,0:0:0
428,96,24040,2,0,B|468:112|492:144,2,75,8|0|0,0:0|0:0|0:0,0:0:0
384,136,24759,2,0,B|332:240,1,100,8|0,0:0|0:0,0:0:0
308,276,25298,1,0,0:0:0
256,304,25477,2,0,B|204:280|140:280,1,100,8|0,0:0|0:0,0:0:0
128,164,26196,6,0,B|108:116|108:116|128:60,1,100,4|0,0:0|0:0,0:0:0
184,70,26735,1,0,0:0:0
244,68,26914,2,0,B|288:44|288:44|332:68,1,100,8|0,0:0|0:0,0:0:0
384,96,27453,1,0,0:0:0
428,136,27633,2,0,B|400:180|432:220,2,75,8|0|0,0:0|0:0|0:0,0:0:0
472,92,28351,1,8,0:0:0
336,212,28890,5,0,0:0:0
280,192,29070,2,0,B|236:172|192:172,2,75,4|0|0,0:0|0:0|0:0,0:0:0
308,140,29789,2,0,B|308:92|336:60,1,75,8|0,0:0|0:0,0:0:0
412,40,30327,1,0,0:0:0
412,40,30507,6,0,B|464:76|464:136,1,100,8|0,0:0|0:0,0:0:0
464,184,31046,1,0,0:0:0
464,244,31226,2,0,B|464:308|408:344,1,100,8|0,0:0|0:0,0:0:0
304,328,31944,6,0,B|256:336|208:324,1,75,4|0,0:0|0:0,0:0:0
264,244,32483,1,0,0:0:0
264,244,32663,2,0,B|264:164,2,75,8|0|0,0:0|0:0|0:0,0:0:0
256,192,33381,12,4,34819,0:0:0
104,192,46316,5,0,0:0:0
184,104,46675,1,8,0:0:0
236,76,46854,1,0,0:0:0
292,60,47034,2,0,B|344:40|396:60,1,100,0|8,0:0|0:0,0:0:0
500,108,47753,6,0,B|524:52|496:8,2,100,0|8|0,0:0|0:0|0:0,0:0:0
452,216,48830,1,8,0:0:0
372,308,49190,5,0,0:0:0
324,196,49549,1,8,0:0:0
264,184,49729,1,0,0:0:0
204,176,49908,2,0,B|148:180|96:148,1,100,0|8,0:0|0:0,0:0:0
192,68,50627,6,0,B|240:44|292:68,1,100,0|8,0:0|0:0,0:0:0
404,92,51345,2,0,B|428:140|404:192,1,100,0|8,0:0|0:0,0:0:0
360,300,52064,6,0,B|304:276|244:276,1,100,4|8,0:0|0:0,0:0:0
204,276,52603,1,0,0:0:0
144,276,52783,2,0,B|92:276|52:240,1,100,0|8,0:0|0:0,0:0:0
100,132,53501,1,0,0:0:0
196,60,53860,1,8,0:0:0
196,60,54040,1,0,0:0:0
196,60,54220,1,0,0:0:0
316,64,54579,1,8,0:0:0
420,124,54938,6,0,B|360:128|324:164,1,100,0|8,0:0|0:0,0:0:0
286,202,55477,1,0,0:0:0
328,244,55657,2,0,B|360:284|432:288,1,100,0|8,0:0|0:0,0:0:0
308,340,56375,5,0,0:0:0
196,296,56735,1,8,0:0:0
196,296,56914,1,0,0:0:0
196,296,57094,1,0,0:0:0
108,216,57453,1,8,0:0:0
172,116,57813,5,4,0:0:0
404,64,58531,1,8,0:0:0
408,304,59250,2,0,B|376:256|408:208,1,100,8|0,0:0|0:0,0:0:0
380,156,59789,1,0,0:0:0
332,120,59968,2,0,B|288:96,2,50,8|0|0,0:0|0:0|0:0,0:0:0
232,188,60687,5,4,0:0:0
32,52,61405,1,8,0:0:0
36,292,62124,2,0,B|20:244|32:200,2,75,8|0|0,0:0|0:0|0:0,0:0:0
92,316,62842,2,0,B|140:336|196:316,1,100,8|0,0:0|0:0,0:0:0
240,288,63381,5,0,0:0:0
216,232,63561,2,0,B|212:192|192:160,2,75,4|0|0,0:0|0:0|0:0,0:0:0
272,256,64280,2,0,B|320:224|360:224,1,75,8|0,0:0|0:0,0:0:0
432,228,64819,1,0,0:0:0
432,228,64998,6,0,B|428:160|460:116,1,100,8|0,0:0|0:0,0:0:0
420,80,65537,1,0,0:0:0
372,44,65717,2,0,B|324:72|252:52,1,100,8|0,0:0|0:0,0:0:0
176,124,66435,6,0,B|144:100|96:100,2,75,4|0|0,0:0|0:0|0:0,0:0:0
236,128,67154,2,0,B|272:100|312:100,2,75,8|0|0,0:0|0:0|0:0,0:0:0
204,180,67872,2,0,B|204:240|256:264|328:252|328:180,1,200,8|8,0:0|0:0,0:0:0
124,312,69310,6,0,B|88:280|88:244,1,75,4|0,0:0|0:0,0:0:0
68,160,69848,1,0,0:0:0
68,160,70028,2,0,B|52:112|16:84,2,75,8|0|0,0:0|0:0|0:0,0:0:0
128,160,70747,2,0,B|157:121|204:80,1,100,8|0,0:0|0:0,0:0:0
256,87,71286,1,0,0:0:0
316,88,71465,2,0,B|384:88,2,50,8|0|0,0:0|0:0|0:0,0:0:0
380,192,72184,6,0,B|300:192,2,75,4|0|0,0:0|0:0|0:0,0:0:0
436,208,72902,2,0,B|468:252|440:304,1,100,8|0,0:0|0:0,0:0:0
392,336,73441,1,0,0:0:0
332,336,73621,2,0,B|292:320|244:340,1,75,8|0,0:0|0:0,0:0:0
196,272,74160,1,0,0:0:0
196,272,74339,1,8,0:0:0
88,128,74878,5,0,0:0:0
140,100,75058,2,0,B|148:48|188:40,2,75,4|0|0,0:0|0:0|0:0,0:0:0
140,160,75777,2,0,B|148:204|192:224,2,75,8|0|0,0:0|0:0|0:0,0:0:0
188,124,76495,2,0,B|296:124,1,100,8|0,0:0|0:0,0:0:0
348,116,77034,1,0,0:0:0
404,144,77214,2,0,B|464:144|488:216,1,100,8|0,0:0|0:0,0:0:0
420,300,77932,6,0,B|392:252|404:208,2,75,4|0|0,0:0|0:0|0:0,0:0:0
372,336,78651,2,0,B|328:352|280:332,1,75,8|0,0:0|0:0,0:0:0
220,296,79190,1,0,0:0:0
220,296,79369,2,0,B|304:216|220:116,1,200,8|8,0:0|0:0,0:0:0
452,52,80807,5,4,0:0:0
216,80,81525,1,8,0:0:0
56,260,82244,2,0,B|136:176|232:260,1,200,8|8,0:0|0:0,0:0:0
276,300,83142,1,0,0:0:0
328,328,83322,2,0,B|392:328,2,50,0|0|4,0:0|0:0|0:0,0:0:0
368,216,84040,5,0,0:0:0
456,136,84399,2,0,B|432:76|376:56,1,100,8|0,0:0|0:0,0:0:0
272,52,85118,2,0,B|198:63|112:52,1,150,8|0,0:0|0:0,0:0:0
122,53,85836,1,8,0:0:0
92,168,86196,5,0,0:0:0
108,224,86375,1,0,0:0:0
128,280,86555,2,0,B|188:360|320:360,1,200,4|8,0:0|0:0,0:0:0
324,304,87453,2,0,B|352:244,1,50
376,204,87813,1,0,0:0:0
324,172,87992,2,0,B|288:152|248:152,2,75,8|0|0,0:0|0:0|0:0,0:0:0
164,88,89070,5,0,0:0:0
216,60,89250,1,0,0:0:0
272,44,89429,2,0,B|324:64|388:40,1,100,4|0,0:0|0:0,0:0:0
484,88,90148,2,0,B|456:140|488:196,1,100,8|0,0:0|0:0,0:0:0
416,284,90866,2,0,B|328:184|248:284,1,200,8|8,0:0|0:0,0:0:0
140,68,92304,6,0,B|196:72|256:40,1,100,4|0,0:0|0:0,0:0:0
352,68,93022,2,0,B|416:80|440:140,1,100,8|0,0:0|0:0,0:0:0
420,244,93741,2,0,B|372:260|344:292|344:292|300:260|236:260,1,200,8|8,0:0|0:0,0:0:0
180,256,94639,5,0,0:0:0
120,256,94819,2,0,B|68:256,2,50,0|0|4,0:0|0:0|0:0,0:0:0
64,148,95537,1,0,0:0:0
180,112,95896,2,0,B|160:56|104:32,1,100,8|0,0:0|0:0,0:0:0
180,112,96615,2,0,B|208:192|312:192,1,150,8|0,0:0|0:0,0:0:0
295,191,97333,1,8,0:0:0
404,136,97693,5,0,0:0:0
404,136,97872,1,0,0:0:0
404,136,98052,2,0,B|376:200|456:256|400:336,1,200,4|8,0:0|0:0,0:0:0
348,344,98950,2,0,B|288:352,1,50
240,356,99310,1,0,0:0:0
180,348,99489,2,0,B|136:300|136:240,1,100,8|0,0:0|0:0,0:0:0
308,88,100567,5,0,0:0:0
368,80,100747,1,0,0:0:0
428,72,100926,2,0,B|468:120|448:184,1,100,8|0,0:0|0:0,0:0:0
340,204,101645,2,0,B|360:256|420:280,1,100,8|0,0:0|0:0,0:0:0
292,300,102363,2,0,B|296:252|244:232,2,75,8|0|0,0:0|0:0|0:0,0:0:0
292,300,103082,1,8,0:0:0
224,200,103441,1,4,0:0:0
304,112,103801,6,0,B|344:72|344:72|388:72,1,100,4|8,0:0|0:0,0:0:0
428,184,104519,2,0,B|388:224|388:224|344:224,1,100,0|8,0:0|0:0,0:0:0
236,276,105238,2,0,B|276:312|276:312|332:312,2,100,0|8|0,0:0|0:0|0:0,0:0:0
192,232,106136,5,0,0:0:0
148,192,106316,2,0,B|100:140,1,50,8|0,0:0|0:0,0:0:0
76,108,106675,1,0,0:0:0
196,128,107034,1,8,0:0:0
316,108,107393,1,0,0:0:0
416,40,107753,1,8,0:0:0
480,140,108112,2,0,B|416:192|416:280,1,150,0|8,0:0|0:0,0:0:0
416,270,108830,1,0,0:0:0
312,328,109190,5,8,0:0:0
312,328,109369,1,0,0:0:0
312,328,109549,2,0,B|312:264|236:328|236:264|236:264|144:264,1,200,4|0,0:0|0:0,0:0:0
92,260,110447,1,0,0:0:0
68,204,110627,2,0,B|4:232,2,50,8|0|0,0:0|0:0|0:0,0:0:0
104,120,111256,1,0,0:0:0
176,64,111525,1,8,0:0:0
352,68,112064,6,0,B|304:64,2,50,0|0|4,0:0|0:0|0:0,0:0:0
456,132,112783,1,8,0:0:0
424,248,113142,2,0,B|388:200|320:200,1,100,0|8,0:0|0:0,0:0:0
219,201,113860,2,0,B|339:121|219:49,1,200,0|0,0:0|0:0,0:0:0
120,268,115298,6,0,B|160:308|228:308,1,100,4|8,0:0|0:0,0:0:0
329,307,116016,2,0,B|385:307|433:327,1,100,0|8,0:0|0:0,0:0:0
464,212,116735,2,0,B|444:104|332:60,1,200,0|0,0:0|0:0,0:0:0
284,48,117633,2,0,B|228:32,2,50,0|8|0,0:0|0:0|0:0,0:0:0
268,104,118172,6,0,B|212:116|196:168,1,100,4|8,0:0|0:0,0:0:0
304,220,118890,2,0,B|336:268|400:280,1,100,0|8,0:0|0:0,0:0:0
264,296,119609,2,0,B|192:248|112:296|112:296|92:244,1,200,0|0,0:0|0:0,0:0:0
108,140,120687,5,8,0:0:0
108,140,120866,1,0,0:0:0
108,140,121046,2,0,B|180:176|256:140|256:140|280:188,1,200,4|0,0:0|0:0,0:0:0
308,232,121944,2,0,B|336:288,1,50,0|8,0:0|0:0,0:0:0
380,312,122304,1,0,0:0:0
440,324,122483,2,0,B|484:296|520:296,2,75,0|8|0,0:0|0:0|0:0,0:0:0
424,144,123561,5,8,0:0:0
388,96,123741,1,0,0:0:0
340,64,123920,2,0,B|292:44|228:44,1,100,4|8,0:0|0:0,0:0:0
124,72,124639,2,0,B|72:96|64:160,1,100,0|8,0:0|0:0,0:0:0
92,264,125357,6,0,B|36:268|8:292,2,75,8|0|8,0:0|0:0|0:0,0:0:0
92,264,126076,1,0,0:0:0
208,288,126435,1,8,0:0:0
256,180,126795,5,4,0:0:0
