osu file format v10

[General]
AudioFilename: Meigasunaito.mp3
AudioLeadIn: 2000
PreviewTime: 11825
Countdown: 0
SampleSet: Normal
StackLeniency: 0.5
Mode: 0
LetterboxInBreaks: 1

[Editor]
DistanceSpacing: 0.5
BeatDivisor: 4
GridSize: 4

[Metadata]
Title:Magus Night
TitleUnicode:
Artist:ZUN
ArtistUnicode:
Creator:x847606653
Version:Lunatic
Source:Touhou
Tags:kg2161012 Kirisame Marisa th12.8 Great Fairy Wars
BeatmapID:155744
BeatmapSetID:44435

[Difficulty]
HPDrainRate:7
CircleSize:4
OverallDifficulty:7
ApproachRate:8
SliderMultiplier:2
SliderTickRate:1

[Events]
//Background and Video events
0,0,"BG.jpg"
//Break Periods
2,35019,44128
//Storyboard Layer 0 (Background)
//Storyboard Layer 1 (Fail)
//Storyboard Layer 2 (Pass)
//Storyboard Layer 3 (Foreground)
//Storyboard Sound Samples
//Background Colour Transformations
3,100,163,162,255

[TimingPoints]
328,359.281437125748,4,1,1,40,1,0
328,-133.333333333333,4,1,1,40,0,0
687,-133.333333333333,4,1,1,25,0,0
777,-133.333333333333,4,1,1,40,0,0
1405,-133.333333333333,4,1,1,25,0,0
1495,-133.333333333333,4,1,1,40,0,0
2124,-133.333333333333,4,1,1,25,0,0
2214,-133.333333333333,4,1,1,40,0,0
2842,-133.333333333333,4,1,1,25,0,0
2932,-133.333333333333,4,1,1,40,0,0
3202,-100,4,1,1,40,0,0
6076,-100,4,1,1,50,0,0
34819,-100,4,1,0,50,0,0
44878,-100,4,1,1,40,0,0
45597,-100,4,1,0,50,0,0
46316,-100,4,1,1,50,0,0
103172,-100,4,1,1,50,0,0
103801,-100,4,1,1,50,0,1
126795,-100,4,1,0,50,0,0

[Colours]
Combo1 : 228,164,244
Combo2 : 64,0,64
Combo3 : 5,5,240
Combo4 : 255,227,117

[HitObjects]
256,96,328,2,0,B|224:96|224:96|248:160|176:192,1,150.000005722046,4|0,0:0|0:0,0:0:0
256,288,1046,2,0,B|288:288|288:288|264:224|336:192,1,150.000005722046,2|0,0:0|0:0,0:0:0
168,124,1765,2,0,B|124:140|92:192|144:248,1,150.000005722046,0|0,0:0|0:0,0:0:0
344,260,2483,2,0,B|388:244|420:192|368:136,1,150.000005722046,2|0,0:0|0:0,0:0:0
179,190,3202,5,6,0:0:0
332,193,3381,1,0,0:0:0
254,269,3561,1,0,0:0:0
257,115,3740,1,0,0:0:0
256,192,3920,1,2,0:0:0
124,296,4639,5,2,0:0:0
124,296,4908,1,2,0:0:0
124,296,5178,2,0,B|144:328|176:300|176:300|228:328,1,100,2|0,0:0|0:0,0:0:0
304,348,5537,1,0,0:0:0
304,348,5627,1,0,0:0:0
304,348,5717,6,0,B|316:312|352:300|352:300|352:260,1,100,10|0,0:0|0:0,0:0:0
384,176,6076,2,0,B|429:151|431:92,1,100,4|0,0:0|0:0,0:0:0
336,92,6435,2,0,B|386:123|384:184,1,100,8|0,0:0|0:0,0:0:0
288,176,6795,2,0,B|333:151|335:92,1,100
240,92,7154,2,0,B|290:123|288:184,1,100,8|0,0:0|0:0,0:0:0
188,180,7513,5,0,0:0:0
268,240,7693,1,0,0:0:0
368,256,7872,1,8,0:0:0
460,216,8052,1,0,0:0:0
380,156,8232,5,0,0:0:0
368,256,8411,1,0,0:0:0
288,316,8591,1,8,0:0:0
188,308,8771,1,0,0:0:0
188,308,8860,1,0,0:0:0
188,308,8950,6,0,B|188:268|188:268|228:252|228:200,1,100,4|0,0:0|0:0,0:0:0
324,76,9310,2,0,B|324:116|324:116|284:132|284:184,1,100,8|0,0:0|0:0,0:0:0
188,160,9669,1,0,0:0:0
336,224,9848,1,0,0:0:0
188,160,10028,1,8,0:0:0
336,224,10208,1,0,0:0:0
188,308,10387,5,8,0:0:0
340,48,10657,1,8,0:0:0
188,308,10926,1,8,0:0:0
340,48,11106,1,0,0:0:0
224,100,11286,5,0,0:0:0
212,120,11375,1,0,0:0:0
200,140,11465,1,0,0:0:0
188,160,11555,1,0,0:0:0
176,180,11645,1,0,0:0:0
164,200,11735,1,0,0:0:0
152,220,11825,6,0,B|124:268|124:268|64:252|28:312,1,150,12|0,0:0|0:0,0:0:0
39,295,12363,1,0,0:0:0
100,340,12543,2,0,B|152:352|180:312|180:312|252:312,1,150,8|0,0:0|0:0,0:0:0
300,176,13082,2,0,B|360:80,1,100,0|8,0:0|0:0,0:0:0
496,136,13531,2,0,B|415:262,1,150
400,284,13890,1,0,0:0:0
384,304,13980,2,0,B|360:340|360:340|304:340,1,100,8|0,0:0|0:0,0:0:0
204,340,14339,1,0,0:0:0
68,192,14699,6,0,B|108:208|148:188|148:188|188:200|168:256,1,150,12|0,0:0|0:0,0:0:0
104,96,15238,1,0,0:0:0
116,72,15327,1,0,0:0:0
128,48,15417,2,0,B|174:30|228:24,1,100,8|0,0:0|0:0,0:0:0
308,84,15777,2,0,B|261:99|210:107,1,100,8|0,0:0|0:0,0:0:0
292,164,16136,5,8,0:0:0
384,128,16316,1,0,0:0:0
408,120,16405,1,0,0:0:0
432,128,16495,2,0,B|472:160|472:220,1,100
372,212,16854,1,8,0:0:0
352,228,16944,1,0,0:0:0
328,240,17034,1,0,0:0:0
304,248,17124,1,0,0:0:0
280,252,17214,2,0,B|232:276|176:260,1,100
220,168,17573,5,12,0:0:0
220,168,17842,1,0,0:0:0
72,260,18112,1,0,0:0:0
136,336,18292,2,0,B|84:264|84:180,1,150,8|0,0:0|0:0,0:0:0
72,88,18830,1,0,0:0:0
72,88,19010,6,0,B|108:48|160:48,1,100,8|0,0:0|0:0,0:0:0
196,140,19369,2,0,B|247:123|292:149,1,100
292,252,19729,2,0,B|344:263|370:308,2,100,8|0|0,0:0|0:0|0:0,0:0:0
192,244,20268,1,0,0:0:0
408,80,20447,5,12,0:0:0
192,244,20717,1,0,0:0:0
408,80,20986,1,0,0:0:0
180,16,21166,5,8,0:0:0
408,80,21435,1,0,0:0:0
192,244,21705,1,0,0:0:0
56,184,21884,5,8,0:0:0
76,200,21974,1,0,0:0:0
96,216,22064,1,0,0:0:0
116,232,22154,1,0,0:0:0
136,248,22244,1,0,0:0:0
156,264,22333,1,0,0:0:0
176,280,22423,1,0,0:0:0
196,296,22513,1,0,0:0:0
216,312,22603,6,0,B|248:336,13,25,8|0|0|0|0|0|0|0|8|0|0|0|0|0,0:0|0:0|0:0|0:0|0:0|0:0|0:0|0:0|0:0|0:0|0:0|0:0|0:0|0:0,0:0:0
312,316,23322,6,0,B|416:208,2,150,8|0|0,0:0|0:0|0:0,0:0:0
200,68,24040,2,0,B|96:176,2,150,8|0|0,0:0|0:0|0:0,0:0:0
212,188,24759,5,8,0:0:0
312,76,25028,1,0,0:0:0
408,92,25298,1,0,0:0:0
428,108,25387,1,0,0:0:0
448,124,25477,1,8,0:0:0
444,224,25657,2,0,B|360:160,1,100
292,348,26196,6,0,B|348:348|348:268|304:224,1,150,12|0,0:0|0:0,0:0:0
196,128,26735,1,0,0:0:0
176,112,26825,1,0,0:0:0
156,96,26914,2,0,B|104:96|52:76,1,100,8|0,0:0|0:0,0:0:0
40,180,27274,2,0,B|92:180|144:200,1,100,8|0,0:0|0:0,0:0:0
160,296,27633,5,8,0:0:0
321,138,27902,1,0,0:0:0
160,296,28172,1,0,0:0:0
71,280,28351,2,0,B|41:237|73:166|154:163|186:209,1,200,8|0,0:0|0:0,0:0:0
280,184,28890,1,0,0:0:0
344,112,29070,6,0,B|404:176|344:264,1,150,12|0,0:0|0:0,0:0:0
412,72,29609,1,0,0:0:0
444,144,29789,2,0,B|441:231|336:251,1,150,8|0,0:0|0:0,0:0:0
344,112,30327,1,0,0:0:0
244,116,30507,5,8,0:0:0
148,148,30687,1,0,0:0:0
84,224,30866,1,0,0:0:0
128,316,31046,1,0,0:0:0
192,240,31226,5,8,0:0:0
84,224,31405,1,0,0:0:0
48,128,31585,1,0,0:0:0
88,36,31765,1,0,0:0:0
188,44,31944,5,12,0:0:0
304,136,32214,1,0,0:0:0
162,184,32483,1,0,0:0:0
420,228,32663,5,8,0:0:0
304,136,32933,1,0,0:0:0
446,88,33202,1,0,0:0:0
352,56,33381,5,8,0:0:0
328,56,33471,1,0,0:0:0
304,56,33561,1,0,0:0:0
280,56,33651,1,0,0:0:0
256,56,33741,1,0,0:0:0
232,56,33830,1,0,0:0:0
208,56,33920,1,0,0:0:0
184,56,34010,1,0,0:0:0
160,56,34100,5,8,0:0:0
112,68,34190,1,0,0:0:0
72,100,34280,1,0,0:0:0
44,140,34369,1,0,0:0:0
36,188,34459,1,8,0:0:0
32,240,34549,1,0,0:0:0
48,288,34639,1,0,0:0:0
76,328,34729,1,0,0:0:0
116,356,34819,1,4,0:0:0
44,80,44878,5,4,0:0:0
88,148,45148,1,4,0:0:0
136,212,45417,1,4,0:0:0
376,328,45597,5,4,0:0:0
208,56,46316,6,0,B|256:32|304:56,1,100
304,156,46675,1,8,0:0:0
304,256,46854,1,0,0:0:0
304,356,47034,6,0,B|256:380|208:356,1,100
208,256,47393,1,8,0:0:0
208,156,47572,1,0,0:0:0
256,68,47753,6,0,B|256:168,1,100
256,316,48112,2,0,B|256:216,1,100,8|0,0:0|0:0,0:0:0
132,192,48471,6,0,B|232:192,1,100
380,192,48830,2,0,B|280:192,1,100,8|0,0:0|0:0,0:0:0
136,148,49190,6,0,B|168:52,1,100
136,252,49549,2,0,B|176:364,1,100,8|0,0:0|0:0,0:0:0
200,160,49908,6,0,B|232:64,1,100
200,220,50267,2,0,B|240:332,1,100,8|0,0:0|0:0,0:0:0
328,248,50627,2,0,B|428:248,1,100
424,132,50986,2,0,B|324:132,1,100,8|0,0:0|0:0,0:0:0
428,248,51345,5,0,0:0:0
324,132,51525,1,0,0:0:0
328,248,51705,1,8,0:0:0
424,132,51884,1,0,0:0:0
188,64,52064,5,4,0:0:0
96,104,52244,1,0,0:0:0
96,204,52423,2,0,B|96:272,2,50,8|0|0,0:0|0:0|0:0,0:0:0
188,300,52783,1,0,0:0:0
280,260,52962,1,0,0:0:0
280,160,53141,2,0,B|280:92,2,50,8|0|0,0:0|0:0|0:0,0:0:0
372,76,53501,6,0,B|316:44,2,50
192,76,53860,2,0,B|247:43,2,50
280,132,54220,2,0,B|280:56,4,50,0|0|0|0|8,0:0|0:0|0:0|0:0|0:0,0:0:0
280,232,54759,1,0,0:0:0
180,244,54938,6,0,B|184:304|252:332,1,100
336,324,55298,2,0,B|396:324,2,50,8|0|0,0:0|0:0|0:0,0:0:0
384,220,55657,2,0,B|380:160|312:132,1,100
212,148,56017,2,0,B|152:148,2,50,8|0|0,0:0|0:0|0:0,0:0:0
264,64,56375,6,0,B|312:112,2,50
188,64,56735,2,0,B|140:112,2,50
224,128,57094,2,0,B|224:188,4,50,0|0|0|0|8,0:0|0:0|0:0|0:0|0:0,0:0:0
224,204,57633,1,0,0:0:0
152,280,57813,6,0,B|224:324|294:281,2,150,12|0|0,0:0|0:0|0:0,0:0:0
296,136,58531,2,0,B|224:92|153:134,2,150,8|0|0,0:0|0:0|0:0,0:0:0
388,176,59250,5,8,0:0:0
388,176,59519,1,0,0:0:0
380,328,59789,1,0,0:0:0
368,308,59878,1,0,0:0:0
352,288,59968,2,0,B|316:248|252:248,2,100,8|0|0,0:0|0:0|0:0,0:0:0
156,320,60687,6,0,B|104:232|176:160,1,150,12|0,0:0|0:0,0:0:0
308,152,61226,1,0,0:0:0
288,136,61316,1,0,0:0:0
268,120,61405,2,0,B|208:120|180:72,1,100,8|0,0:0|0:0,0:0:0
256,44,61765,2,0,B|316:44|344:92,1,100,8|0,0:0|0:0,0:0:0
404,164,62124,6,0,B|462:198|418:274|356:238,2,150,8|0|0,0:0|0:0|0:0,0:0:0
228,292,62842,2,0,B|144:244|198:150|288:202,1,200,8|0,0:0|0:0,0:0:0
283,199,63381,1,0,0:0:0
220,120,63561,2,0,B|288:120|288:28|212:28,2,150,8|0|0,0:0|0:0|0:0,0:0:0
120,124,64280,2,0,B|52:124|52:216|128:216,2,150,8|0|0,0:0|0:0|0:0,0:0:0
356,40,64998,5,0,0:0:0
424,112,65178,1,0,0:0:0
300,196,65357,1,8,0:0:0
460,316,65537,1,0,0:0:0
300,316,65717,5,0,0:0:0
460,196,65896,1,0,0:0:0
336,112,66076,1,8,0:0:0
408,40,66256,1,0,0:0:0
200,68,66435,6,0,B|140:128|140:128|140:216,1,150,4|0,0:0|0:0,0:0:0
140,193,66974,1,0,0:0:0
80,320,67154,6,0,B|140:260|140:260|140:172,1,150,8|0,0:0|0:0,0:0:0
140,193,67693,1,0,0:0:0
240,180,67872,6,0,B|286:166|344:176,1,100,8|0,0:0|0:0,0:0:0
339,175,68142,1,0,0:0:0
339,175,68232,1,0,0:0:0
384,264,68411,1,0,0:0:0
304,324,68591,5,8,0:0:0
280,328,68681,1,0,0:0:0
256,332,68771,1,0,0:0:0
232,332,68860,1,0,0:0:0
208,328,68950,1,0,0:0:0
184,316,69040,1,0,0:0:0
164,304,69130,1,0,0:0:0
148,288,69220,1,0,0:0:0
132,268,69310,5,4,0:0:0
112,192,70028,1,8,0:0:0
128,112,70747,5,0,0:0:0
184,56,71465,1,8,0:0:0
380,116,72184,5,0,0:0:0
400,192,72902,1,8,0:0:0
384,272,73621,5,0,0:0:0
328,328,74339,1,8,0:0:0
240,280,74699,5,0,0:0:0
256,192,74878,1,0,0:0:0
168,176,75058,1,4,0:0:0
136,80,75238,1,0,0:0:0
160,72,75327,1,0,0:0:0
184,64,75417,2,0,B|224:96|280:96,1,100,8|0,0:0|0:0,0:0:0
344,172,75777,1,0,0:0:0
328,272,75956,1,0,0:0:0
308,284,76046,1,0,0:0:0
284,296,76136,2,0,B|228:272|184:272,1,100,8|0,0:0|0:0,0:0:0
88,288,76495,5,0,0:0:0
64,192,76675,1,0,0:0:0
72,168,76765,1,0,0:0:0
80,144,76854,1,8,0:0:0
180,128,77034,1,0,0:0:0
188,104,77124,1,0,0:0:0
196,80,77213,1,8,0:0:0
124,288,77393,1,0,0:0:0
348,288,77573,1,8,0:0:0
420,80,77753,1,0,0:0:0
196,80,77932,6,0,B|272:120|272:120|272:200,1,150,12|0,0:0|0:0,0:0:0
272,184,78471,1,0,0:0:0
348,288,78651,6,0,B|272:248|272:248|272:168,1,150,8|0,0:0|0:0,0:0:0
272,184,79190,1,0,0:0:0
256,192,79369,12,0,80447,0:0:0
96,132,80807,5,4,0:0:0
188,92,80986,1,0,0:0:0
172,192,81166,1,8,0:0:0
172,192,81525,5,0,0:0:0
268,212,81704,1,0,0:0:0
204,288,81884,1,8,0:0:0
204,288,82244,6,0,B|312:288,1,100
308,96,82603,2,0,B|200:96,2,100,8|0|0,0:0|0:0|0:0,0:0:0
372,172,83142,1,0,0:0:0
440,100,83322,1,8,0:0:0
476,192,83501,1,0,0:0:0
408,268,83681,5,4,0:0:0
212,300,83860,1,0,0:0:0
276,112,84040,1,8,0:0:0
276,112,84399,5,0,0:0:0
84,52,84579,1,0,0:0:0
40,248,84759,1,8,0:0:0
456,264,85118,6,0,B|352:264|352:180|352:180|404:124,1,200,0|8,0:0|0:0,0:0:0
384,144,85657,1,0,0:0:0
444,192,85836,2,0,B|476:156|476:156|476:72|372:72,1,200,0|8,0:0|0:0,0:0:0
272,76,86375,5,0,0:0:0
248,80,86465,1,0,0:0:0
224,84,86555,2,0,B|144:100|144:100|108:132,1,100,4|0,0:0|0:0,0:0:0
196,176,86914,2,0,B|180:192|180:192|88:204,1,100,8|0,0:0|0:0,0:0:0
103,202,87184,1,0,0:0:0
103,202,87274,1,0,0:0:0
112,300,87453,5,0,0:0:0
204,336,87633,1,8,0:0:0
304,320,87813,1,0,0:0:0
380,256,87992,2,0,B|384:128|384:128|424:112,2,150,0|8|0,0:0|0:0|0:0,0:0:0
380,256,88621,5,0,0:0:0
380,256,88711,1,0,0:0:0
304,192,88890,1,0,0:0:0
224,132,89070,2,0,B|176:112|136:64,1,100,8|0,0:0|0:0,0:0:0
128,168,89429,6,0,B|68:168|28:208,1,100,4|0,0:0|0:0,0:0:0
216,264,89789,2,0,B|164:234|109:248,1,100,8|0,0:0|0:0,0:0:0
296,264,90148,2,0,B|335:240|393:256,1,100
379,173,90507,2,0,B|425:173|468:216,1,100,8|0,0:0|0:0,0:0:0
256,72,90866,5,8,0:0:0
232,80,90956,1,0,0:0:0
224,104,91046,1,0,0:0:0
232,128,91136,1,0,0:0:0
252,144,91226,1,0,0:0:0
276,144,91316,1,0,0:0:0
296,128,91405,1,0,0:0:0
300,104,91495,1,0,0:0:0
348,120,91585,5,8,0:0:0
328,168,91675,1,0,0:0:0
288,200,91765,1,0,0:0:0
240,200,91854,1,0,0:0:0
196,172,91944,1,0,0:0:0
184,124,92034,1,0,0:0:0
184,72,92124,1,0,0:0:0
224,40,92214,1,0,0:0:0
272,32,92304,6,0,B|321:37|388:24,2,100,4|0|8,0:0|0:0|0:0,0:0:0
460,72,92842,1,0,0:0:0
456,96,92932,1,0,0:0:0
452,120,93022,2,0,B|444:176|464:232,2,100,0|0|8,0:0|0:0|0:0,0:0:0
392,292,93561,1,0,0:0:0
392,292,93741,5,0,0:0:0
296,308,93920,1,0,0:0:0
204,272,94100,1,8,0:0:0
152,184,94280,1,0,0:0:0
176,88,94459,1,0,0:0:0
264,36,94639,5,0,0:0:0
288,40,94729,1,0,0:0:0
312,44,94819,2,0,B|420:60,1,100,8|0,0:0|0:0,0:0:0
384,156,95178,2,0,B|432:136|472:180|472:180|416:212|426:265,1,200,4|8,0:0|0:0,0:0:0
332,232,95717,1,0,0:0:0
332,232,95896,2,0,B|284:252|244:208|244:208|300:176|288:124,1,200,0|8,0:0|0:0,0:0:0
188,120,96435,1,0,0:0:0
188,120,96615,6,0,B|112:148|112:256|192:288,1,200,0|8,0:0|0:0,0:0:0
240,200,97154,1,0,0:0:0
292,280,97333,2,0,B|368:252|368:144|288:112,1,200,0|8,0:0|0:0,0:0:0
352,32,97872,1,0,0:0:0
376,40,97962,1,0,0:0:0
400,48,98052,6,0,B|436:76|496:76,1,100,4|0,0:0|0:0,0:0:0
464,172,98411,2,0,B|428:144|368:144,1,100,8|0,0:0|0:0,0:0:0
304,196,98771,1,0,0:0:0
304,196,98950,2,0,B|340:224|400:224,2,100,0|8|0,0:0|0:0|0:0,0:0:0
212,156,99489,2,0,B|132:184|132:280,2,150,0|8|0,0:0|0:0|0:0,0:0:0
212,156,100118,1,0,0:0:0
212,156,100208,5,0,0:0:0
260,68,100387,1,0,0:0:0
356,40,100567,1,8,0:0:0
452,76,100747,1,0,0:0:0
476,172,100926,2,0,B|376:348,2,200,4|8|0,0:0|0:0|0:0,0:0:0
476,172,102004,1,8,0:0:0
377,345,102363,5,8,0:0:0
88,264,102633,1,0,0:0:0
377,345,102902,1,0,0:0:0
88,264,103082,1,12,0:0:0
172,92,103441,5,0,0:0:0
196,80,103531,1,0,0:0:0
220,72,103621,1,0,0:0:0
244,76,103711,1,0,0:0:0
268,84,103801,2,0,B|304:120|376:120,1,100,4|0,0:0|0:0,0:0:0
444,68,104160,2,0,B|408:32|336:32,1,100,8|0,0:0|0:0,0:0:0
360,120,104519,2,0,B|324:156|324:228,1,100,0|0,0:0|0:0,0:0:0
380,296,104878,2,0,B|416:260|416:188,1,100,8|0,0:0|0:0,0:0:0
415,204,105148,1,0,0:0:0
415,204,105238,5,0,0:0:0
360,120,105417,1,0,0:0:0
260,104,105597,2,0,B|152:80,1,100,8|0,0:0|0:0,0:0:0
136,76,105866,1,0,0:0:0
112,72,105956,1,0,0:0:0
48,148,106136,1,0,0:0:0
64,248,106316,1,8,0:0:0
148,300,106495,1,0,0:0:0
64,248,106675,5,4,0:0:0
48,148,106854,1,0,0:0:0
80,52,107034,1,8,0:0:0
448,136,107393,5,0,0:0:0
464,236,107572,1,0,0:0:0
432,332,107752,1,8,0:0:0
364,144,108112,6,0,B|288:208,1,100
188,204,108471,2,0,B|264:140,1,100,8|0,0:0|0:0,0:0:0
280,40,108830,2,0,B|204:104,1,100
104,100,109190,1,8,0:0:0
36,172,109369,1,0,0:0:0
28,196,109459,1,0,0:0:0
20,220,109549,6,0,B|20:272|48:320,1,100,4|0,0:0|0:0,0:0:0
144,332,109908,2,0,B|180:300|240:300,1,100,8|0,0:0|0:0,0:0:0
260,300,110178,1,0,0:0:0
284,300,110268,2,0,B|340:300|388:256,1,100
376,266,110627,1,8,0:0:0
420,176,110807,1,0,0:0:0
352,104,110986,2,0,B|376:60|456:60|484:100,2,150,0|8|0,0:0|0:0|0:0,0:0:0
336,120,111615,1,0,0:0:0
316,136,111705,6,0,B|276:184|216:184,1,100
144,136,112064,2,0,B|184:88|244:88,1,100,8|0,0:0|0:0,0:0:0
164,204,112423,6,0,B|124:252|64:252,1,100,0|0,0:0|0:0,0:0:0
168,300,112783,1,8,0:0:0
260,336,112962,1,0,0:0:0
304,248,113142,2,0,B|328:296|388:316,1,100
324,152,113501,1,8,0:0:0
272,64,113681,1,0,0:0:0
168,64,113860,5,8,0:0:0
88,124,114040,1,0,0:0:0
40,212,114220,1,8,0:0:0
60,308,114399,1,0,0:0:0
152,348,114579,5,8,0:0:0
172,332,114669,1,0,0:0:0
192,316,114759,1,0,0:0:0
212,304,114848,1,0,0:0:0
236,296,114938,1,8,0:0:0
260,288,115028,1,0,0:0:0
284,284,115118,1,0,0:0:0
308,284,115208,1,0,0:0:0
332,288,115298,6,0,B|384:288|420:232,1,100,4|0,0:0|0:0,0:0:0
180,96,115657,2,0,B|128:96|92:152,1,100,8|0,0:0|0:0,0:0:0
92,228,116016,2,0,B|144:228|180:172,1,100
424,160,116375,2,0,B|372:160|336:216,1,100,8|0,0:0|0:0,0:0:0
174,179,116735,5,0,0:0:0
341,208,116914,1,0,0:0:0
240,277,117094,1,8,0:0:0
269,110,117274,1,0,0:0:0
256,192,117453,1,0,0:0:0
92,160,117633,5,0,0:0:0
92,160,117813,2,0,B|56:228|44:284,1,100,8|0,0:0|0:0,0:0:0
128,316,118172,2,0,B|228:356,2,100,4|0|8,0:0|0:0|0:0,0:0:0
384,68,118890,2,0,B|284:28,2,100,0|0|8,0:0|0:0|0:0,0:0:0
388,168,119429,1,0,0:0:0
388,168,119609,6,0,B|292:128|292:128|316:176|272:224,1,200,0|8,0:0|0:0,0:0:0
196,160,120148,1,0,0:0:0
196,160,120327,2,0,B|152:220|208:288|208:288|272:288,1,200,0|8,0:0|0:0,0:0:0
368,292,120866,1,0,0:0:0
392,280,120956,1,0,0:0:0
412,268,121046,6,0,B|472:224|472:224|472:196,1,100,4|0,0:0|0:0,0:0:0
420,112,121405,1,8,0:0:0
328,72,121585,1,0,0:0:0
304,68,121675,1,0,0:0:0
280,64,121765,2,0,B|208:48|208:48|168:80,1,100
104,116,122124,1,8,0:0:0
44,196,122304,1,0,0:0:0
84,288,122483,6,0,B|140:260|144:196|144:196|204:196,2,150,0|8|0,0:0|0:0|0:0,0:0:0
84,288,123112,1,0,0:0:0
84,288,123202,1,0,0:0:0
44,196,123381,1,0,0:0:0
104,116,123561,2,0,B|144:72|144:72|216:72,1,100,8|0,0:0|0:0,0:0:0
284,76,123920,6,0,B|396:76|396:76|348:152,1,200,4|8,0:0|0:0,0:0:0
349,150,124459,1,0,0:0:0
416,224,124639,2,0,B|304:224|304:224|350:149,1,200,0|8,0:0|0:0,0:0:0
349,150,125178,1,0,0:0:0
252,164,125357,5,8,0:0:0
28,364,125627,1,0,0:0:0
252,164,125896,1,8,0:0:0
28,364,126076,1,0,0:0:0
68,56,126435,5,12,0:0:0
344,204,126795,5,4,0:0:0
