osu file format v10

[General]
AudioFilename: Meigasunaito.mp3
AudioLeadIn: 2000
PreviewTime: 11825
Countdown: 0
SampleSet: Normal
StackLeniency: 0.5
Mode: 0
LetterboxInBreaks: 1

[Editor]
Bookmarks: 45839
DistanceSpacing: 1.1
BeatDivisor: 4
GridSize: 4

[Metadata]
Title:Magus Night
TitleUnicode:
Artist:ZUN
ArtistUnicode:
Creator:x847606653
Version:Hard
Source:Touhou
Tags:kg2161012 Kirisame Marisa th12.8 Great Fairy Wars
BeatmapID:153922
BeatmapSetID:44435

[Difficulty]
HPDrainRate:6
CircleSize:4
OverallDifficulty:6
ApproachRate:7
SliderMultiplier:1.4
SliderTickRate:1

[Events]
//Background and Video events
0,0,"BG.jpg"
//Break Periods
2,35019,45416
//Storyboard Layer 0 (Background)
//Storyboard Layer 1 (Fail)
//Storyboard Layer 2 (Pass)
//Storyboard Layer 3 (Foreground)
//Storyboard Sound Samples
//Background Colour Transformations
3,100,163,162,255

[TimingPoints]
328,359.281437125748,4,1,1,50,1,0
34819,-100,4,1,0,50,0,0
34908,-100,4,1,1,50,0,0
103441,-100,4,1,0,50,0,0
103801,-100,4,1,1,50,0,1
126795,-100,4,1,0,50,0,0

[Colours]
Combo1 : 228,164,244
Combo2 : 64,0,64
Combo3 : 5,5,240
Combo4 : 255,227,117

[HitObjects]
108,116,328,1,4,0:0:0
380,264,1046,1,2,0:0:0
88,190,1765,1,0,0:0:0
395,190,2483,1,2,0:0:0
112,72,3202,6,0,B|208:72,1,70,4|0,0:0|0:0,0:0:0
259,72,3561,1,0,0:0:0
168,196,3920,2,0,B|252:196,1,70,2|0,0:0|0:0,0:0:0
315,196,4280,1,0,0:0:0
448,120,4639,2,0,B|496:192|448:272|448:272|320:340,1,280,2|0,0:0|0:0,0:0:0
88,192,6076,6,0,B|88:104,1,70,4|0,0:0|0:0,0:0:0
165,122,6435,2,0,B|165:210,1,70,8|0,0:0|0:0,0:0:0
165,269,6795,1,0,0:0:0
165,269,7154,1,8,0:0:0
318,269,7513,6,0,B|410:269,1,70,0|0,0:0|0:0,0:0:0
388,191,7872,2,0,B|308:192,1,70,8|0,0:0|0:0,0:0:0
240,192,8232,1,0,0:0:0
240,192,8591,1,8,0:0:0
86,192,8950,5,4,0:0:0
86,192,9130,1,0,0:0:0
86,192,9310,1,8,0:0:0
194,83,9669,2,0,B|122:155,2,70,0|0|8,0:0|0:0|0:0,0:0:0
348,60,10387,5,0,0:0:0
456,100,10657,1,8,0:0:0
364,172,10926,1,0,0:0:0
408,236,11106,2,0,B|344:268|284:224|288:164,1,140,0|8,0:0|0:0,0:0:0
160,276,11825,6,0,B|180:220|144:176|108:168,2,105,12|0|0,0:0|0:0|0:0,0:0:0
88,244,12543,2,0,B|72:284|84:336|140:348,2,105,8|0|0,0:0|0:0|0:0,0:0:0
88,244,13262,1,8,0:0:0
44,136,13531,1,0,0:0:0
132,60,13801,1,0,0:0:0
132,60,13890,1,0,0:0:0
132,60,13980,2,0,B|232:60,2,70,8|0|0,0:0|0:0|0:0,0:0:0
280,100,14699,6,0,B|332:72|384:104,1,105,4|0,0:0|0:0,0:0:0
328,204,15238,1,0,0:0:0
328,280,15417,2,0,B|296:304|244:312,1,70,8|0,0:0|0:0,0:0:0
186,308,15777,2,0,B|152:300|118:272,1,70
46,276,16136,2,0,B|48:224|92:192|132:204|132:204|180:151|180:151|148:65,1,280,8|8,0:0|0:0,0:0:0
364,44,17393,5,0,0:0:0
364,121,17573,2,0,B|396:180|360:228,1,105,4|0,0:0|0:0,0:0:0
260,176,18112,1,0,0:0:0
260,253,18292,2,0,B|292:312|256:360,1,105,8|0,0:0|0:0,0:0:0
160,300,18830,1,0,0:0:0
160,222,19010,5,8,0:0:0
214,167,19190,2,0,B|284:96,2,70
160,222,19729,1,8,0:0:0
105,167,19908,2,0,B|48:112,2,70
160,222,20447,5,4,0:0:0
241,303,20717,1,0,0:0:0
322,221,20986,1,0,0:0:0
322,143,21166,1,8,0:0:0
240,61,21435,1,0,0:0:0
158,142,21705,1,0,0:0:0
256,192,21884,12,0,22962,0:0:0
56,108,23322,5,4,0:0:0
160,56,23591,2,0,B|192:112|148:184,1,105
232,196,24040,1,8,0:0:0
336,148,24310,2,0,B|368:204|328:276,1,105
400,300,24759,2,0,B|384:320|344:344|280:308,1,105,8|0,0:0|0:0,0:0:0
188,319,25298,1,0,0:0:0
188,319,25387,1,0,0:0:0
188,319,25477,2,0,B|260:256,2,70,8|0|0,0:0|0:0|0:0,0:0:0
96,196,26196,6,0,B|72:140|100:84,1,105,4|0,0:0|0:0,0:0:0
200,144,26735,1,0,0:0:0
254,89,26914,2,0,B|292:72|336:88,1,70,8|0,0:0|0:0,0:0:0
400,96,27274,2,0,B|440:112|464:144,1,70
460,212,27633,2,0,B|468:264|416:320,1,105,8|0,0:0|0:0,0:0:0
344,224,28172,1,0,0:0:0
316,296,28351,2,0,B|244:256|268:192|296:152,1,140,8|0,0:0|0:0,0:0:0
344,224,28890,1,0,0:0:0
398,278,29070,6,0,B|472:352,2,105,4|0|0,0:0|0:0|0:0,0:0:0
344,224,29789,1,8,0:0:0
262,142,30058,1,0,0:0:0
180,223,30327,1,0,0:0:0
180,223,30507,5,8,0:0:0
102,223,30687,2,0,B|24:224,2,70
180,223,31226,1,8,0:0:0
256,223,31405,2,0,B|352:224,2,70
257,148,31944,5,4,0:0:0
338,66,32214,1,0,0:0:0
419,147,32483,1,0,0:0:0
419,224,32663,1,8,0:0:0
337,305,32932,1,0,0:0:0
255,223,33202,1,0,0:0:0
256,192,33381,12,4,34819,0:0:0
124,68,46316,6,0,B|48:68,2,70,0|0|8,0:0|0:0|0:0,0:0:0
200,68,46854,1,0,0:0:0
200,145,47034,2,0,B|128:145,2,70,0|0|8,0:0|0:0|0:0,0:0:0
277,145,47573,1,0,0:0:0
277,222,47753,6,0,B|186:222,2,70,0|0|8,0:0|0:0|0:0,0:0:0
354,222,48292,1,0,0:0:0
354,298,48471,2,0,B|278:298,1,70,0|0,0:0|0:0,0:0:0
208,296,48830,2,0,B|132:296,1,70,8|0,0:0|0:0,0:0:0
108,208,49190,6,0,B|44:272,2,70,0|0|8,0:0|0:0|0:0,0:0:0
162,153,49729,1,0,0:0:0
216,98,49908,2,0,B|280:32,2,70,0|0|8,0:0|0:0|0:0,0:0:0
162,153,50447,1,0,0:0:0
107,98,50627,6,0,B|48:40,2,70,0|0|8,0:0|0:0|0:0,0:0:0
162,153,51166,1,0,0:0:0
216,207,51345,2,0,B|272:264,2,70,0|0|8,0:0|0:0|0:0,0:0:0
162,153,51884,1,0,0:0:0
228,112,52064,6,0,B|328:112,1,70,0|0,0:0|0:0,0:0:0
376,112,52423,2,0,B|376:56,2,35,8|0|0,0:0|0:0|0:0,0:0:0
376,189,52783,2,8,B|376:284,1,70,0|0,0:0|0:0,0:0:0
376,336,53142,2,0,B|412:336,2,35,8|0|0,0:0|0:0|0:0,0:0:0
298,336,53501,6,0,B|210:336,1,70,0|0,0:0|0:0,0:0:0
150,336,53860,2,0,B|150:388,2,35,8|0|0,0:0|0:0|0:0,0:0:0
150,258,54220,2,0,B|150:158,1,70,0|0,0:0|0:0,0:0:0
150,110,54579,2,0,B|98:110,2,35,8|0|0,0:0|0:0|0:0,0:0:0
228,112,54938,6,0,B|228:64,4,35,0|0|0|0|8,0:0|0:0|0:0|0:0|0:0,0:0:0
228,189,55477,1,0,0:0:0
305,189,55657,2,0,B|349:189,4,35,0|0|0|0|8,0:0|0:0|0:0|0:0|0:0,0:0:0
305,266,56196,1,0,0:0:0
304,344,56375,6,0,B|304:384,4,35,0|0|0|0|8,0:0|0:0|0:0|0:0|0:0,0:0:0
226,344,56914,1,0,0:0:0
148,344,57094,2,0,B|96:344,4,35,0|0|0|0|8,0:0|0:0|0:0|0:0|0:0,0:0:0
148,344,57633,1,0,0:0:0
148,266,57813,5,12,0:0:0
66,184,58082,1,0,0:0:0
147,102,58351,1,0,0:0:0
224,102,58531,1,8,0:0:0
305,183,58801,1,0,0:0:0
223,264,59070,1,0,0:0:0
223,341,59250,6,0,B|340:344,1,105,8|0,0:0|0:0,0:0:0
416,268,59789,1,0,0:0:0
416,268,59878,1,0,0:0:0
416,268,59968,2,0,B|480:208,2,70,8|0|0,0:0|0:0|0:0,0:0:0
392,116,60687,6,0,B|264:116,1,105,12|0,0:0|0:0,0:0:0
180,76,61226,1,0,0:0:0
104,88,61405,2,0,B|56:108|36:148,1,70,8|0,0:0|0:0,0:0:0
48,206,61765,2,0,B|56:236|104:264,1,70
168,276,62124,6,0,B|288:276,1,105,8|0,0:0|0:0,0:0:0
273,276,62663,1,0,0:0:0
273,352,62842,2,0,B|336:348|352:296|348:248,1,140,8|0,0:0|0:0,0:0:0
273,276,63381,1,0,0:0:0
273,198,63561,6,0,B|232:180|212:144|224:84,2,105,12|0|0,0:0|0:0|0:0,0:0:0
300,124,64280,2,0,B|296:80|284:52|236:36,2,105,8|0|0,0:0|0:0|0:0,0:0:0
377,124,64998,6,0,B|377:36,2,70,8|0|0,0:0|0:0|0:0,0:0:0
431,178,65537,1,0,0:0:0
376,232,65717,2,0,B|376:316,2,70,8|0|0,0:0|0:0|0:0,0:0:0
321,177,66256,1,0,0:0:0
244,177,66435,5,12,0:0:0
162,95,66705,1,0,0:0:0
80,176,66974,1,0,0:0:0
80,253,67154,1,8,0:0:0
161,334,67423,1,0,0:0:0
242,252,67693,1,0,0:0:0
256,192,67872,12,0,68950,0:0:0
94,114,69310,5,12,0:0:0
175,195,69579,1,0,0:0:0
256,276,69848,1,0,0:0:0
256,276,70028,1,8,0:0:0
337,194,70298,1,0,0:0:0
418,112,70567,1,0,0:0:0
484,72,70747,6,0,B|456:36|412:24|364:52,1,105,8|0,0:0|0:0,0:0:0
275,40,71286,1,0,0:0:0
275,40,71375,1,0,0:0:0
275,40,71465,2,0,B|184:40,1,70,8|0,0:0|0:0,0:0:0
150,94,71825,1,0,0:0:0
164,248,72184,6,0,B|216:272|280:244,1,105,8|0,0:0|0:0,0:0:0
216,148,72723,1,0,0:0:0
292,128,72902,2,0,B|392:144,1,70,8|0,0:0|0:0,0:0:0
416,189,73262,2,0,B|504:208,1,70
464,272,73621,5,8,0:0:0
348,272,73890,1,0,0:0:0
260,348,74160,1,0,0:0:0
260,272,74339,2,0,B|260:212,4,35,8|0|0|0|0,0:0|0:0|0:0|0:0|0:0,0:0:0
182,272,74878,1,0,0:0:0
112,236,75058,5,12,0:0:0
196,156,75327,1,0,0:0:0
282,76,75597,1,0,0:0:0
282,76,75777,1,8,0:0:0
363,157,76046,1,0,0:0:0
444,238,76316,1,0,0:0:0
389,292,76495,6,0,B|297:292,1,70,8|0,0:0|0:0,0:0:0
241,292,76854,1,0,0:0:0
241,292,77034,1,0,0:0:0
163,292,77214,2,0,B|163:216,1,70,8|0,0:0|0:0,0:0:0
163,144,77573,1,0,0:0:0
163,144,77753,1,0,0:0:0
228,100,77932,6,0,B|260:76|292:76|332:104,2,105,12|0|0,0:0|0:0|0:0,0:0:0
276,160,78651,2,0,B|312:184|352:184|392:144,2,105,8|0|0,0:0|0:0|0:0,0:0:0
256,192,79369,12,0,80447,0:0:0
128,80,80807,6,0,B|204:80,2,70,4|0|8,0:0|0:0|0:0,0:0:0
128,232,81525,2,0,B|212:232,2,70,0|0|8,0:0|0:0|0:0,0:0:0
282,232,82244,2,0,B|368:232,2,70,0|0|8,0:0|0:0|0:0,0:0:0
282,232,82962,5,0,0:0:0
282,154,83142,1,0,0:0:0
282,76,83322,1,8,0:0:0
348,116,83501,1,0,0:0:0
424,116,83681,5,4,0:0:0
424,269,84040,1,8,0:0:0
424,116,84399,1,0,0:0:0
424,269,84759,1,8,0:0:0
268,328,85118,2,0,B|184:312|148:264|148:264|148:104,1,280,0|0,0:0|0:0,0:0:0
268,220,86196,6,0,B|268:132,1,70,8|0,0:0|0:0,0:0:0
268,72,86555,2,0,B|352:88|388:136|388:136|388:296,1,280,4|0,0:0|0:0,0:0:0
333,332,87453,1,0,0:0:0
260,304,87633,2,0,B|165:304,2,70,8|0|0,0:0|0:0|0:0,0:0:0
116,364,88351,2,0,B|80:308|96:268|128:224,1,140,8|0,0:0|0:0,0:0:0
132,76,89070,6,0,B|216:40,1,70,8|0,0:0|0:0,0:0:0
240,111,89429,1,4,0:0:0
393,98,89789,1,8,0:0:0
249,42,90148,1,0,0:0:0
353,155,90507,1,8,0:0:0
436,304,90866,6,0,B|416:336|344:336|312:300|312:300|152:300,1,280,0|0,0:0|0:0,0:0:0
170,145,91944,1,8,0:0:0
292,48,92304,6,0,B|292:120,2,70,4|0|8,0:0|0:0|0:0,0:0:0
400,156,93022,2,0,B|400:228,2,70,0|0|8,0:0|0:0|0:0,0:0:0
290,265,93741,2,0,B|290:361,2,70,0|0|8,0:0|0:0|0:0,0:0:0
290,265,94459,5,0,0:0:0
212,265,94639,1,0,0:0:0
134,265,94819,1,8,0:0:0
172,200,94998,1,0,0:0:0
172,122,95178,5,4,0:0:0
172,122,95357,1,0,0:0:0
172,122,95537,1,8,0:0:0
316,72,95896,1,0,0:0:0
316,72,96076,1,0,0:0:0
316,72,96256,1,8,0:0:0
464,36,96615,2,0,B|464:160|464:160|428:220|324:240,1,280,0|0,0:0|0:0,0:0:0
228,348,97693,6,0,B|140:348,1,70,8|0,0:0|0:0,0:0:0
80,348,98052,2,0,B|80:296|128:264|168:272|168:272|168:96,1,280,4|0,0:0|0:0,0:0:0
222,69,98950,1,0,0:0:0
299,69,99130,2,0,B|383:69,2,70,8|0|0,0:0|0:0|0:0,0:0:0
452,69,99848,2,0,B|484:109|484:160|440:220,1,140,8|0,0:0|0:0,0:0:0
420,352,100567,6,0,B|336:352,1,70,8|0,0:0|0:0,0:0:0
272,352,100926,1,4,0:0:0
162,242,101286,1,8,0:0:0
270,133,101645,1,0,0:0:0
378,241,102004,1,8,0:0:0
270,133,102363,5,8,0:0:0
154,133,102633,1,0,0:0:0
38,133,102902,2,0,B|38:209,1,70,0|8,0:0|0:0,0:0:0
136,324,103441,1,4,0:0:0
284,276,103801,6,0,B|372:276,1,70,0|0,0:0|0:0,0:0:0
408,221,104160,1,8,0:0:0
408,67,104519,2,0,B|328:67,1,70,0|0,0:0|0:0,0:0:0
283,121,104878,1,8,0:0:0
173,230,105238,6,0,B|136:256|120:284,2,70,0|0|8,0:0|0:0|0:0,0:0:0
173,230,105956,1,0,0:0:0
227,175,106136,1,0,0:0:0
304,175,106316,1,8,0:0:0
380,175,106495,1,0,0:0:0
380,252,106675,5,4,0:0:0
380,98,107034,1,8,0:0:0
226,98,107393,1,0,0:0:0
226,252,107753,1,8,0:0:0
72,252,108112,2,0,B|72:84,1,140,0|8,0:0|0:0,0:0:0
126,57,108651,1,0,0:0:0
126,57,108830,1,0,0:0:0
224,176,109190,6,0,B|292:108,1,70,8|0,0:0|0:0,0:0:0
288,52,109549,2,0,B|340:68|356:108|342:163|342:163|308:212|320:264|356:304,1,280,4|0,0:0|0:0,0:0:0
421,303,110447,1,0,0:0:0
420,224,110627,2,0,B|420:132,2,70,8|0|0,0:0|0:0|0:0,0:0:0
488,88,111345,2,0,B|436:60|396:60|328:96,1,140,8|0,0:0|0:0,0:0:0
200,56,112064,6,0,B|136:120,1,70,8|0,0:0|0:0,0:0:0
95,160,112423,1,4,0:0:0
204,269,112783,1,8,0:0:0
312,160,113142,1,0,0:0:0
204,269,113501,1,8,0:0:0
352,232,113860,2,0,B|400:200|400:132|392:80|392:80|260:80,1,280,0|0,0:0|0:0,0:0:0
122,80,114938,1,8,0:0:0
116,236,115298,6,0,B|48:168,2,70,4|0|8,0:0|0:0|0:0,0:0:0
268,236,116016,2,0,B|332:172,2,70,0|0|8,0:0|0:0|0:0,0:0:0
192,100,116735,2,0,B|192:170,2,70,0|0|8,0:0|0:0|0:0,0:0:0
192,100,117453,5,0,0:0:0
251,40,117633,1,0,0:0:0
305,94,117813,1,8,0:0:0
381,94,117992,1,0,0:0:0
435,148,118172,5,4,0:0:0
326,256,118531,1,8,0:0:0
172,256,118890,1,0,0:0:0
62,146,119250,1,8,0:0:0
215,146,119609,2,0,B|135:146,2,70,0|0|8,0:0|0:0|0:0,0:0:0
215,146,120327,1,0,0:0:0
348,68,120687,6,0,B|416:136,1,70,8|0,0:0|0:0,0:0:0
474,117,121046,2,0,B|494:157|454:237|454:237|294:237,1,280,4|0,0:0|0:0,0:0:0
220,236,121944,1,0,0:0:0
165,181,122124,2,0,B|104:120,2,70,8|0|0,0:0|0:0|0:0,0:0:0
56,72,122842,1,8,0:0:0
56,72,123022,1,0,0:0:0
56,72,123202,1,0,0:0:0
208,40,123561,6,0,B|284:40,1,70,8|0,0:0|0:0,0:0:0
355,40,123920,1,4,0:0:0
416,184,124280,1,8,0:0:0
264,164,124639,1,0,0:0:0
324,308,124998,1,8,0:0:0
172,292,125357,6,0,B|124:256|104:192,2,105,0|8|0,0:0|0:0|0:0,0:0:0
172,292,126076,1,0,0:0:0
264,168,126435,1,12,0:0:0
324,308,126795,5,4,0:0:0
