osu file format v8

[General]
AudioFilename: 08 Magus Night.mp3
AudioLeadIn: 0
PreviewTime: 23042
Countdown: 1
SampleSet: Soft
StackLeniency: 0.7
Mode: 0
LetterboxInBreaks: 1

[Editor]
Bookmarks: 48,11545,23042,34539,40287,46036,51784,57533,69030,80527,103521,126515
DistanceSpacing: 1
BeatDivisor: 2
GridSize: 8

[Metadata]
Title:Magus Night
Artist:ZUN
Creator:MeonS
Version:Normal+
Source:Touhou
Tags:12.8 Great Fairy Wars Marisa Kirisame 0989596108

[Difficulty]
HPDrainRate:3
CircleSize:3
OverallDifficulty:3
ApproachRate:4
SliderMultiplier:1.2
SliderTickRate:1

[Events]
//Background and Video events
0,0,"marisa-1.jpg"
//Break Periods
2,34019,44716
//Storyboard Layer 0 (Background)
//Storyboard Layer 1 (Fail)
//Storyboard Layer 2 (Pass)
//Storyboard Layer 3 (Foreground)
//Storyboard Sound Samples
//Background Colour Transformations
3,100,163,162,255

[TimingPoints]
48,359.281437125748,4,2,0,100,1,0
22952,-100,4,1,0,70,0,0
46036,-100,4,2,0,100,0,0
57533,-100,4,1,0,70,0,0
103521,-100,4,1,0,70,0,1
114206,-100,4,1,0,70,0,0
114299,-100,4,1,0,70,0,1
125703,-100,4,1,0,70,0,0
125796,-100,4,1,0,70,0,1
125886,-100,4,1,0,70,0,0

[Colours]
Combo1 : 223,215,60
Combo2 : 36,255,69
Combo3 : 45,182,255
Combo4 : 243,154,241
Combo5 : 255,2,66

[HitObjects]
80,56,11545,2,0,B|184:104,1,90
248,128,12083,1,8
248,192,12263,2,0,B|144:232,1,90
80,264,12802,1,8
80,328,12982,2,0,B|184:328,1,90
264,328,13521,2,0,B|352:328,3,60,8|0|0|4
264,224,14419,6,0,B|360:224,1,90
352,136,14958,2,0,B|408:136,2,30,2|0|2
232,136,15497,1,2
112,136,15856,1,8
112,136,16574,1,8
112,312,17113,5,0
112,312,17293,2,0,B|112:208,1,90,4|0
200,224,17832,1,8
200,224,18012,2,0,B|200:328,1,90
288,312,18550,2,0,B|288:232,3,60,4|0|0|0
344,240,19269,1,8
384,192,19449,1,0
400,136,19628,1,0
384,80,19808,1,0
264,64,20167,5,0
264,64,20347,2,0,B|264:112,1,30
176,64,20706,1,8
176,64,20886,2,0,B|176:160,1,90
176,248,21425,1,8
176,248,21604,2,0,B|112:248,4,60
400,288,23042,6,0,B|296:288,2,90,0|0|2
400,224,23760,2,0,B|296:224,2,90,0|0|2
400,160,24479,2,0,B|296:160,2,90,0|0|2
400,96,25197,1,0
336,96,25377,1,0
280,96,25556,1,2
160,96,25916,6,0,B|72:168,1,90
168,192,26455,1,2
168,192,26634,1,0
232,192,26814,1,0
232,192,26994,1,0
288,192,27173,1,2
288,192,27353,1,0
376,192,27622,2,0,B|376:296,1,90,0|0
376,282,28071,1,0
136,288,28610,5,0
136,224,28790,2,0,B|136:104,2,90,4|0|8
200,224,29509,2,0,B|200:120,2,90,0|0|8
264,224,30227,1,0
384,224,30586,1,8
264,224,30946,1,0
384,224,31305,1,8
384,104,31664,2,0,B|272:104,2,90,0|0|8
448,104,32383,2,0,B|448:208,2,90,0|0|8
384,104,33101,2,0,B|336:104,8,30,0|0|0|0|0|0|0|0|4
176,192,46036,6,0,B|176:168|200:144|224:144,6,60
256,272,47473,2,0,B|232:272|208:248|208:224,6,60,2|0|2|0|2|0|2
344,192,48910,6,0,B|344:216|320:240|296:240,6,60
256,104,50347,2,0,B|280:104|304:128|304:152,6,60,2|0|2|0|2|0|2
176,192,51784,5,0
176,192,52143,1,2
256,104,52503,1,0
256,104,52862,1,2
344,192,53221,1,0
344,192,53580,1,2
256,272,53940,1,0
256,272,54299,1,2
192,136,54658,5,2
192,136,55018,1,2
312,136,55377,1,2
312,136,55736,1,2
312,256,56095,1,2
312,256,56455,1,2
192,256,56814,1,2
192,256,57173,1,2
88,192,57533,6,0,B|88:96,2,90,0|8|0
152,192,58251,2,0,B|152:296,2,90,0|8|0
216,192,58970,2,0,B|320:192,1,90,0|8
400,192,59509,2,0,B|488:192,3,60,0|8|8|8
400,88,60407,5,0
400,88,60676,1,8
312,88,60946,2,0,B|256:88,2,30
312,152,61305,1,0
248,152,61485,1,8
128,152,61844,1,0
128,152,62113,1,0
192,88,62383,2,0,B|192:56,2,30
360,152,63101,5,0
424,152,63281,1,4
424,152,63550,1,2
424,240,63820,1,2
360,240,64000,1,0
360,240,64269,1,2
296,304,64539,5,2
264,256,64718,2,0,B|176:256,2,60
240,200,65257,2,0,B|152:200,2,60
216,144,65796,2,0,B|296:144,2,60
456,144,66874,1,0
216,144,67592,2,0,B|256:144,8,30,0|0|0|0|0|0|0|0|4
112,288,69030,6,0,B|216:288,2,90,0|8|0
112,224,69748,2,0,B|216:224,2,90,0|8|0
112,160,70467,2,0,B|216:160,2,90,0|8|0
112,96,71185,1,0
176,96,71365,1,0
232,96,71544,1,8
352,96,71904,6,0,B|440:168,1,90,0|8
344,192,72443,1,0
344,192,72622,1,0
280,192,72802,1,0
280,192,72982,1,8
224,192,73161,1,0
224,192,73341,1,0
136,192,73610,2,0,B|136:296,1,90
136,282,74059,1,4
376,288,74598,5,0
376,224,74778,2,0,B|376:104,2,90,0|8|0
312,224,75497,2,0,B|312:120,2,90,0|8|0
248,224,76215,1,0
128,224,76574,1,2
248,224,76934,1,0
128,224,77293,1,2
128,104,77652,2,0,B|240:104,2,90,0|8|0
64,104,78371,2,0,B|64:208,2,90,0|8|0
128,104,79089,2,0,B|176:104,8,30,0|0|0|0|0|0|0|0|6
352,192,80527,5,0
112,192,81245,1,0
352,192,81964,1,0
56,160,82862,2,0,B|56:224,3,60
152,152,83760,5,8
240,232,84119,1,0
328,152,84479,1,8
416,232,84838,1,0
416,232,85377,2,0,B|328:232,1,60,0|8
416,128,85916,2,0,B|328:128,2,60,0|0|6
120,64,87173,5,0
120,128,87353,1,8
120,64,87533,1,0
120,128,87712,2,8,B|192:208,1,90,8|12
448,224,88790,6,0,B|448:160,2,60,0|0|8
336,192,89509,1,0
216,192,89868,1,8
96,192,90227,1,0
96,192,90586,2,0,B|168:192,4,60,0|0|0|0|6
80,80,92024,5,0
112,320,92742,1,0
152,80,93461,1,0
448,80,94359,2,0,B|376:80,2,60
448,144,94898,2,0,B|312:144,3,120,0|8|0|8
328,144,96335,1,8
328,144,96874,2,0,B|240:144,1,60,0|8
328,248,97413,5,0
384,248,97592,1,0
328,248,97772,1,0
32,248,98670,2,0,B|32:328,2,60
32,248,99209,1,0
120,248,99479,2,0,B|176:248,1,30
368,96,100287,6,0,B|304:96,2,60,0|0|4
368,216,101006,1,2
368,96,101365,1,0
368,216,101724,1,2
264,152,102083,1,8
264,152,102353,1,8
176,152,102622,2,0,B|128:152,2,30,0|0|2
416,152,103521,5,0
416,152,104239,1,0
416,152,104958,1,0
120,160,105856,2,0,B|120:224,1,60,0|8
184,216,106215,1,8
184,272,106395,2,0,B|328:272,4,120,0|2|0|2|2
184,88,108371,1,0
240,88,108550,1,10
344,152,108910,6,0,B|424:152,2,60,0|0|6
104,328,110167,1,0
80,272,110347,1,2
80,208,110527,1,0
104,152,110706,2,2,B|224:152,2,90,0|0|6
288,152,111784,5,0
352,152,111964,1,0
288,152,112143,1,2
168,152,112503,1,0
168,272,112862,1,2
288,272,113221,1,0
288,152,113580,2,0,B|328:152,8,30,0|0|0|0|0|0|0|0|2
152,80,115018,6,0,B|112:136|112:280|168:320,2,240
448,80,117353,2,0,B|376:80,2,60,0|8|8
448,144,117892,2,0,B|312:144,3,120,0|2|0|2
328,144,119329,1,2
328,144,119868,2,0,B|240:144,1,60,0|10
328,248,120407,5,0
384,248,120586,1,0
448,248,120766,1,4
152,248,121664,2,0,B|152:328,2,60
152,248,122203,1,0
240,248,122473,2,0,B|296:248,1,30,0|4
64,192,123281,6,0,B|64:256,2,60,0|0|2
176,152,124000,1,0
264,232,124359,1,2
352,152,124718,1,0
440,232,125077,1,10
440,144,125347,1,8
440,144,125616,2,0,B|440:96,2,30,0|0|6
