osu file format v8

[General]
AudioFilename: 08 Magus Night.mp3
AudioLeadIn: 0
PreviewTime: 23042
Countdown: 1
SampleSet: Soft
StackLeniency: 0.7
Mode: 0
LetterboxInBreaks: 1

[Editor]
Bookmarks: 48,11545,23042,34539,40287,46036,51784,57533,69030,80527,103521,126515
DistanceSpacing: 1
BeatDivisor: 4
GridSize: 8

[Metadata]
Title:Magus Night
Artist:ZUN
Creator:MeonS
Version:Lunatic
Source:Touhou
Tags:12.8 Great Fairy Wars Marisa Kirisame 0989596108

[Difficulty]
HPDrainRate:7
CircleSize:4
OverallDifficulty:8
ApproachRate:8
SliderMultiplier:2.2
SliderTickRate:1

[Events]
//Background and Video events
0,0,"marisa-1.jpg"
//Break Periods
2,34019,38818
//Storyboard Layer 0 (Background)
//Storyboard Layer 1 (Fail)
//Storyboard Layer 2 (Pass)
//Storyboard Layer 3 (Foreground)
//Storyboard Sound Samples
//Background Colour Transformations
3,100,163,162,255

[TimingPoints]
48,359.281437125748,4,2,0,100,1,0
22952,-100,4,1,0,70,0,0
46036,-100,4,2,0,100,0,0
57533,-100,4,1,0,70,0,0
103521,-100,4,1,0,70,0,1
114206,-100,4,1,0,70,0,0
114299,-100,4,1,0,70,0,1
125703,-100,4,1,0,70,0,0
125796,-100,4,1,0,70,0,1
125886,-100,4,1,0,70,0,0

[Colours]
Combo1 : 223,215,60
Combo2 : 36,255,69
Combo3 : 45,182,255
Combo4 : 243,154,241
Combo5 : 255,2,66

[HitObjects]
152,64,11545,1,0
152,128,11814,1,0
152,192,12083,1,8
256,320,12263,1,0
256,256,12533,1,0
256,192,12802,1,8
424,192,12982,1,0
256,192,13251,1,0
256,128,13521,6,0,B|256:72,2,55,8|0|0
200,224,13880,1,2
312,224,14059,1,2
64,104,14419,2,0,B|96:136|96:216|56:264,2,165,0|0|2
112,72,15047,1,2
152,104,15137,5,2
312,48,15317,1,2
376,200,15497,1,0
224,264,15676,1,2
264,160,15856,1,0
264,160,16485,2,0,B|248:128,2,27.5,0|0|4
104,144,17113,5,0
104,312,17293,1,4
104,64,17562,1,0
392,232,17832,5,8
392,64,18012,1,0
392,312,18281,1,0
168,64,18550,6,4,B|280:64,1,110
200,160,18910,1,0
288,232,19089,1,0
200,296,19269,1,8
248,328,19359,1,0
296,296,19449,1,0
336,192,19628,1,8
224,192,19808,1,0
336,192,19988,1,8
400,280,20167,5,0
416,168,20347,2,0,B|368:112,1,55,0|8
232,48,20706,1,0
136,96,20886,1,0
200,184,21065,2,0,B|216:256,1,55,0|8
48,208,21425,5,0
48,208,21604,1,0
96,176,21694,1,0
136,208,21784,1,0
184,176,21874,1,0
232,208,21964,1,0
280,184,22053,1,0
328,208,22143,1,0
376,176,22233,2,0,B|424:208,1,55,0|6
416,160,23042,6,0,B|368:128|272:128|240:176,2,165,0|0|2
168,224,23760,2,0,B|216:256|312:256|344:208,2,165,0|0|2
256,160,24479,2,0,B|208:128|112:128|80:176,1,165
256,160,25018,1,2
296,200,25107,1,0
256,240,25197,1,0
200,336,25377,1,0
312,336,25556,1,0
448,104,25916,2,0,B|416:136|416:216|456:264,2,165,0|0|2
400,72,26544,1,2
352,104,26634,5,2
200,48,26814,1,0
136,200,26994,1,0
288,264,27173,1,2
248,152,27353,6,0,B|192:264,2,110
248,152,27892,1,0
248,152,27982,1,0
248,152,28071,1,0
408,144,28610,5,0
408,312,28790,2,0,B|408:144,1,165,0|8
120,232,29329,5,0
120,64,29509,2,0,B|120:232,1,165,0|8
312,64,30048,6,0,B|192:64,1,110
200,176,30407,1,0
312,176,30586,1,8
296,288,30766,1,0
256,328,30856,1,0
216,288,30946,1,0
200,176,31125,1,0
312,176,31305,1,8
200,176,31485,1,0
120,256,31664,5,0
72,152,31844,1,0
72,152,31934,1,8
200,48,32203,1,0
296,104,32383,1,0
400,64,32562,1,0
400,64,32652,1,8
456,216,32922,5,0
456,216,33101,1,0
408,184,33191,1,0
368,216,33281,1,0
320,184,33371,1,0
272,216,33461,1,0
224,192,33550,1,0
176,216,33640,1,0
128,184,33730,2,0,B|88:184,2,27.5,0|0|4
440,112,39568,5,10
112,112,40107,1,10
112,112,41185,1,10
400,280,41724,1,10
400,280,42353,2,6,B|352:280,2,27.5
72,280,42982,5,10
72,280,44059,1,10
296,280,44419,1,10
184,280,44598,1,10
96,144,44868,1,10
256,192,45137,12,4,45856
112,160,46036,6,0,B|121:121|157:90|197:88,1,110
255,81,46395,2,2,B|245:119|209:150|169:152,1,110
396,159,46754,6,0,B|386:120|350:89|310:87,1,110
252,80,47113,2,2,B|261:118|297:149|337:151,1,110
112,224,47473,6,0,B|121:262|157:293|197:295,1,110
255,303,47832,2,2,B|245:264|209:233|169:231,1,110
396,225,48191,6,0,B|386:263|350:294|310:296,1,110
252,304,48550,2,2,B|261:265|297:234|337:232,1,110
352,208,48820,1,2
376,184,48910,6,2,B|366:145|330:114|290:112,1,110
304,176,49269,2,2,B|294:214|258:245|218:247,1,110
192,248,49539,1,2
160,256,49628,6,2,B|150:217|114:186|74:184,1,110
96,248,49988,2,2,B|105:209|141:178|181:176,1,110
200,160,50257,1,2
224,136,50347,6,2,B|214:97|178:66|138:64,1,110
152,128,50706,2,2,B|161:166|197:197|237:199,1,110
264,200,50976,1,2
296,184,51065,6,2,B|286:222|250:253|210:255,1,110
288,256,51425,2,2,B|327:247|370:268|389:303,1,110
416,312,51694,1,2
448,328,51784,5,4
256,56,52143,1,10
80,336,52503,1,2
368,176,52862,1,10
48,96,53221,1,2
280,336,53580,1,10
232,8,53940,1,2
64,288,54299,1,10
224,336,54479,1,2
224,336,54568,1,2
224,336,54658,5,6
256,176,54838,1,2
288,336,55018,1,10
464,160,55377,1,2
304,192,55556,1,2
464,224,55736,1,10
224,48,56095,1,2
256,208,56275,1,2
288,48,56455,1,10
48,224,56814,1,10
208,192,56994,1,10
48,160,57173,1,10
416,272,57533,6,0,B|384:224|384:128|432:96,1,165,0|8
416,120,58071,1,0
248,120,58251,2,0,B|280:168|280:264|232:296,1,165,0|8
251,278,58790,1,0
88,280,58970,2,0,B|56:232|56:136|104:104,1,165,0|8
312,232,59509,1,0
352,192,59598,1,0
312,152,59688,1,8
152,112,59868,1,0
152,280,60047,1,8
328,32,60407,2,0,B|296:64|216:64|168:24,2,165
360,80,61035,1,0
328,120,61125,5,8
328,120,61305,1,0
160,120,61485,1,0
160,120,61664,1,8
72,256,61844,2,0,B|120:192|240:208,1,165
224,208,62383,2,0,B|288:208,2,55,8|0|4
304,40,63101,5,0
136,40,63281,1,0
384,40,63550,1,2
216,328,63820,5,2
384,328,64000,1,0
136,328,64269,1,2
384,104,64539,6,0,B|384:168,2,55
280,136,64898,1,0
216,224,65077,1,0
56,192,65257,2,0,B|120:192,2,55
152,240,65616,1,0
152,128,65796,1,0
152,240,65976,1,0
64,304,66155,5,0
168,336,66335,2,0,B|240:304,1,55
376,272,66694,1,0
424,176,66874,1,0
336,112,67053,2,0,B|400:80,1,55
224,48,67413,5,0
224,48,67592,1,0
264,88,67682,1,0
224,120,67772,1,0
264,160,67862,1,0
224,200,67952,1,0
264,240,68041,1,0
224,280,68131,1,0
264,320,68221,2,0,B|264:360,2,27.5,0|0|4
224,320,69030,6,0,B|192:272|192:176|240:144,2,165,0|8|0
288,72,69748,2,0,B|320:120|320:216|272:248,2,165,0|8|0
224,160,70467,2,0,B|192:112|192:16|240:-16,1,165,0|8
216,168,71006,1,0
256,208,71095,1,0
296,168,71185,1,0
400,216,71365,1,0
400,104,71544,1,8
168,352,71904,2,0,B|200:320|280:320|328:360,2,165,8|0|8
136,304,72532,1,0
168,264,72622,5,2
320,192,72802,1,0
168,264,72982,1,2
320,192,73161,1,0
256,104,73341,2,0,B|288:72|368:72|416:112,2,165,2|0|2
256,104,73970,1,0
256,104,74059,1,2
256,344,74598,6,0,B|392:344,1,110,0|0
120,344,75047,1,8
256,40,75317,6,0,B|112:40,1,110,0|0
392,40,75766,1,8
128,280,76036,6,0,B|128:200,2,55
224,248,76395,1,0
296,160,76574,1,2
360,248,76754,1,0
392,200,76844,1,0
360,152,76934,1,0
256,112,77113,1,0
256,224,77293,1,2
256,112,77473,1,0
352,64,77652,5,0
232,24,77832,1,0
232,24,77922,1,8
128,152,78191,1,0
176,256,78371,1,0
128,352,78550,1,0
128,352,78640,1,8
296,344,78910,5,0
296,344,79089,1,0
264,296,79179,1,0
296,256,79269,1,0
264,208,79359,1,0
296,160,79449,1,0
272,112,79538,1,0
296,64,79628,1,0
248,40,79718,2,0,B|248:0,2,27.5,0|0|6
40,192,80527,5,0
104,192,81245,1,0
168,192,81964,1,0
64,112,82862,5,0
120,272,83042,1,0
168,112,83221,1,0
224,272,83401,1,0
392,192,83760,5,8
176,192,84119,1,0
392,192,84479,1,8
176,192,84838,1,0
176,192,85377,1,0
176,192,85556,1,8
376,288,85916,5,0
432,192,86095,1,0
376,96,86275,2,0,B|344:72|256:72|144:80,2,220,6|0|6
320,192,87173,1,8
432,192,87353,1,0
376,288,87533,1,8
264,288,87712,2,0,B|168:304|128:168|144:152,1,165
145,194,88071,1,8
216,192,88790,5,0
216,192,88970,1,0
48,192,89149,1,0
360,80,89509,1,2
120,312,89868,1,0
400,136,90227,1,2
88,248,90586,1,0
104,200,90676,1,0
160,184,90766,1,0
192,144,90856,1,0
248,144,90946,1,0
272,96,91036,1,0
328,104,91125,1,0
384,96,91215,2,0,B|432:96,2,27.5,0|0|6
440,192,92024,6,0,B|400:112|240:128|184:240|16:192,2,440
448,112,94359,5,0
376,264,94539,1,0
304,112,94718,1,0
240,264,94898,1,0
120,192,95257,5,8
336,192,95616,1,0
120,192,95976,1,8
336,192,96335,2,0,B|280:192,5,55
224,192,96874,1,0
224,192,97053,1,0
136,288,97413,5,0
80,192,97592,1,0
136,96,97772,2,0,B|168:72|256:72|368:80,1,220
192,192,98670,1,0
80,192,98850,1,0
136,288,99030,1,0
248,288,99209,2,0,B|344:304|384:168|368:152,1,165
367,194,99568,1,0
296,192,100287,5,0
296,192,100467,1,0
464,192,100646,1,0
152,80,101006,1,0
392,312,101365,1,0
112,136,101724,1,0
424,248,102083,1,0
352,160,102263,1,0
304,128,102353,1,0
200,88,102533,1,0
152,104,102622,1,0
104,128,102712,2,0,B|64:160,2,27.5,0|0|6
104,40,103161,5,0
160,40,103251,1,0
216,56,103341,1,0
264,88,103431,1,0
288,136,103521,2,0,B|328:96,4,55
72,192,104239,2,0,B|-16:192,4,55
280,264,104958,2,0,B|336:304,3,55
224,264,105317,2,0,B|280:304,3,55
168,264,105676,1,0
64,272,105856,5,0
144,112,106036,1,8
224,272,106215,1,8
224,272,106395,2,0,B|224:152,1,110
296,80,106754,1,2
400,272,107113,1,0
296,80,107473,1,2
80,80,107832,1,0
80,80,108371,1,0
80,80,108550,1,2
376,96,108910,5,0
432,192,109089,1,0
376,288,109269,2,0,B|344:312|256:312|144:304,2,220,6|0|0
320,192,110167,2,0,B|464:192,1,110,0|2
376,96,110527,1,0
264,96,110706,2,0,B|168:80|128:216|144:232,1,165,2|0
145,189,111065,2,0,B|120:248|152:304,2,110,2|0|4
216,192,111784,5,0
216,192,111964,1,0
48,192,112143,1,2
360,304,112503,1,0
120,72,112862,1,2
400,248,113221,1,0
88,136,113580,2,0,B|168:216,1,110,2|0
208,176,113850,2,0,B|296:264,1,110,2|0
328,216,114119,1,2
360,176,114209,2,0,B|392:136,2,27.5,0|0|6
472,192,115018,5,0
408,192,115736,1,0
344,192,116455,1,0
72,192,117353,5,0
240,192,117533,1,8
408,192,117712,1,8
240,192,117892,1,0
40,288,118251,5,2
240,192,118610,1,0
40,96,118970,1,2
256,96,119329,2,2,B|368:96,2,110
256,96,119868,1,0
368,96,120047,1,2
136,96,120407,5,0
80,192,120586,1,0
136,288,120766,2,0,B|264:288,4,110,6|0|0|0|0
192,192,121664,1,2
80,192,121844,1,0
136,96,122024,1,2
248,96,122203,2,0,B|344:80|384:216|368:232,1,165
367,190,122562,1,2
368,304,122742,1,0
367,190,122922,1,2
296,192,123281,5,0
296,192,123461,1,0
464,192,123640,1,2
152,304,124000,1,0
392,72,124359,1,2
112,248,124718,1,0
424,136,125077,1,2
352,224,125257,1,0
304,256,125347,1,8
200,296,125527,1,0
152,280,125616,1,8
104,256,125706,2,0,B|64:224,2,27.5,0|0|6
