osu file format v8

[General]
AudioFilename: 08 Magus Night.mp3
AudioLeadIn: 0
PreviewTime: 23042
Countdown: 1
SampleSet: Normal
StackLeniency: 0.7
Mode: 0
LetterboxInBreaks: 1

[Editor]
Bookmarks: 48,11545,23042,34539,40287,46036,51784,57533,69030,80527,103521,126515
DistanceSpacing: 1
BeatDivisor: 4
GridSize: 8

[Metadata]
Title:Magus Night
Artist:ZUN
Creator:MeonS
Version:Hard
Source:Touhou
Tags:12.8 Great Fairy Wars Marisa Kirisame 0989596108

[Difficulty]
HPDrainRate:5
CircleSize:4
OverallDifficulty:5
ApproachRate:5
SliderMultiplier:1.6
SliderTickRate:1

[Events]
//Background and Video events
0,0,"marisa-1.jpg"
//Break Periods
2,34019,38368
//Storyboard Layer 0 (Background)
//Storyboard Layer 1 (Fail)
//Storyboard Layer 2 (Pass)
//Storyboard Layer 3 (Foreground)
//Storyboard Sound Samples
//Background Colour Transformations
3,100,163,162,255

[TimingPoints]
48,359.281437125748,4,2,0,100,1,0
22952,-100,4,1,0,70,0,0
46036,-100,4,2,0,100,0,0
57533,-100,4,1,0,70,0,0
103521,-100,4,1,0,70,0,1
114206,-100,4,1,0,70,0,0
114299,-100,4,1,0,70,0,1
125703,-100,4,1,0,70,0,0
125796,-100,4,1,0,70,0,1
125886,-100,4,1,0,70,0,0

[Colours]
Combo1 : 223,215,60
Combo2 : 36,255,69
Combo3 : 45,182,255
Combo4 : 243,154,241
Combo5 : 255,2,66

[HitObjects]
80,112,11545,2,0,B|208:112,2,120,0|0|8
80,192,12263,2,0,B|208:192,2,120,0|0|8
80,272,12982,2,0,B|208:272,1,120
320,272,13521,2,0,B|376:272,2,40,8|0|0
400,272,13880,1,2
480,272,14059,1,2
432,112,14419,6,0,B|304:112,1,120,0|0
192,112,14958,2,0,B|192:64,2,40,2|2|2
192,200,15317,1,2
192,288,15497,1,0
272,288,15676,1,2
352,288,15856,2,0,B|408:288|448:240|448:184,2,120,0|2|8
352,208,16574,1,8
72,240,17113,5,0
152,240,17293,1,4
112,128,17562,1,0
232,128,17832,5,8
312,128,18012,1,0
272,240,18281,1,0
160,192,18550,6,4,B|264:192,1,80
320,192,18910,1,0
384,144,19089,1,0
432,208,19269,1,8
368,256,19449,1,0
320,192,19628,1,0
384,144,19808,1,0
432,208,19988,1,0
432,288,20167,5,0
432,288,20437,1,0
320,328,20706,1,8
256,288,20886,1,0
256,288,21155,1,0
136,288,21425,1,8
136,208,21604,2,0,B|136:128,8,40,0|0|0|0|0|0|0|0|4
488,256,23042,6,0,B|360:256,1,120
368,256,23580,1,2
416,192,23760,2,0,B|288:192,1,120
296,192,24299,1,2
344,128,24479,2,0,B|216:128,1,120
104,128,25018,2,2,B|104:184,2,40
104,128,25377,1,0
104,128,25556,1,0
104,288,25916,6,0,B|240:288,1,120
344,288,26455,2,0,B|400:288,2,40,2|0|0
312,216,26814,1,0
376,160,26994,1,0
312,104,27173,1,2
232,104,27353,1,0
232,104,27622,1,0
232,224,27892,2,0,B|288:224,2,40
32,112,28610,5,0
104,80,28790,1,0
224,56,29059,1,8
224,56,29329,1,0
304,56,29509,1,0
304,56,29778,1,8
408,120,30047,2,0,B|408:200,2,40
408,120,30407,1,0
336,160,30586,1,8
256,160,30766,2,0,B|256:208,2,40
256,160,31125,1,0
176,160,31305,1,8
104,120,31485,1,0
104,200,31664,6,0,B|104:328,1,120
104,320,32203,1,8
160,264,32383,2,0,B|296:264,1,120
280,264,32922,1,8
360,264,33101,2,0,B|408:264,8,40,0|0|0|0|0|0|0|0|4
312,120,39568,5,10
72,120,40107,1,10
72,120,41185,1,10
224,304,41724,1,10
384,120,42263,2,6,B|336:120,4,27.5
184,192,42982,5,10
184,192,44059,2,10,B|352:192,1,160
256,192,44598,12,6,45317
56,104,46036,6,0,B|136:80,1,80
132,81,46395,2,2,B|224:112,1,80
208,106,46754,2,0,B|288:80,1,80
284,81,47113,2,2,B|384:112,1,80
360,184,47473,6,0,B|280:208,1,80
284,207,47832,2,2,B|192:176,1,80
208,182,48191,2,0,B|128:208,1,80
132,207,48550,1,2
132,207,48730,2,0,B|80:208,2,40
128,288,49089,6,2,B|216:288,1,80
208,288,49449,1,0
208,208,49628,2,2,B|104:208,2,80
208,208,50167,1,0
208,128,50347,2,2,B|104:128,2,80
208,128,50886,1,0
288,128,51065,2,2,B|392:128,2,80
288,128,51604,1,0
328,56,51784,5,2
416,192,52143,1,8
336,328,52503,1,2
176,328,52862,1,8
88,192,53221,1,2
176,56,53580,1,8
336,56,53940,1,2
416,192,54299,1,8
256,192,54658,5,2
336,192,54838,1,2
256,192,55018,1,8
184,152,55377,5,2
120,104,55557,1,2
184,152,55737,1,8
184,232,56095,5,2
120,280,56275,1,2
184,232,56455,1,8
256,192,56814,5,8
184,152,56994,1,8
184,232,57173,1,8
424,152,57533,6,0,B|296:152,2,120,0|8|0
424,232,58251,2,0,B|296:232,2,120,0|8|0
424,312,58970,2,0,B|296:312,1,120,0|8
184,312,59509,2,0,B|128:312,2,40,0|0|8
184,232,59868,1,8
272,232,60047,1,8
72,152,60407,6,0,B|200:152,1,120,0|8
312,152,60946,2,0,B|312:104,2,40
312,224,61305,1,0
312,304,61485,1,8
232,304,61664,1,0
152,304,61844,2,0,B|96:304|56:256|56:200,2,120
152,224,62562,1,8
432,280,63101,5,0
352,280,63281,1,0
392,168,63550,1,2
272,168,63820,5,2
192,168,64000,1,0
232,280,64269,1,2
344,232,64538,6,0,B|240:232,1,80,2|0
184,232,64898,1,0
120,184,65077,1,0
72,248,65257,2,0,B|8:248,2,40
136,288,65616,1,0
184,232,65796,1,0
120,184,65976,1,0
120,104,66155,5,0
120,104,66425,1,0
232,64,66694,1,0
296,104,66874,1,0
296,104,67143,1,0
416,104,67413,1,0
416,184,67592,2,0,B|416:264,8,40,0|0|0|0|0|0|0|0|4
48,104,69030,6,0,B|176:104,1,120,0|8
168,104,69568,1,0
120,168,69748,2,0,B|248:168,1,120,0|8
240,168,70287,1,0
192,232,70467,2,0,B|320:232,1,120,0|8
432,232,71006,2,0,B|432:176,2,40
432,232,71365,1,0
432,232,71544,1,8
328,112,71904,6,0,B|192:112,1,120,0|8
88,112,72443,2,0,B|32:112,2,40,0|0|2
120,184,72802,1,0
64,240,72982,1,0
120,296,73161,1,2
200,296,73341,1,0
200,296,73610,1,0
200,176,73880,2,0,B|144:176,2,40,0|0|6
472,264,74598,5,0
400,296,74778,1,0
280,320,75047,1,8
280,320,75317,1,0
200,320,75497,1,0
200,320,75766,1,8
96,256,76035,2,0,B|96:176,2,40
96,256,76395,1,0
168,216,76574,1,2
248,216,76754,2,0,B|248:168,2,40
248,216,77113,1,0
328,216,77293,1,2
400,256,77473,1,0
400,176,77652,6,0,B|400:48,1,120,0|8
400,56,78191,1,0
344,112,78371,2,0,B|208:112,1,120,0|8
224,112,78910,1,0
144,112,79089,2,0,B|96:112,8,40,0|0|0|0|0|0|0|0|6
40,192,80527,5,0
40,192,81245,1,0
40,192,81964,1,0
424,80,82862,2,0,B|456:176,1,80
448,240,83221,2,0,B|416:328,1,80
392,192,83760,5,8
256,304,84119,1,0
120,192,84479,1,8
256,80,84838,1,0
16,192,85377,1,0
16,192,85556,1,8
184,96,85916,5,0
264,96,86095,1,0
344,96,86275,1,6
344,208,87173,5,0
400,152,87353,1,8
344,96,87533,1,0
288,152,87712,2,0,B|120:152,1,160,8|4
416,296,88790,5,0
464,232,88970,1,0
416,168,89149,1,0
320,296,89509,2,0,B|320:128,2,160,8|0|8
320,136,90586,2,0,B|272:136,8,40,0|0|0|0|0|0|0|0|6
56,320,92024,5,0
312,128,92742,1,0
56,320,93461,1,0
456,208,94359,5,0
456,128,94539,1,0
400,72,94718,1,0
320,72,94898,5,0
160,72,95257,1,8
320,72,95616,1,0
160,72,95976,1,8
160,72,96335,1,0
320,247,96874,1,0
320,247,97053,1,8
160,248,97413,6,0,B|160:160,1,80
224,120,97772,2,0,B|224:312,2,160
304,120,98670,1,0
304,199,98850,1,0
384,200,99030,1,0
384,288,99209,2,0,B|256:288,2,120
320,104,100287,5,0
408,104,100467,1,0
320,104,100646,1,0
160,104,101006,1,2
160,264,101365,1,0
320,264,101724,1,2
320,264,102083,1,0
320,144,102353,2,0,B|320:72,1,40
320,104,102622,2,0,B|368:104,2,40,0|0|6
416,232,103161,6,0,B|416:184,4,40
96,232,104239,1,0
416,232,104958,1,0
416,232,105856,1,0
336,232,106036,1,8
336,312,106215,1,8
256,312,106395,2,0,B|256:224,1,80
256,152,106754,2,2,B|344:152,1,80
416,152,107113,2,0,B|320:152,1,80
256,152,107473,2,2,B|168:152,1,80
96,152,107832,1,0
336,152,108371,1,0
256,152,108550,1,2
112,216,108910,5,0
168,272,109089,1,0
224,328,109269,1,6
224,328,110167,1,0
296,288,110347,1,2
368,248,110527,1,0
368,248,110706,2,2,B|368:112,2,120
152,136,111784,5,0
232,136,111964,1,0
152,136,112143,1,2
312,136,112503,2,0,B|312:320,1,160,0|2
312,296,113221,1,0
152,296,113580,1,2
152,296,113850,1,0
152,176,114119,2,0,B|152:128,2,40,0|0|6
328,72,115018,6,0,B|416:200,2,120
328,152,115736,2,0,B|416:280,2,120
328,232,116455,1,0
328,232,117353,5,0
264,280,117533,1,8
200,232,117712,1,8
136,280,117892,2,0,B|136:184,3,80,2|0|2|0
56,200,118610,2,0,B|56:104,3,80,2|0|2|0
56,120,119329,1,2
296,120,119868,1,0
296,120,120047,1,2
376,120,120407,6,0,B|376:216,1,80
296,200,120766,2,0,B|184:200,3,80
40,192,121664,1,2
40,280,121844,1,0
128,280,122024,1,2
216,280,122203,1,0
216,280,122562,1,2
216,128,123281,6,0,B|304:128,1,80
360,64,123640,2,0,B|184:64,2,160,0|2|0
360,240,124718,1,2
184,240,125077,2,0,B|272:240,1,80,2|8
264,192,125347,2,0,B|176:192,1,80,0|8
184,144,125616,2,0,B|240:144,2,40,0|0|6
