osu file format v9

[General]
AudioFilename: Lunar Clock - Luna Dial.mp3
AudioLeadIn: 0
PreviewTime: 9485
Countdown: 0
SampleSet: Normal
StackLeniency: 0.7
Mode: 0
LetterboxInBreaks: 1
EpilepsyWarning: 1
CountdownOffset: 1

[Editor]
Bookmarks: 9485,42362,55517,68663,81814
DistanceSpacing: 0.8
BeatDivisor: 4
GridSize: 2

[Metadata]
Title:Lunar Clock ~ Luna Dial
Artist:ZUN
Creator:Teta
Version:Marionette
Source:Touhou
Tags:Sakuya Izayoi Theme TH 06 EoSD Embodiment of Scarlet Devil _LRJ_ Crimson_SoulZ

[Difficulty]
HPDrainRate:8
CircleSize:4
OverallDifficulty:8
ApproachRate:9
SliderMultiplier:2.2
SliderTickRate:1

[Events]
//Background and Video events
0,0,"BG orz.jpg"
//Break Periods
2,32704,41767
//Storyboard Layer 0 (Background)
//Storyboard Layer 1 (Fail)
//Storyboard Layer 2 (Pass)
//Storyboard Layer 3 (Foreground)
//Storyboard Sound Samples
//Background Colour Transformations
3,100,255,0,0

[TimingPoints]
2915,410.958904109589,4,1,1,80,1,0
22023,-100,4,1,1,30,0,0
22640,-100,4,1,1,80,0,0
68663,-100,4,1,1,80,0,1
81814,-100,4,1,1,80,0,0

[Colours]
Combo1 : 249,0,0
Combo2 : 179,0,179
Combo3 : 3,3,175
Combo4 : 0,204,0

[HitObjects]
144,48,9490,1,4
64,80,9695,2,0,B|32:112|32:192,1,110,8|0
32,227,10004,1,0
32,270,10106,1,8
112,304,10312,1,0
151,323,10415,1,0
192,336,10517,1,8
236,336,10620,2,0,B|304:336|320:272,1,110
318,233,10928,1,8
368,336,11134,5,0
448,304,11339,2,0,B|480:272|480:192,1,110,8|0
480,157,11648,1,0
480,114,11750,1,8
448,82,11853,1,0
407,63,11956,1,0
365,49,12058,1,0
320,49,12161,1,8
282,50,12264,2,0,B|214:50|198:114,1,110
199,152,12572,1,8
304,160,12778,5,4
322,199,12880,1,0
336,240,12983,1,8
248,240,13188,2,0,B|192:240,1,55
148,240,13394,1,8
60,240,13599,2,0,B|32:176|76:128,1,110,0|8
113,136,13908,1,0
200,136,14113,1,0
244,136,14216,1,8
352,128,14421,5,4
432,176,14627,1,8
384,256,14832,1,0
352,288,14935,1,0
320,320,15038,2,0,B|208:320,2,110,8|8|8
320,320,15551,1,0
364,320,15654,1,0
408,320,15757,1,0
452,320,15860,1,8
400,224,16065,5,4
352,100,16373,1,0
308,100,16476,1,8
224,128,16682,2,0,B|96:128|96:288,1,220,8|0
98,318,17195,1,0
132,346,17298,1,0
176,340,17401,1,0
210,312,17504,1,0
226,272,17606,1,0
268,258,17709,6,0,B|346:324|420:268,1,165
400,230,18120,1,8
376,145,18325,1,8
400,320,18736,1,0
352,336,18839,1,0
304,352,18942,1,0
256,352,19045,1,0
208,352,19147,1,0
160,336,19250,1,0
112,320,19353,1,12
48,208,19661,5,0
80,176,19764,2,0,B|112:128|176:128,2,110,8|8|0
166,194,20380,1,0
214,210,20483,1,0
262,210,20586,1,0
310,210,20688,1,0
358,194,20791,1,0
390,162,20894,1,0
384,118,20997,1,4
303,82,21202,6,0,B|358:82,2,55,0|0|0
258,82,21510,2,0,B|198:66,2,55,0|0|0
258,127,21819,2,0,B|194:143,1,55,8|0
162,151,22024,1,8
124,174,22127,1,0
109,216,22230,1,0
121,258,22332,1,0
145,295,22435,1,0
182,319,22538,1,0
221,340,22641,5,8
308,340,22846,1,8
340,324,22949,2,0,B|436:244|420:180,1,165,0|8
421,101,23462,1,0
356,36,23668,1,8
268,36,23873,1,0
196,84,24079,1,8
84,84,24284,6,0,B|84:212|164:228,2,165,0|8|8
84,84,25106,1,0
164,52,25312,1,8
244,84,25517,1,0
276,116,25620,1,0
308,148,25723,1,8
404,196,25928,5,0
393,238,26031,1,0
372,276,26134,1,8
292,308,26339,1,0
212,292,26545,1,0
181,262,26647,2,0,B|133:214,1,55,0|8
79,161,26956,1,0
141,99,27161,1,0
203,162,27367,5,8
246,162,27469,1,0
290,162,27572,2,0,B|347:211|395:131|443:195,2,165,8|8|0
340,84,28394,1,0
420,100,28599,1,8
452,180,28805,1,0
429,221,28908,1,0
404,260,29010,1,0
324,308,29216,5,8
244,292,29421,1,0
201,281,29524,2,0,B|132:244|116:196|132:148,1,165,8|0
180,68,30038,2,0,B|232:95|228:164,1,110,0|8
228,247,30449,1,0
256,280,30551,1,0
296,296,30654,1,8
400,256,30860,5,0
432,176,31065,1,8
392,96,31271,1,0
320,48,31476,1,8
280,56,31579,1,0
240,80,31682,1,0
208,112,31784,2,0,B|184:168,1,55,0|8
160,248,32093,1,0
80,224,32298,2,0,B|80:168,1,55,0|8
80,124,32504,1,4
256,72,42367,5,4
312,144,42572,1,0
352,128,42675,1,0
390,150,42778,1,8
432,224,42983,1,0
368,280,43188,1,0
288,248,43394,1,0
244,239,43497,1,0
206,260,43599,1,8
165,276,43702,1,0
122,263,43805,1,0
59,200,44010,5,0
121,137,44216,1,0
163,124,44319,1,0
206,124,44421,2,0,B|272:128|328:160,1,110,8|0
360,222,44832,1,8
312,296,45038,1,0
293,256,45141,1,0
255,234,45243,1,8
174,198,45449,1,8
174,285,45654,5,8
248,336,45860,1,0
288,352,45962,1,0
328,344,46065,1,8
392,288,46271,1,8
376,200,46476,1,8
344,168,46579,1,0
304,152,46682,1,0
264,168,46784,1,0
232,200,46887,1,8
192,216,46990,1,8
152,200,47093,1,0
120,176,47195,5,0
88,144,47298,1,8
144,76,47504,1,0
187,76,47606,1,0
231,76,47709,1,8
319,76,47915,2,0,B|392:76|392:144,1,110,8|8
368,224,48325,1,0
348,264,48428,1,0
314,292,48531,1,8
276,314,48634,1,0
232,314,48736,1,8
256,230,48942,6,0,B|256:150|177:150,1,110,8|0
151,151,49250,1,0
106,151,49353,1,8
152,226,49558,1,8
152,314,49764,2,0,B|93:314,6,55,8|0|8|0|8|8|0
196,314,50483,1,8
240,314,50586,5,8
310,262,50791,1,0
354,262,50894,1,0
398,262,50997,1,8
398,174,51202,1,0
398,85,51408,1,8
310,85,51613,1,8
268,98,51716,1,0
234,126,51819,1,8
309,172,52024,1,0
220,172,52230,5,8
132,172,52435,2,0,B|48:172|48:238,1,110,0|8
48,314,52846,2,0,B|132:314|132:248,1,110,0|8
131,171,53257,1,0
131,126,53360,1,0
158,92,53462,1,8
196,70,53565,1,0
238,60,53668,1,0
282,60,53771,1,0
320,82,53873,5,8
358,162,54079,1,0
316,240,54284,1,8
396,278,54490,1,0
316,240,54695,1,8
256,306,54901,1,0
212,304,55004,1,0
174,284,55106,2,0,B|140:234,1,55,8|0
138,194,55312,1,0
138,106,55517,5,0
212,56,55723,1,0
299,56,55928,1,8
374,106,56134,1,0
392,192,56339,1,0
330,256,56545,1,0
300,288,56647,1,0
256,296,56750,1,8
212,288,56853,1,0
182,256,56956,1,0
256,208,57161,5,0
256,120,57367,1,0
178,80,57573,1,8
90,86,57778,2,0,B|44:124|46:190,1,110
80,264,58188,2,0,B|108:292|140:300,2,55,8|0|8
132,192,58599,1,0
220,192,58805,5,0
256,272,59010,1,0
292,192,59216,1,8
332,270,59421,1,0
368,190,59627,1,0
442,144,59832,2,0,B|442:80,3,55,8|0|8|0
418,52,60243,1,8
376,38,60346,1,0
332,36,60449,6,0,B|220:36,1,110,8|0
142,74,60860,1,8
106,154,61065,1,0
124,240,61271,1,8
206,270,61476,1,0
250,274,61579,2,0,B|304:264,1,55,0|8
338,236,61784,1,0
352,194,61887,1,0
302,264,62093,5,0
258,188,62299,1,0
296,108,62504,2,0,B|340:70|404:70,1,110,8|0
402,158,62915,2,0,B|358:196|294:196,1,110,0|8
258,188,63223,1,0
216,174,63325,2,0,B|162:150,1,55,8|0
130,124,63532,1,0
126,212,63737,5,0
184,278,63943,1,0
256,328,64147,1,8
328,278,64353,1,0
386,212,64558,1,8
386,124,64764,2,0,B|386:64,1,55,8|0
341,69,64969,2,0,B|226:69,1,110,8|0
142,69,65381,5,0
80,130,65586,2,0,B|46:188|72:258,1,110,0|8
122,304,65997,2,0,B|156:246|130:176,1,110,0|8
80,130,66408,1,0
110,98,66511,1,0
142,68,66614,1,8
184,54,66717,1,0
227,54,66819,1,8
270,64,66922,1,0
308,86,67024,6,0,B|388:104|378:196,1,110,8|0
372,248,67436,1,8
296,292,67641,2,0,B|180:292,1,110,0|8
218,210,68052,1,0
258,194,68155,1,0
302,190,68258,1,8
346,186,68360,1,0
390,190,68462,1,8
374,278,68668,5,0
300,328,68874,1,0
213,328,69079,1,8
138,278,69285,1,0
120,192,69490,1,0
182,128,69696,1,0
212,96,69798,1,0
256,88,69901,1,8
300,96,70004,1,0
330,128,70107,1,0
256,176,70312,5,0
256,264,70518,1,0
334,304,70724,1,8
422,298,70929,2,0,B|468:260|466:194,1,110
432,120,71339,2,0,B|404:92|372:84,2,55,8|0|8
380,192,71750,1,0
292,192,71956,5,0
256,112,72161,1,0
220,192,72367,1,8
180,114,72572,1,0
144,194,72778,1,0
70,240,72983,2,0,B|70:304,3,55,8|0|8|0
94,332,73394,1,8
136,346,73497,1,0
180,348,73600,6,0,B|292:348,1,110,8|0
370,310,74011,1,8
406,230,74216,1,0
388,144,74422,1,8
306,114,74627,1,0
262,110,74730,2,0,B|208:120,1,55,0|8
174,148,74935,1,0
160,190,75038,1,0
210,120,75244,5,0
254,196,75450,1,0
216,276,75655,2,0,B|172:314|108:314,1,110,8|0
110,226,76066,2,0,B|154:188|218:188,1,110,0|8
254,196,76374,1,0
296,210,76476,2,0,B|350:234,1,55,8|0
382,260,76683,1,0
386,172,76888,5,0
328,106,77094,1,0
256,56,77298,1,8
184,106,77504,1,0
126,172,77709,1,8
126,260,77915,2,0,B|126:320,1,55,8|0
171,315,78120,2,0,B|286:315,1,110,8|0
370,315,78532,5,0
432,254,78737,2,0,B|466:196|440:126,1,110,0|8
390,80,79148,2,0,B|356:138|382:208,1,110,0|8
432,254,79559,1,0
402,286,79662,1,0
370,316,79765,1,8
328,330,79868,1,0
285,330,79970,1,8
242,320,80073,1,0
256,192,80175,12,4,81819
