osu file format v14

[General]
AudioFilename: tuhu.mp3
AudioLeadIn: 0
PreviewTime: 8462
Countdown: 0
SampleSet: Normal
StackLeniency: 0.7
Mode: 1
LetterboxInBreaks: 0
WidescreenStoryboard: 1

[Editor]
DistanceSpacing: 0.8
BeatDivisor: 1
GridSize: 4
TimelineZoom: 1.5

[Metadata]
Title:Lunar Clock ~ Luna Dial
TitleUnicode:Lunar Clock ~ Luna Dial
Artist:ZUN
ArtistUnicode:ZUN
Creator:Surono
Version:Kantan
Source:東方Project
Tags:Touhou Sakuya Izayoi Theme TH 06 EoSD Embodiment of Scarlet Devil darkdunskin
BeatmapID:881988
BeatmapSetID:359264

[Difficulty]
HPDrainRate:8
CircleSize:2
OverallDifficulty:3.5
ApproachRate:0
SliderMultiplier:1.2
SliderTickRate:1

[Events]
//Background and Video events
0,0,"bg2.jpg",0,100
//Break Periods
//Storyboard Layer 0 (Background)
//Storyboard Layer 1 (Fail)
//Storyboard Layer 2 (Pass)
//Storyboard Layer 3 (Foreground)
//Storyboard Sound Samples

[TimingPoints]
2915,410.958904109589,4,1,0,70,1,0
68668,-100,4,1,0,70,0,1
81819,-100,4,1,0,70,0,0

[HitObjects]
256,192,2915,5,4,0:0:0:0:
272,192,3736,1,0,0:0:0:0:
272,192,4147,5,0,0:0:0:0:
284,168,5380,1,8,0:0:0:0:
264,184,5791,1,0,0:0:0:0:
260,176,6202,1,4,0:0:0:0:
248,184,7024,1,0,0:0:0:0:
252,188,7435,1,0,0:0:0:0:
252,188,7846,1,0,0:0:0:0:
244,184,8668,1,8,0:0:0:0:
264,184,9079,1,8,0:0:0:0:
248,176,9490,1,4,0:0:0:0:
256,168,10312,1,8,0:0:0:0:
256,176,10723,1,0,0:0:0:0:
252,176,11956,1,0,0:0:0:0:
256,168,12778,1,0,0:0:0:0:
256,168,13188,1,0,0:0:0:0:
256,168,13599,1,0,0:0:0:0:
256,160,14421,1,8,0:0:0:0:
256,176,14832,1,8,0:0:0:0:
256,160,15243,1,8,0:0:0:0:
256,160,16065,1,4,0:0:0:0:
256,160,16476,1,0,0:0:0:0:
280,172,17298,1,0,0:0:0:0:
256,160,17709,1,0,0:0:0:0:
256,176,18120,1,0,0:0:0:0:
260,152,18942,1,8,0:0:0:0:
248,156,19353,1,0,0:0:0:0:
256,176,19764,1,0,0:0:0:0:
248,136,20586,1,0,0:0:0:0:
248,156,20997,1,0,0:0:0:0:
256,176,21408,1,0,0:0:0:0:
256,176,22230,1,8,0:0:0:0:
248,156,22641,1,4,0:0:0:0:
248,148,24284,1,8,0:0:0:0:
248,148,25106,1,8,0:0:0:0:
252,152,25928,1,8,0:0:0:0:
248,148,26339,1,0,0:0:0:0:
248,152,27572,1,4,0:0:0:0:
236,132,29216,1,8,0:0:0:0:
240,136,30038,1,0,0:0:0:0:
252,152,30860,1,0,0:0:0:0:
232,136,31271,1,8,0:0:0:0:
240,144,32504,1,12,0:0:0:0:
244,152,34147,1,0,0:0:0:0:
236,132,34969,1,8,0:0:0:0:
244,152,35791,1,8,0:0:0:0:
232,120,36202,1,8,0:0:0:0:
232,116,37435,1,4,0:0:0:0:
220,112,39079,1,0,0:0:0:0:
228,120,39901,1,0,0:0:0:0:
224,120,41134,1,8,0:0:0:0:
224,128,41956,1,0,0:0:0:0:
232,136,42367,1,4,0:0:0:0:
228,120,43188,1,0,0:0:0:0:
220,124,44010,1,0,0:0:0:0:
228,120,44832,1,0,0:0:0:0:
232,120,45654,1,4,0:0:0:0:
224,128,46887,1,8,0:0:0:0:
236,128,47298,1,4,0:0:0:0:
224,128,48531,1,0,0:0:0:0:
224,128,48942,1,0,0:0:0:0:
240,128,49764,1,8,0:0:0:0:
224,132,50586,1,0,0:0:0:0:
240,128,51408,1,8,0:0:0:0:
240,128,52230,1,4,0:0:0:0:
208,116,53462,1,8,0:0:0:0:
240,128,53873,1,12,0:0:0:0:
224,124,55106,1,0,0:0:0:0:
224,124,55517,1,0,0:0:0:0:
224,124,56339,1,8,0:0:0:0:
224,124,57161,1,0,0:0:0:0:
224,124,57983,1,8,0:0:0:0:
232,120,58805,1,8,0:0:0:0:
224,124,59627,1,8,0:0:0:0:
232,120,60449,1,0,0:0:0:0:
224,124,61271,1,8,0:0:0:0:
224,124,62093,1,0,0:0:0:0:
224,124,62914,1,8,0:0:0:0:
224,124,63736,1,0,0:0:0:0:
224,124,64558,1,8,0:0:0:0:
232,120,65380,1,8,0:0:0:0:
220,132,66202,1,8,0:0:0:0:
232,120,67024,1,0,0:0:0:0:
224,124,68668,1,8,0:0:0:0:
224,124,69490,1,0,0:0:0:0:
224,124,70312,1,8,0:0:0:0:
228,132,71134,1,0,0:0:0:0:
224,128,71545,1,8,0:0:0:0:
228,132,71956,1,8,0:0:0:0:
224,124,72778,1,0,0:0:0:0:
220,136,73599,1,8,0:0:0:0:
220,136,75243,1,8,0:0:0:0:
224,128,76065,1,0,0:0:0:0:
220,136,76887,1,8,0:0:0:0:
220,132,77709,1,0,0:0:0:0:
208,136,78120,1,8,0:0:0:0:
220,132,78531,1,8,0:0:0:0:
220,132,79353,1,0,0:0:0:0:
256,192,80175,12,0,81408,0:0:0:0:
