osu file format v14

[General]
AudioFilename: tuhu.mp3
AudioLeadIn: 0
PreviewTime: 8462
Countdown: 0
SampleSet: Normal
StackLeniency: 0.7
Mode: 1
LetterboxInBreaks: 0
WidescreenStoryboard: 0

[Editor]
DistanceSpacing: 0.8
BeatDivisor: 4
GridSize: 16
TimelineZoom: 2.1

[Metadata]
Title:Lunar Clock ~ Luna Dial
TitleUnicode:Lunar Clock ~ Luna Dial
Artist:ZUN
ArtistUnicode:ZUN
Creator:Surono
Version:Inner Oni
Source:東方Project
Tags:Touhou Sakuya Izayoi Theme TH 06 EoSD Embodiment of Scarlet Devil darkdunskin
BeatmapID:789943
BeatmapSetID:359264

[Difficulty]
HPDrainRate:6
CircleSize:2
OverallDifficulty:6
ApproachRate:0
SliderMultiplier:1.4
SliderTickRate:1

[Events]
//Background and Video events
0,0,"bg2.jpg",0,100
//Break Periods
//Storyboard Layer 0 (Background)
//Storyboard Layer 1 (Fail)
//Storyboard Layer 2 (Pass)
//Storyboard Layer 3 (Foreground)
//Storyboard Sound Samples

[TimingPoints]
2915,410.958904109589,4,1,0,70,1,0
68668,-95.2380952380952,4,1,0,70,0,1
81819,-95.2380952380952,4,1,0,70,0,0

[HitObjects]
252,180,2915,5,4,0:0:0:0:
288,188,3325,1,0,0:0:0:0:
296,188,3428,1,0,0:0:0:0:
296,188,3531,1,0,0:0:0:0:
272,156,3634,1,8,0:0:0:0:
272,156,3942,1,0,0:0:0:0:
296,184,4045,1,8,0:0:0:0:
296,184,4147,1,0,0:0:0:0:
304,196,4250,1,0,0:0:0:0:
312,184,4353,1,8,0:0:0:0:
296,184,4456,1,0,0:0:0:0:
296,184,4558,1,0,0:0:0:0:
300,164,4969,1,0,0:0:0:0:
284,180,5072,1,0,0:0:0:0:
272,156,5175,1,8,0:0:0:0:
284,180,5278,1,0,0:0:0:0:
272,156,5380,1,8,0:0:0:0:
284,180,5586,1,0,0:0:0:0:
288,160,5688,1,0,0:0:0:0:
284,176,5791,1,0,0:0:0:0:
284,176,5997,1,8,0:0:0:0:
284,180,6202,1,4,0:0:0:0:
292,184,6613,1,0,0:0:0:0:
292,184,6716,1,0,0:0:0:0:
292,184,6819,1,0,0:0:0:0:
292,184,6921,1,0,0:0:0:0:
272,160,7024,1,8,0:0:0:0:
276,156,7332,1,0,0:0:0:0:
280,180,7435,1,8,0:0:0:0:
280,184,7538,1,0,0:0:0:0:
284,160,7641,1,8,0:0:0:0:
280,180,7743,1,8,0:0:0:0:
280,180,7846,1,0,0:0:0:0:
280,152,8257,1,0,0:0:0:0:
280,152,8360,1,8,0:0:0:0:
280,152,8462,1,0,0:0:0:0:
280,152,8565,1,0,0:0:0:0:
280,152,8668,1,8,0:0:0:0:
280,152,8771,1,8,0:0:0:0:
280,152,8873,1,0,0:0:0:0:
284,156,8976,1,0,0:0:0:0:
284,156,9079,1,8,0:0:0:0:
284,156,9182,1,0,0:0:0:0:
284,156,9284,1,8,0:0:0:0:
264,152,9387,1,8,0:0:0:0:
280,152,9490,1,0,0:0:0:0:
272,152,9695,1,8,0:0:0:0:
272,160,9798,1,8,0:0:0:0:
272,148,9901,1,0,0:0:0:0:
272,148,10004,1,0,0:0:0:0:
268,152,10106,1,8,0:0:0:0:
272,144,10312,1,0,0:0:0:0:
264,152,10517,1,8,0:0:0:0:
276,160,10620,1,0,0:0:0:0:
272,144,10825,1,0,0:0:0:0:
264,152,10928,1,8,0:0:0:0:
272,144,11134,1,0,0:0:0:0:
268,152,11339,1,8,0:0:0:0:
272,148,11545,1,0,0:0:0:0:
272,144,11647,1,0,0:0:0:0:
264,152,11750,1,8,0:0:0:0:
276,160,11853,1,8,0:0:0:0:
272,144,11956,1,0,0:0:0:0:
272,152,12161,1,8,0:0:0:0:
272,144,12264,1,0,0:0:0:0:
272,144,12469,1,0,0:0:0:0:
268,152,12572,1,8,0:0:0:0:
272,144,12778,1,0,0:0:0:0:
276,160,12880,1,0,0:0:0:0:
264,152,12983,1,8,0:0:0:0:
276,160,13086,1,8,0:0:0:0:
272,144,13188,1,0,0:0:0:0:
272,144,13291,1,8,0:0:0:0:
264,152,13394,1,8,0:0:0:0:
276,160,13497,1,8,0:0:0:0:
272,144,13599,1,0,0:0:0:0:
276,160,13702,1,8,0:0:0:0:
268,152,13805,1,8,0:0:0:0:
272,144,13908,1,0,0:0:0:0:
276,160,14010,1,8,0:0:0:0:
272,144,14113,1,0,0:0:0:0:
264,152,14216,1,8,0:0:0:0:
276,160,14319,1,8,0:0:0:0:
272,144,14421,1,8,0:0:0:0:
276,160,14524,1,0,0:0:0:0:
272,144,14627,1,8,0:0:0:0:
276,160,14730,1,0,0:0:0:0:
272,144,14832,1,8,0:0:0:0:
272,144,14935,1,0,0:0:0:0:
272,144,15038,1,8,0:0:0:0:
288,168,15141,1,0,0:0:0:0:
272,144,15243,1,0,0:0:0:0:
272,144,15449,1,8,0:0:0:0:
272,144,15551,1,8,0:0:0:0:
272,156,15654,1,0,0:0:0:0:
272,144,15757,1,8,0:0:0:0:
272,144,15860,1,8,0:0:0:0:
272,144,15962,1,8,0:0:0:0:
272,144,16065,1,0,0:0:0:0:
272,144,16476,1,8,0:0:0:0:
272,144,16682,1,0,0:0:0:0:
272,144,16784,1,0,0:0:0:0:
272,144,16887,1,0,0:0:0:0:
264,128,17093,1,8,0:0:0:0:
264,128,17195,1,8,0:0:0:0:
264,128,17298,1,0,0:0:0:0:
264,128,17401,1,0,0:0:0:0:
264,128,17504,1,8,0:0:0:0:
264,128,17606,1,0,0:0:0:0:
264,128,17709,1,0,0:0:0:0:
264,128,18120,1,8,0:0:0:0:
264,128,18325,1,0,0:0:0:0:
264,128,18428,1,0,0:0:0:0:
264,128,18531,1,0,0:0:0:0:
264,128,18634,1,8,0:0:0:0:
264,128,18839,1,8,0:0:0:0:
264,128,18942,1,0,0:0:0:0:
272,128,19045,1,0,0:0:0:0:
264,128,19147,1,8,0:0:0:0:
264,128,19250,1,8,0:0:0:0:
264,128,19353,1,0,0:0:0:0:
264,128,19558,1,8,0:0:0:0:
264,128,19764,1,0,0:0:0:0:
264,128,19867,1,8,0:0:0:0:
264,128,19969,1,8,0:0:0:0:
264,128,20072,1,0,0:0:0:0:
264,128,20175,1,0,0:0:0:0:
264,128,20278,1,8,0:0:0:0:
264,128,20483,1,0,0:0:0:0:
264,128,20586,1,8,0:0:0:0:
264,128,20688,1,0,0:0:0:0:
264,128,20791,1,0,0:0:0:0:
264,128,20894,1,8,0:0:0:0:
264,128,20997,1,0,0:0:0:0:
264,128,21202,1,8,0:0:0:0:
264,128,21408,1,0,0:0:0:0:
264,128,21613,1,8,0:0:0:0:
264,128,21716,1,0,0:0:0:0:
264,128,21819,1,0,0:0:0:0:
264,128,21921,1,8,0:0:0:0:
264,128,22024,1,0,0:0:0:0:
264,128,22127,1,8,0:0:0:0:
264,128,22230,1,8,0:0:0:0:
264,128,22332,1,0,0:0:0:0:
264,128,22435,1,0,0:0:0:0:
264,128,22538,1,8,0:0:0:0:
264,128,22641,1,0,0:0:0:0:
280,120,22949,1,8,0:0:0:0:
280,120,23257,1,0,0:0:0:0:
280,120,23462,1,0,0:0:0:0:
280,120,23668,1,8,0:0:0:0:
288,124,23873,1,0,0:0:0:0:
288,124,24079,1,0,0:0:0:0:
288,124,24284,1,8,0:0:0:0:
280,104,24490,1,0,0:0:0:0:
280,120,24593,1,8,0:0:0:0:
280,120,24695,1,8,0:0:0:0:
272,120,24901,5,8,0:0:0:0:
272,120,25106,1,12,0:0:0:0:
272,120,25312,1,0,0:0:0:0:
272,120,25517,1,0,0:0:0:0:
264,116,25620,1,0,0:0:0:0:
264,116,25723,1,8,0:0:0:0:
264,116,25928,1,0,0:0:0:0:
264,116,26134,1,0,0:0:0:0:
264,116,26339,1,4,0:0:0:0:
264,100,26647,1,0,0:0:0:0:
264,100,26750,1,8,0:0:0:0:
264,100,26956,1,0,0:0:0:0:
264,100,27161,1,0,0:0:0:0:
248,96,27367,1,8,0:0:0:0:
248,96,27469,1,8,0:0:0:0:
248,96,27572,1,0,0:0:0:0:
248,96,27880,1,8,0:0:0:0:
252,96,28188,5,0,0:0:0:0:
252,96,28394,1,0,0:0:0:0:
252,96,28599,1,8,0:0:0:0:
248,96,28805,1,0,0:0:0:0:
248,96,29010,1,0,0:0:0:0:
248,96,29216,1,8,0:0:0:0:
236,92,29421,1,0,0:0:0:0:
252,96,29524,1,8,0:0:0:0:
252,96,29627,1,8,0:0:0:0:
252,96,29832,1,8,0:0:0:0:
252,96,30038,1,12,0:0:0:0:
252,92,30243,1,0,0:0:0:0:
252,92,30449,1,0,0:0:0:0:
252,92,30551,1,0,0:0:0:0:
252,92,30654,1,8,0:0:0:0:
252,92,30860,1,0,0:0:0:0:
252,96,31065,1,0,0:0:0:0:
252,96,31271,1,12,0:0:0:0:
252,96,31476,1,0,0:0:0:0:
252,96,31579,1,0,0:0:0:0:
252,92,31682,1,8,0:0:0:0:
252,92,31784,1,0,0:0:0:0:
252,92,31887,1,0,0:0:0:0:
252,92,32093,1,0,0:0:0:0:
252,92,32298,1,8,0:0:0:0:
252,92,32401,1,8,0:0:0:0:
252,96,32504,1,0,0:0:0:0:
252,96,32709,1,0,0:0:0:0:
252,96,32812,1,8,0:0:0:0:
244,92,33017,1,0,0:0:0:0:
244,96,33120,1,0,0:0:0:0:
244,92,33325,1,0,0:0:0:0:
244,92,33531,1,8,0:0:0:0:
244,92,33634,1,0,0:0:0:0:
244,92,33736,1,0,0:0:0:0:
244,92,33942,1,8,0:0:0:0:
244,92,34045,1,0,0:0:0:0:
244,92,34147,5,0,0:0:0:0:
244,92,34353,1,8,0:0:0:0:
244,92,34558,1,0,0:0:0:0:
244,96,34661,1,0,0:0:0:0:
244,92,34764,1,8,0:0:0:0:
244,92,34969,1,12,0:0:0:0:
232,96,35175,1,0,0:0:0:0:
232,96,35278,1,8,0:0:0:0:
232,96,35483,1,8,0:0:0:0:
232,96,35586,1,0,0:0:0:0:
232,96,35791,1,0,0:0:0:0:
232,96,35997,1,8,0:0:0:0:
232,96,36099,1,8,0:0:0:0:
232,96,36202,1,0,0:0:0:0:
232,96,36408,1,8,0:0:0:0:
232,96,36510,1,0,0:0:0:0:
232,96,36613,1,0,0:0:0:0:
232,96,36819,1,8,0:0:0:0:
232,96,37024,1,0,0:0:0:0:
232,96,37127,1,0,0:0:0:0:
232,96,37230,1,8,0:0:0:0:
232,96,37435,1,4,0:0:0:0:
232,96,37641,1,0,0:0:0:0:
232,96,37743,1,8,0:0:0:0:
232,96,37949,1,0,0:0:0:0:
232,96,38051,1,0,0:0:0:0:
232,96,38257,1,0,0:0:0:0:
232,80,38462,1,8,0:0:0:0:
232,80,38565,1,0,0:0:0:0:
232,80,38668,1,0,0:0:0:0:
232,80,38873,1,8,0:0:0:0:
232,80,38976,1,0,0:0:0:0:
232,80,39079,1,0,0:0:0:0:
232,80,39284,1,8,0:0:0:0:
232,80,39490,1,0,0:0:0:0:
232,80,39593,1,0,0:0:0:0:
232,80,39695,1,8,0:0:0:0:
232,80,39901,1,4,0:0:0:0:
232,80,40106,1,0,0:0:0:0:
232,80,40209,1,8,0:0:0:0:
244,88,40415,1,0,0:0:0:0:
232,80,40517,1,0,0:0:0:0:
220,76,40620,1,8,0:0:0:0:
216,76,40723,1,8,0:0:0:0:
220,76,40825,1,0,0:0:0:0:
220,76,40928,1,8,0:0:0:0:
220,72,41031,1,8,0:0:0:0:
220,72,41134,1,0,0:0:0:0:
220,76,41339,1,8,0:0:0:0:
220,80,41442,1,0,0:0:0:0:
220,80,41545,1,0,0:0:0:0:
220,80,41647,1,0,0:0:0:0:
224,88,41750,1,8,0:0:0:0:
220,80,41956,1,0,0:0:0:0:
224,88,42058,1,8,0:0:0:0:
224,88,42161,1,8,0:0:0:0:
224,88,42264,1,8,0:0:0:0:
224,88,42367,1,0,0:0:0:0:
232,100,42675,1,0,0:0:0:0:
272,152,42778,5,8,0:0:0:0:
300,144,42983,1,0,0:0:0:0:
280,144,43188,1,4,0:0:0:0:
280,144,43394,1,0,0:0:0:0:
280,144,43497,1,0,0:0:0:0:
264,152,43599,1,8,0:0:0:0:
280,144,43702,1,0,0:0:0:0:
280,144,43805,1,0,0:0:0:0:
280,144,44010,1,0,0:0:0:0:
280,144,44319,1,0,0:0:0:0:
268,152,44421,1,8,0:0:0:0:
280,144,44627,1,0,0:0:0:0:
280,144,44832,1,4,0:0:0:0:
280,144,45038,1,0,0:0:0:0:
280,144,45141,1,0,0:0:0:0:
272,152,45243,1,8,0:0:0:0:
280,144,45449,1,0,0:0:0:0:
280,144,45654,1,12,0:0:0:0:
280,144,45962,1,0,0:0:0:0:
264,152,46065,1,8,0:0:0:0:
280,144,46271,1,0,0:0:0:0:
280,144,46476,1,0,0:0:0:0:
280,144,46682,1,0,0:0:0:0:
280,144,46784,1,0,0:0:0:0:
268,152,46887,1,8,0:0:0:0:
280,144,46990,1,8,0:0:0:0:
280,144,47093,1,0,0:0:0:0:
280,144,47195,1,8,0:0:0:0:
280,144,47298,1,0,0:0:0:0:
280,144,47606,1,0,0:0:0:0:
272,152,47709,1,8,0:0:0:0:
280,144,47915,1,0,0:0:0:0:
280,144,48120,1,0,0:0:0:0:
280,144,48325,1,0,0:0:0:0:
280,144,48428,1,0,0:0:0:0:
264,152,48531,1,8,0:0:0:0:
280,144,48599,1,8,0:0:0:0:
280,144,48668,1,8,0:0:0:0:
272,128,48736,1,0,0:0:0:0:
272,128,48839,1,8,0:0:0:0:
280,144,48942,1,0,0:0:0:0:
280,144,49250,1,0,0:0:0:0:
268,152,49353,1,8,0:0:0:0:
280,144,49558,1,0,0:0:0:0:
280,144,49764,1,4,0:0:0:0:
280,144,49969,1,0,0:0:0:0:
280,144,50072,1,0,0:0:0:0:
272,152,50175,1,8,0:0:0:0:
280,144,50278,1,0,0:0:0:0:
280,144,50380,1,0,0:0:0:0:
280,144,50586,1,0,0:0:0:0:
272,148,50894,1,0,0:0:0:0:
264,152,50997,1,8,0:0:0:0:
272,144,51202,1,0,0:0:0:0:
272,144,51408,1,4,0:0:0:0:
272,144,51613,1,0,0:0:0:0:
272,144,51716,1,0,0:0:0:0:
268,152,51819,1,8,0:0:0:0:
272,144,52024,1,0,0:0:0:0:
272,148,52230,1,12,0:0:0:0:
272,144,52538,1,0,0:0:0:0:
272,152,52641,1,8,0:0:0:0:
272,144,52846,1,0,0:0:0:0:
272,144,53051,1,0,0:0:0:0:
272,144,53257,1,0,0:0:0:0:
272,148,53360,1,0,0:0:0:0:
264,152,53462,1,8,0:0:0:0:
272,144,53565,1,8,0:0:0:0:
272,148,53668,1,0,0:0:0:0:
272,148,53771,1,0,0:0:0:0:
272,148,53873,1,8,0:0:0:0:
264,140,54182,1,0,0:0:0:0:
268,152,54284,1,8,0:0:0:0:
264,140,54490,1,0,0:0:0:0:
264,140,54593,1,0,0:0:0:0:
264,140,54695,1,0,0:0:0:0:
260,140,54901,1,0,0:0:0:0:
256,136,55004,1,0,0:0:0:0:
256,136,55106,1,8,0:0:0:0:
264,140,55175,1,0,0:0:0:0:
264,140,55243,1,0,0:0:0:0:
256,136,55312,1,8,0:0:0:0:
256,136,55415,1,8,0:0:0:0:
256,136,55517,1,0,0:0:0:0:
272,128,55723,1,8,0:0:0:0:
264,132,55825,1,0,0:0:0:0:
264,132,55928,1,0,0:0:0:0:
268,136,56134,1,8,0:0:0:0:
268,136,56339,1,0,0:0:0:0:
272,136,56545,1,0,0:0:0:0:
272,136,56647,1,0,0:0:0:0:
272,136,56750,1,8,0:0:0:0:
272,136,56853,1,0,0:0:0:0:
272,136,56956,1,0,0:0:0:0:
264,132,57161,1,0,0:0:0:0:
264,132,57367,1,8,0:0:0:0:
264,132,57469,1,0,0:0:0:0:
268,136,57572,1,8,0:0:0:0:
248,132,57778,1,8,0:0:0:0:
248,132,57983,1,0,0:0:0:0:
248,132,58188,1,0,0:0:0:0:
268,144,58291,1,0,0:0:0:0:
260,124,58394,1,8,0:0:0:0:
260,124,58599,1,0,0:0:0:0:
260,124,58805,1,0,0:0:0:0:
240,140,59010,1,8,0:0:0:0:
240,144,59113,1,0,0:0:0:0:
240,144,59216,1,0,0:0:0:0:
260,168,59421,1,8,0:0:0:0:
256,124,59627,5,0,0:0:0:0:
256,128,59832,1,0,0:0:0:0:
260,124,59935,1,0,0:0:0:0:
260,124,60038,1,8,0:0:0:0:
260,124,60141,1,8,0:0:0:0:
260,128,60243,1,8,0:0:0:0:
260,128,60346,1,8,0:0:0:0:
264,132,60449,1,0,0:0:0:0:
268,136,60654,1,8,0:0:0:0:
268,136,60757,1,0,0:0:0:0:
268,136,60860,1,8,0:0:0:0:
248,156,61065,1,8,0:0:0:0:
268,136,61271,1,0,0:0:0:0:
268,136,61476,1,0,0:0:0:0:
268,136,61579,1,0,0:0:0:0:
268,136,61682,1,8,0:0:0:0:
268,136,61784,1,0,0:0:0:0:
268,136,61887,1,0,0:0:0:0:
240,120,62093,1,0,0:0:0:0:
240,120,62298,1,8,0:0:0:0:
240,120,62401,1,0,0:0:0:0:
240,120,62504,1,0,0:0:0:0:
240,120,62709,1,8,0:0:0:0:
240,120,62914,1,0,0:0:0:0:
240,120,63120,1,0,0:0:0:0:
240,120,63223,1,0,0:0:0:0:
240,120,63325,1,8,0:0:0:0:
240,120,63428,1,0,0:0:0:0:
240,120,63531,1,0,0:0:0:0:
240,120,63736,1,0,0:0:0:0:
248,120,63942,1,8,0:0:0:0:
248,120,64045,1,0,0:0:0:0:
248,120,64147,1,8,0:0:0:0:
248,156,64353,1,8,0:0:0:0:
248,120,64558,1,0,0:0:0:0:
248,120,64764,1,0,0:0:0:0:
248,120,64867,1,0,0:0:0:0:
248,120,64969,1,8,0:0:0:0:
248,120,65175,1,0,0:0:0:0:
248,120,65380,1,0,0:0:0:0:
248,128,65586,1,8,0:0:0:0:
248,128,65688,1,0,0:0:0:0:
248,128,65791,1,0,0:0:0:0:
264,120,65997,1,8,0:0:0:0:
264,120,66202,1,0,0:0:0:0:
264,120,66408,1,0,0:0:0:0:
264,120,66510,1,0,0:0:0:0:
264,120,66613,1,8,0:0:0:0:
268,128,66716,1,0,0:0:0:0:
268,128,66819,1,8,0:0:0:0:
268,128,66921,1,8,0:0:0:0:
268,128,67024,1,0,0:0:0:0:
268,128,67230,1,8,0:0:0:0:
268,128,67332,1,0,0:0:0:0:
268,128,67435,1,8,0:0:0:0:
248,156,67641,1,8,0:0:0:0:
268,128,67846,1,0,0:0:0:0:
268,128,68051,1,0,0:0:0:0:
268,128,68154,1,0,0:0:0:0:
268,128,68257,1,8,0:0:0:0:
268,128,68360,1,0,0:0:0:0:
268,128,68462,1,0,0:0:0:0:
268,136,68668,1,4,0:0:0:0:
268,136,68873,1,8,0:0:0:0:
236,152,68976,1,8,0:0:0:0:
268,136,69079,1,0,0:0:0:0:
268,136,69284,1,8,0:0:0:0:
268,136,69490,1,0,0:0:0:0:
260,128,69695,1,0,0:0:0:0:
268,136,69798,1,0,0:0:0:0:
268,136,69901,1,8,0:0:0:0:
268,140,70004,1,0,0:0:0:0:
256,116,70106,1,0,0:0:0:0:
248,156,70209,1,8,0:0:0:0:
268,136,70312,1,0,0:0:0:0:
248,136,70517,1,8,0:0:0:0:
260,128,70620,1,0,0:0:0:0:
260,128,70723,1,8,0:0:0:0:
260,128,70928,1,8,0:0:0:0:
260,128,71134,1,0,0:0:0:0:
260,128,71339,1,0,0:0:0:0:
260,128,71442,1,0,0:0:0:0:
260,128,71545,1,8,0:0:0:0:
260,128,71750,1,0,0:0:0:0:
260,128,71956,1,4,0:0:0:0:
260,128,72161,1,8,0:0:0:0:
260,128,72264,1,8,0:0:0:0:
260,128,72367,1,0,0:0:0:0:
260,128,72572,1,8,0:0:0:0:
260,128,72778,1,0,0:0:0:0:
260,128,72983,1,0,0:0:0:0:
260,128,73086,1,0,0:0:0:0:
260,128,73188,1,8,0:0:0:0:
268,136,73291,1,8,0:0:0:0:
264,132,73394,1,8,0:0:0:0:
264,132,73497,1,8,0:0:0:0:
260,128,73599,1,0,0:0:0:0:
260,128,73805,1,8,0:0:0:0:
260,128,73908,1,0,0:0:0:0:
260,128,74010,1,8,0:0:0:0:
260,128,74216,1,8,0:0:0:0:
260,128,74421,1,0,0:0:0:0:
260,128,74627,1,0,0:0:0:0:
260,128,74730,1,0,0:0:0:0:
260,128,74832,1,8,0:0:0:0:
260,128,74935,1,0,0:0:0:0:
252,160,75038,1,0,0:0:0:0:
252,160,75141,1,8,0:0:0:0:
260,128,75243,1,0,0:0:0:0:
252,120,75449,1,8,0:0:0:0:
252,120,75551,1,8,0:0:0:0:
252,120,75654,1,0,0:0:0:0:
252,120,75860,1,8,0:0:0:0:
252,120,76065,1,0,0:0:0:0:
252,120,76271,1,0,0:0:0:0:
252,120,76373,1,0,0:0:0:0:
252,120,76476,1,8,0:0:0:0:
252,120,76579,1,0,0:0:0:0:
256,120,76682,1,0,0:0:0:0:
252,160,76784,1,8,0:0:0:0:
252,120,76887,1,0,0:0:0:0:
252,120,77093,1,8,0:0:0:0:
252,120,77195,1,0,0:0:0:0:
252,120,77298,1,8,0:0:0:0:
252,160,77504,1,8,0:0:0:0:
252,120,77709,1,0,0:0:0:0:
252,120,77915,1,0,0:0:0:0:
252,120,78017,1,0,0:0:0:0:
252,120,78120,1,8,0:0:0:0:
252,120,78325,1,0,0:0:0:0:
252,120,78531,1,4,0:0:0:0:
252,120,78736,1,8,0:0:0:0:
252,120,78839,1,8,0:0:0:0:
252,120,78942,1,0,0:0:0:0:
256,160,79147,1,8,0:0:0:0:
252,120,79353,1,0,0:0:0:0:
252,120,79558,1,0,0:0:0:0:
252,120,79661,1,0,0:0:0:0:
252,120,79764,1,8,0:0:0:0:
252,120,79867,1,8,0:0:0:0:
252,120,79969,1,0,0:0:0:0:
248,128,80175,1,12,0:0:0:0:
256,136,80380,1,8,0:0:0:0:
256,128,80483,1,0,0:0:0:0:
264,140,80586,1,8,0:0:0:0:
264,140,80688,1,8,0:0:0:0:
264,140,80791,1,0,0:0:0:0:
256,128,80860,1,0,0:0:0:0:
264,140,80928,1,0,0:0:0:0:
252,120,80997,1,8,0:0:0:0:
256,128,81202,1,0,0:0:0:0:
256,128,81305,1,0,0:0:0:0:
264,140,81408,1,8,0:0:0:0:
264,136,81510,1,0,0:0:0:0:
264,136,81613,1,8,0:0:0:0:
264,140,81682,1,8,0:0:0:0:
264,140,81750,1,8,0:0:0:0:
264,140,81819,1,0,0:0:0:0:
