osu file format v12

[General]
AudioFilename: last remote.mp3
AudioLeadIn: 0
PreviewTime: 140392
Countdown: 0
SampleSet: Soft
StackLeniency: 0.7
Mode: 0
LetterboxInBreaks: 1
WidescreenStoryboard: 1

[Editor]
Bookmarks: 8257,16347,32527,48707,59156,70280,91853,99943,108033,129606,140392,141741,163314,184887
DistanceSpacing: 1
BeatDivisor: 4
GridSize: 4

[Metadata]
Title:Last Remote
TitleUnicode:ラストリモート
Artist:ZUN
ArtistUnicode:ZUN
Creator:Lunaties
Version:Hoshi
Source:Touhou
Tags:th11 sa subterranean animism komeiji koishi vhy hoshisorakiseki
BeatmapID:302521
BeatmapSetID:99047

[Difficulty]
HPDrainRate:7
CircleSize:5
OverallDifficulty:9
ApproachRate:9
SliderMultiplier:2
SliderTickRate:1

[Events]
//Background and Video events
0,0,"K.jpg",0,0
//Break Periods
2,24637,27882
2,28682,31927
2,92053,95298
2,96098,99343
2,108233,109876
2,110929,112573
2,160817,162714
//Storyboard Layer 0 (Background)
//Storyboard Layer 1 (Fail)
//Storyboard Layer 2 (Pass)
//Storyboard Layer 3 (Foreground)
//Storyboard Sound Samples
//Background Colour Transformations
3,100,163,162,255

[TimingPoints]
168,337.078651685393,4,2,0,70,1,0
48033,-100,4,1,0,70,0,0
48707,-100,4,2,0,70,0,0
69606,-100,4,1,0,70,0,0
70280,-100,4,2,0,70,0,0
91010,-100,4,1,0,70,0,0
91853,-100,4,2,0,70,0,0
97920,-100,4,2,0,70,0,0
99943,-100,4,2,0,60,0,0
128932,-100,4,1,0,60,0,0
129606,-100,4,2,0,60,0,0
136179,-100,4,1,0,60,0,0
137190,-100,4,2,0,60,0,0
137527,-100,4,1,0,60,0,0
137696,-100,4,2,0,60,0,0
140392,-200,4,2,0,70,0,0
141741,-100,4,2,0,70,0,1
149830,-200,4,2,0,70,0,1
150673,-100,4,2,0,70,0,1
160617,-100,4,2,0,70,0,0
163314,-80,4,2,0,70,0,1
171403,-200,4,2,0,70,0,1
172246,-100,4,2,0,70,0,1
184887,-100,4,2,0,70,0,0

[Colours]
Combo1 : 128,128,255
Combo2 : 0,128,128
Combo3 : 255,128,192
Combo4 : 128,255,255

[HitObjects]
120,36,8257,2,0,P|56:100|52:136,1,100,8|0,0:0|0:0,0:0:0:0:
168,152,8594,1,2,0:0:0:0:
216,264,8763,2,0,P|280:200|284:164,1,100,0|8,0:0|0:0,0:0:0:0:
456,72,9269,2,0,P|412:40|360:48,1,100,8|0,0:0|0:0,0:0:0:0:
376,176,9606,2,0,P|316:212|264:212,1,100,2|0,0:0|0:0,0:0:0:0:
280,80,9943,1,8,0:0:0:0:
100,192,10280,6,0,P|80:244|104:288,1,100,8|0,0:0|0:0,0:0:0:0:
216,240,10617,2,0,L|320:240,2,100,2|0|8,0:0|0:0|0:0,0:0:0:0:
384,128,11291,2,0,P|440:136|472:176,1,100,8|0,0:0|0:0,0:0:0:0:
384,128,11628,2,0,P|328:136|296:176,1,100,2|0,0:0|0:0,0:0:0:0:
384,264,11965,1,8,0:0:0:0:
152,88,12302,5,8,0:0:0:0:
108,252,12471,1,0,0:0:0:0:
244,152,12639,1,2,0:0:0:0:
76,152,12808,1,0,0:0:0:0:
212,252,12976,1,8,0:0:0:0:
448,60,13314,1,8,0:0:0:0:
376,156,13482,1,0,0:0:0:0:
436,260,13651,1,2,0:0:0:0:
316,264,13819,1,0,0:0:0:0:
220,336,13988,1,8,0:0:0:0:
236,120,14325,6,0,P|240:176|212:236,1,100,8|2,0:0|0:0,0:0:0:0:
120,256,14662,2,0,P|180:304|220:312,1,100,0|0,0:0|0:0,0:0:0:0:
132,156,14999,1,8,0:0:0:0:
396,280,15336,2,0,L|444:300,1,50,8|0,0:0|0:0,0:0:0:0:
376,208,15505,2,0,L|440:212,1,50
344,140,15673,2,0,L|400:124,1,50,2|0,0:0|0:0,0:0:0:0:
304,76,15842,2,0,L|352:48,1,50
264,144,16010,1,8,0:0:0:0:
80,172,16347,6,0,P|136:216|144:248,1,100,8|0,0:0|0:0,0:0:0:0:
208,312,16684,2,0,P|152:268|144:236,1,100,2|0,0:0|0:0,0:0:0:0:
144,242,17021,1,8,0:0:0:0:
144,242,17190,1,0,0:0:0:0:
208,172,17359,2,0,P|152:216|144:248,1,100,8|0,0:0|0:0,0:0:0:0:
80,312,17696,2,0,P|136:268|144:236,1,100,2|0,0:0|0:0,0:0:0:0:
144,242,18033,1,8,0:0:0:0:
144,242,18201,1,0,0:0:0:0:
376,280,18370,5,8,0:0:0:0:
376,180,18538,2,0,P|400:132|448:116,1,100,0|2,0:0|0:0,0:0:0:0:
376,180,18875,2,0,P|352:132|304:116,2,100,0|8|0,0:0|0:0|0:0,0:0:0:0:
124,172,19381,2,0,P|148:104|192:96,1,100,8|0,0:0|0:0,0:0:0:0:
284,216,19718,2,0,P|292:276|252:312,1,100,2|0,0:0|0:0,0:0:0:0:
180,240,20055,1,8,0:0:0:0:
364,96,20224,1,0,0:0:0:0:
396,192,20392,5,8,0:0:0:0:
400,344,20561,1,0,0:0:0:0:
464,228,20729,1,2,0:0:0:0:
332,304,20898,1,0,0:0:0:0:
468,300,21066,1,8,0:0:0:0:
258,128,21403,2,0,P|294:160|288:208,1,100,8|0,0:0|0:0,0:0:0:0:
266,290,21741,2,0,P|299:254|288:208,1,100,2|0,0:0|0:0,0:0:0:0:
104,208,22078,1,8,0:0:0:0:
436,64,22415,6,0,L|436:168,1,100,8|0,0:0|0:0,0:0:0:0:
436,320,22752,2,0,L|436:216,1,100,2|0,0:0|0:0,0:0:0:0:
324,192,23089,1,8,0:0:0:0:
76,64,23426,2,0,L|76:168,1,100,8|0,0:0|0:0,0:0:0:0:
76,320,23763,2,0,L|76:216,1,100,2|0,0:0|0:0,0:0:0:0:
188,192,24100,1,8,0:0:0:0:
456,72,24437,5,4,0:0:0:0:
84,328,28482,5,4,0:0:0:0:
128,340,32527,6,0,P|64:340|64:288,1,100,8|0,0:0|0:0,0:0:0:0:
136,232,32864,2,0,P|192:232|192:192,1,100,2|0,0:0|0:0,0:0:0:0:
128,124,33201,2,0,P|64:124|64:80,1,100,8|0,0:0|0:0,0:0:0:0:
140,32,33538,1,2,0:0:0:0:
400,156,33875,2,0,L|484:216,1,100,8|0,0:0|0:0,0:0:0:0:
356,236,34212,2,0,L|268:176,1,100,2|0,0:0|0:0,0:0:0:0:
304,304,34550,2,0,L|392:368,1,100,8|0,0:0|0:0,0:0:0:0:
488,220,34887,1,2,0:0:0:0:
256,192,35224,5,8,0:0:0:0:
260,72,35392,1,0,0:0:0:0:
256,192,35561,1,2,0:0:0:0:
184,96,35729,1,0,0:0:0:0:
256,192,35898,1,8,0:0:0:0:
140,164,36066,1,0,0:0:0:0:
256,192,36235,1,2,0:0:0:0:
448,80,36572,1,8,0:0:0:0:
380,136,36741,1,0,0:0:0:0:
464,160,36909,1,2,0:0:0:0:
392,212,37078,1,0,0:0:0:0:
308,192,37246,1,8,0:0:0:0:
324,280,37415,1,0,0:0:0:0:
236,268,37583,1,2,0:0:0:0:
104,52,37920,6,0,P|56:88|48:132,1,100,8|0,0:0|0:0,0:0:0:0:
148,148,38257,2,0,P|204:128|260:164,1,100,2|0,0:0|0:0,0:0:0:0:
200,236,38594,2,0,P|220:288|188:320,1,100,8|0,0:0|0:0,0:0:0:0:
100,272,38932,1,2,0:0:0:0:
328,64,39269,2,0,L|208:64,2,100,8|0|2,0:0|0:0|0:0,0:0:0:0:
332,192,39774,1,0,0:0:0:0:
332,320,39943,2,0,L|440:320,2,100,8|0|2,0:0|0:0|0:0,0:0:0:0:
108,312,40617,6,0,P|56:288|52:240,2,100,8|0|2,0:0|0:0|0:0,0:0:0:0:
160,208,41123,1,0,0:0:0:0:
188,96,41291,2,0,P|240:120|244:168,2,100,8|0|8,0:0|0:0|0:0,0:0:0:0:
376,128,41965,2,0,P|424:160|452:228,1,100
336,244,42302,2,8,L|260:316,1,100
208,176,42639,1,0,0:0:0:0:
104,184,42808,2,8,P|128:104|176:92,1,100
184,344,43314,1,4,0:0:0:0:
256,192,43398,12,0,45336,0:0:0:0:
384,64,46010,5,4,0:0:0:0:
256,192,46094,12,0,47359,0:0:0:0:
120,192,48033,6,0,L|68:192,1,50
140,256,48201,2,0,L|88:288,1,50
192,296,48370,2,0,L|156:344,1,50
256,328,48538,2,0,L|256:380,1,50
256,192,48707,5,0,0:0:0:0:
336,244,49044,2,0,L|420:316,2,100,0|0|2,0:0|0:0|0:0,0:0:0:0:
256,112,49718,2,0,L|256:12,2,100,0|0|2,0:0|0:0|0:0,0:0:0:0:
176,244,50392,2,0,L|92:316,2,100,0|0|2,0:0|0:0|0:0,0:0:0:0:
392,92,51066,6,0,P|456:100|476:160,1,100
400,192,51403,1,0,0:0:0:0:
320,288,51572,1,0,0:0:0:0:
200,324,51741,1,2,0:0:0:0:
112,232,52078,6,0,P|40:196|32:120,1,150
152,116,52583,2,0,P|228:88|268:108,1,100
220,200,53089,1,0,0:0:0:0:
228,300,53257,2,0,P|284:292|308:256,1,100,0|2,0:0|0:0,0:0:0:0:
364,52,53763,6,2,P|416:88|440:128,1,100
328,172,54100,2,0,P|276:144|220:152,2,100,2|0|0,0:0|0:0|0:0,0:0:0:0:
252,268,54606,2,0,P|268:324|232:364,2,100,2|0|0,0:0|0:0|0:0,0:0:0:0:
148,304,55111,2,0,P|120:360|64:368,1,100,2|0,0:0|0:0,0:0:0:0:
44,264,55448,5,2,0:0:0:0:
24,248,55533,1,0,0:0:0:0:
0,228,55617,1,0,0:0:0:0:
108,200,55785,1,2,0:0:0:0:
88,180,55870,1,0,0:0:0:0:
64,160,55954,1,0,0:0:0:0:
192,176,56123,1,2,0:0:0:0:
192,148,56207,1,0,0:0:0:0:
192,120,56291,1,0,0:0:0:0:
276,200,56460,1,2,0:0:0:0:
296,180,56545,1,0,0:0:0:0:
320,160,56629,1,0,0:0:0:0:
340,264,56797,1,2,0:0:0:0:
360,248,56882,1,0,0:0:0:0:
384,228,56966,1,0,0:0:0:0:
364,76,57134,5,0,0:0:0:0:
276,8,57302,2,0,P|252:56|256:104,1,100,0|2,0:0|0:0,0:0:0:0:
64,168,57808,1,0,0:0:0:0:
8,264,57977,2,0,P|68:276|124:256,1,100,0|2,0:0|0:0,0:0:0:0:
400,256,58482,1,0,0:0:0:0:
408,368,58651,2,0,P|468:344|496:312,1,100,0|8,0:0|0:0,0:0:0:0:
176,336,59156,6,0,P|124:352|68:340,1,100
120,228,59493,1,0,0:0:0:0:
72,140,59662,1,0,0:0:0:0:
172,148,59830,1,2,0:0:0:0:
368,268,60167,1,0,0:0:0:0:
464,196,60336,1,0,0:0:0:0:
352,152,60505,1,8,0:0:0:0:
236,56,60842,2,0,P|188:80|148:136,1,100
264,176,61179,2,0,P|284:228|248:268,2,100
152,216,61684,5,2,0:0:0:0:
424,56,62021,1,0,0:0:0:0:
424,164,62190,2,0,P|424:216|404:260,2,100,0|2|0,0:0|0:0|0:0,0:0:0:0:
308,184,62696,2,0,P|308:244|276:296,2,100,0|2|0,0:0|0:0|0:0,0:0:0:0:
192,216,63201,2,0,P|192:272|152:308,1,100,8|0,0:0|0:0,0:0:0:0:
92,232,63538,2,0,P|28:212|12:168,1,100,2|0,0:0|0:0,0:0:0:0:
112,124,63875,2,0,P|156:88|180:36,1,100,2|0,0:0|0:0,0:0:0:0:
56,12,64212,1,2,0:0:0:0:
364,268,64550,6,0,P|416:292|464:284,1,100
432,172,64887,2,0,P|432:108|404:64,2,100,2|0|0,0:0|0:0|0:0,0:0:0:0:
316,144,65392,2,0,P|268:176|208:172,1,100
236,56,65729,2,0,P|180:32|116:36,1,100,0|8,0:0|0:0,0:0:0:0:
156,152,66066,5,0,0:0:0:0:
48,192,66403,2,0,P|112:260|152:268,1,100
156,152,66741,1,0,0:0:0:0:
176,272,66909,2,0,P|240:248|276:192,1,100,2|0,0:0|0:0,0:0:0:0:
156,152,67246,2,0,P|184:92|244:60,1,100
264,168,67583,1,2,0:0:0:0:
300,72,67920,6,0,P|352:48|420:48,1,100
376,156,68257,1,2,0:0:0:0:
136,308,68594,2,0,P|200:304|256:264,1,100
164,200,68932,1,2,0:0:0:0:
4,168,69269,2,0,P|88:192|136:184,1,100
80,56,69606,5,0,0:0:0:0:
432,320,69943,1,0,0:0:0:0:
336,248,70280,6,0,P|340:312|304:360,1,100,2|0,0:0|0:0,0:0:0:0:
236,284,70617,2,0,P|184:308|120:292,1,100
168,200,70954,2,0,P|112:184|88:148,2,100,2|0|0,0:0|0:0|0:0,0:0:0:0:
184,100,71460,2,0,P|228:68|276:60,1,100,0|2,0:0|0:0,0:0:0:0:
272,168,71965,2,0,P|276:228|332:276,2,100
388,180,72471,1,0,0:0:0:0:
308,60,72639,5,2,0:0:0:0:
108,200,72808,1,2,0:0:0:0:
160,328,72976,2,0,P|192:280|260:260,1,100,2|0,0:0|0:0,0:0:0:0:
256,360,73314,1,0,0:0:0:0:
380,304,73651,2,0,P|420:272|448:204,1,100,2|0,0:0|0:0,0:0:0:0:
316,188,74156,2,0,P|260:152|252:96,1,100,2|0,0:0|0:0,0:0:0:0:
392,84,74662,1,2,0:0:0:0:
440,252,74999,2,0,P|468:328|448:364,1,100,0|2,0:0|0:0,0:0:0:0:
352,328,75336,5,0,0:0:0:0:
256,232,75505,1,0,0:0:0:0:
196,352,75673,1,0,0:0:0:0:
256,88,76010,1,2,0:0:0:0:
100,156,76347,2,2,P|168:196|180:220,1,100
80,276,76684,2,0,P|48:316|52:364,1,100
164,340,77021,6,0,L|216:312,1,50,2|0,0:0|0:0,0:0:0:0:
284,280,77190,1,0,0:0:0:0:
232,152,77359,2,0,L|280:120,1,50,2|0,0:0|0:0,0:0:0:0:
348,80,77527,1,0,0:0:0:0:
420,212,77696,2,0,L|444:264,1,50,2|0,0:0|0:0,0:0:0:0:
472,344,77864,1,0,0:0:0:0:
352,348,78033,2,0,L|296:348,1,50,2|0,0:0|0:0,0:0:0:0:
212,348,78201,1,0,0:0:0:0:
64,280,78370,1,2,0:0:0:0:
132,80,78538,6,0,P|200:68|248:92,1,100,0|2,0:0|0:0,0:0:0:0:
180,192,78875,2,0,P|152:268|168:328,1,100
280,272,79212,1,2,0:0:0:0:
448,208,79381,2,0,P|440:136|420:96,1,100
328,184,79718,2,0,L|224:200,1,100
68,220,80055,1,2,0:0:0:0:
224,88,80224,1,0,0:0:0:0:
388,120,80392,2,0,L|392:232,1,100,0|2,0:0|0:0,0:0:0:0:
252,328,80729,5,0,0:0:0:0:
120,180,80898,1,0,0:0:0:0:
292,160,81066,2,0,L|220:228,2,100,0|0|2,0:0|0:0|0:0,0:0:0:0:
448,352,81741,2,0,P|470:307|470:257,1,100,0|2,0:0|0:0,0:0:0:0:
352,280,82078,2,0,P|296:296|212:276,1,100
288,176,82415,1,0,0:0:0:0:
36,328,82752,1,2,0:0:0:0:
136,268,83089,2,0,P|80:224|44:212,1,100,0|2,0:0|0:0,0:0:0:0:
348,68,83594,1,0,0:0:0:0:
216,344,83932,6,0,L|132:268,1,100,0|2,0:0|0:0,0:0:0:0:
308,344,84269,2,0,L|396:256,1,100
256,244,84606,2,0,L|256:140,1,100,2|0,0:0|0:0,0:0:0:0:
256,24,84943,1,0,0:0:0:0:
92,24,85111,1,0,0:0:0:0:
260,356,85448,1,2,0:0:0:0:
428,24,85785,1,0,0:0:0:0:
96,192,86123,6,0,P|64:248|64:296,1,100
172,272,86460,2,0,P|240:308|272:292,1,100
248,188,86797,1,2,0:0:0:0:
320,92,86965,2,0,P|388:108|408:144,2,100,0|0|2,0:0|0:0|0:0,0:0:0:0:
320,208,87471,2,0,L|316:320,1,100
256,104,87976,5,0,0:0:0:0:
260,280,88145,1,2,0:0:0:0:
336,152,88314,1,0,0:0:0:0:
180,232,88482,1,0,0:0:0:0:
336,232,88651,1,2,0:0:0:0:
180,152,88819,1,0,0:0:0:0:
256,192,88988,1,0,0:0:0:0:
104,280,89156,1,0,0:0:0:0:
256,352,89325,5,0,0:0:0:0:
420,288,89493,1,2,0:0:0:0:
388,88,89830,2,0,P|379:136|346:173,1,100,0|2,0:0|0:0,0:0:0:0:
280,88,90167,1,0,0:0:0:0:
124,160,90336,1,0,0:0:0:0:
160,328,90505,2,0,P|220:348|272:336,1,100,2|0,0:0|0:0,0:0:0:0:
224,240,90842,1,2,0:0:0:0:
440,240,91010,5,0,0:0:0:0:
456,216,91094,1,0,0:0:0:0:
468,192,91179,1,0,0:0:0:0:
472,164,91263,1,0,0:0:0:0:
472,136,91347,1,0,0:0:0:0:
468,108,91432,1,0,0:0:0:0:
456,80,91516,1,0,0:0:0:0:
352,148,91684,1,0,0:0:0:0:
96,280,91853,5,4,0:0:0:0:
436,84,95898,5,4,0:0:0:0:
176,80,99943,6,0,L|176:24,1,50,8|0,0:0|0:0,0:0:0:0:
124,120,100111,2,0,L|72:108,1,50
152,180,100280,2,0,L|128:224,1,50,2|0,0:0|0:0,0:0:0:0:
216,176,100448,2,0,L|240:220,1,50
232,116,100617,2,0,L|280:104,1,50,8|0,0:0|0:0,0:0:0:0:
384,152,100954,2,0,L|432:120,1,50,8|0,0:0|0:0,0:0:0:0:
384,216,101123,2,0,L|448:200,1,50
360,276,101291,1,2,0:0:0:0:
396,288,101375,1,0,0:0:0:0:
316,316,101460,2,0,L|344:360,1,50
256,336,101628,2,0,L|256:388,1,50,8|0,0:0|0:0,0:0:0:0:
112,264,101965,6,0,L|56:304,1,50,8|0,0:0|0:0,0:0:0:0:
72,212,102134,1,0,0:0:0:0:
44,224,102218,1,0,0:0:0:0:
48,152,102302,2,0,L|-12:156,1,50,2|0,0:0|0:0,0:0:0:0:
80,96,102471,1,0,0:0:0:0:
56,84,102555,1,0,0:0:0:0:
128,56,102639,2,0,L|88:8,1,50,8|0,0:0|0:0,0:0:0:0:
324,56,102976,1,8,0:0:0:0:
344,24,103061,1,0,0:0:0:0:
376,88,103145,2,0,L|420:56,1,50
420,136,103314,1,2,0:0:0:0:
448,136,103398,1,0,0:0:0:0:
376,184,103482,2,0,L|416:216,1,50
324,216,103651,1,8,0:0:0:0:
340,244,103735,1,0,0:0:0:0:
160,140,103988,6,0,L|96:156,1,50,8|0,0:0|0:0,0:0:0:0:
48,240,104156,2,0,L|40:296,1,50
132,228,104325,2,0,L|172:268,1,50,2|0,0:0|0:0,0:0:0:0:
168,344,104493,2,0,P|224:324|248:276,1,100,0|8,0:0|0:0,0:0:0:0:
324,128,104999,1,8,0:0:0:0:
296,140,105083,1,0,0:0:0:0:
424,172,105167,1,0,0:0:0:0:
436,196,105251,1,0,0:0:0:0:
332,240,105335,1,2,0:0:0:0:
316,264,105420,1,0,0:0:0:0:
220,348,105505,2,0,P|196:296|200:224,2,100,0|8|0,0:0|0:0|0:0,0:0:0:0:
132,160,106010,6,0,L|132:224,1,50,8|0,0:0|0:0,0:0:0:0:
80,124,106179,2,0,L|28:148,1,50
104,68,106347,2,0,L|68:32,1,50,2|0,0:0|0:0,0:0:0:0:
168,68,106516,2,0,L|200:28,1,50
188,128,106684,2,0,L|236:156,1,50,8|0,0:0|0:0,0:0:0:0:
340,92,107021,1,8,0:0:0:0:
364,104,107106,1,0,0:0:0:0:
384,128,107190,1,0,0:0:0:0:
392,156,107274,1,0,0:0:0:0:
392,184,107359,1,2,0:0:0:0:
384,216,107443,1,0,0:0:0:0:
368,240,107527,1,0,0:0:0:0:
352,260,107611,1,0,0:0:0:0:
336,284,107696,2,0,P|260:332|240:336,1,100,8|0,0:0|0:0,0:0:0:0:
36,336,108033,5,4,0:0:0:0:
464,48,110476,5,0,0:0:0:0:
464,48,110561,1,0,0:0:0:0:
464,48,110645,1,0,0:0:0:0:
464,48,110729,1,4,0:0:0:0:
64,288,113173,6,0,L|96:328,2,50
24,356,113426,1,4,0:0:0:0:
256,192,114100,12,4,116123,0:0:0:0:
96,132,116460,6,0,P|156:80|196:72,1,100
200,196,116797,2,0,P|160:248|152:292,1,100
272,296,117134,1,8,0:0:0:0:
452,328,117471,2,0,P|496:248|496:224,1,100
380,228,117808,2,8,P|320:244|268:208,1,100
336,124,118145,1,0,0:0:0:0:
220,108,118314,2,8,P|188:156|116:196,1,100
112,76,118651,1,8,0:0:0:0:
102,345,118819,6,0,L|56:328,1,50,8|0,0:0|0:0,0:0:0:0:
176,348,118988,2,0,L|232:328,1,50
100,272,119156,2,0,L|40:248,1,50,2|0,0:0|0:0,0:0:0:0:
180,276,119325,2,0,L|232:252,1,50
144,192,119493,2,0,P|100:152|92:112,1,100,8|0,0:0|0:0,0:0:0:0:
212,96,119830,1,2,0:0:0:0:
448,84,120167,2,0,L|428:136,1,50,8|0,0:0|0:0,0:0:0:0:
360,132,120336,2,0,L|320:216,1,50
272,176,120505,2,0,L|240:228,1,50,2|0,0:0|0:0,0:0:0:0:
176,220,120673,2,0,L|144:272,1,50
80,260,120842,1,8,0:0:0:0:
136,348,121010,2,0,P|216:352|256:336,1,100,0|2,0:0|0:0,0:0:0:0:
372,344,121516,5,8,0:0:0:0:
360,320,121600,1,0,0:0:0:0:
344,300,121684,1,0,0:0:0:0:
328,280,121769,1,0,0:0:0:0:
304,264,121853,1,2,0:0:0:0:
280,252,121937,1,0,0:0:0:0:
248,240,122021,1,0,0:0:0:0:
220,232,122106,1,0,0:0:0:0:
192,224,122190,1,8,0:0:0:0:
32,288,122359,1,0,0:0:0:0:
112,136,122527,1,2,0:0:0:0:
408,52,122864,5,8,0:0:0:0:
428,68,122948,1,0,0:0:0:0:
444,88,123033,1,0,0:0:0:0:
456,112,123117,1,0,0:0:0:0:
472,132,123201,1,2,0:0:0:0:
476,160,123285,1,0,0:0:0:0:
484,188,123370,1,0,0:0:0:0:
488,216,123454,1,0,0:0:0:0:
360,176,123538,2,0,L|272:228,1,100,8|0,0:0|0:0,0:0:0:0:
256,76,123875,1,2,0:0:0:0:
60,192,124212,6,0,L|36:248,1,50,8|0,0:0|0:0,0:0:0:0:
136,192,124381,2,0,L|160:128,1,50
212,192,124550,2,0,L|192:252,1,50,2|0,0:0|0:0,0:0:0:0:
284,192,124718,2,0,L|304:140,2,50,0|0|8,0:0|0:0|0:0,0:0:0:0:
480,192,125055,1,0,0:0:0:0:
384,328,125224,1,2,0:0:0:0:
184,328,125561,6,0,L|136:284,1,50,8|0,0:0|0:0,0:0:0:0:
196,236,125729,2,0,L|152:192,1,50
208,136,125898,2,0,L|160:88,1,50,2|0,0:0|0:0,0:0:0:0:
224,40,126066,2,0,L|284:40,1,50
332,148,126235,1,8,0:0:0:0:
440,144,126403,2,0,P|432:200|396:236,1,100,0|2,0:0|0:0,0:0:0:0:
276,248,126909,6,0,L|224:276,1,50,8|0,0:0|0:0,0:0:0:0:
340,280,127078,2,0,L|368:336,1,50
360,212,127246,2,0,L|405:191,1,50,2|0,0:0|0:0,0:0:0:0:
300,184,127415,2,0,L|272:132,1,50
164,72,127583,2,0,P|164:144|144:184,1,100,8|0,0:0|0:0,0:0:0:0:
56,112,127920,2,8,P|36:172|36:224,2,100,8|8|8,0:0|0:0|0:0,0:0:0:0:
236,320,128594,5,8,0:0:0:0:
400,244,128932,2,0,L|452:204,1,50
360,184,129100,1,0,0:0:0:0:
344,164,129184,1,0,0:0:0:0:
304,108,129269,2,0,L|260:140,1,50
184,196,129437,1,0,0:0:0:0:
160,212,129521,1,0,0:0:0:0:
84,108,129606,6,4,P|152:72|216:96,2,150,4|0|4,0:0|0:0|0:0,0:0:0:0:
172,288,130617,2,4,P|232:344|272:344,1,100
424,232,131291,2,4,P|468:160|456:64,2,150,4|0|4,0:0|0:0|0:0,0:0:0:0:
364,136,132302,2,4,P|256:140|220:164,2,150,4|0|4,0:0|0:0|0:0,0:0:0:0:
312,276,133314,2,4,P|292:328|240:344,1,100
108,328,133988,2,4,P|84:224|100:168,2,150,4|0|4,0:0|0:0|0:0,0:0:0:0:
248,248,134999,2,4,P|324:148|332:88,2,150,4|0|4,0:0|0:0|0:0,0:0:0:0:
192,124,136010,1,0,0:0:0:0:
116,268,136179,6,0,L|92:320,1,50
176,344,136347,2,0,L|228:364,1,50
252,292,136516,2,0,L|276:240,1,50
208,216,136684,2,0,L|156:192,1,50
92,160,136853,2,0,L|32:132,1,50
76,72,137021,2,0,L|108:20,2,50,0|0|4,0:0|0:0|0:0,0:0:0:0:
224,112,137527,2,0,L|276:144,1,50
348,180,137696,2,4,P|432:208|464:268,2,150,4|0|4,0:0|0:0|0:0,0:0:0:0:
320,300,138707,2,4,P|276:340|232:344,1,100
232,228,139044,1,4,0:0:0:0:
256,192,140392,12,0,141741,0:0:0:0:
180,148,142078,5,8,0:0:0:0:
76,236,142415,2,2,P|160:288|232:272,2,150
180,148,143089,2,0,P|256:148|288:128,1,100,2|0,0:0|0:0,0:0:0:0:
220,44,143426,2,0,P|144:28|104:48,1,100,2|0,0:0|0:0,0:0:0:0:
296,132,143763,2,0,P|368:92|412:100,1,100,2|0,0:0|0:0,0:0:0:0:
396,224,144100,2,0,P|340:264|296:264,1,100
56,312,144437,6,0,P|32:260|44:216,1,100,2|0,0:0|0:0,0:0:0:0:
156,252,144774,1,0,0:0:0:0:
356,120,144943,1,0,0:0:0:0:
136,52,145111,2,0,P|76:108|68:160,1,100,2|0,0:0|0:0,0:0:0:0:
196,172,145448,2,0,P|256:220|260:260,1,100
152,284,145785,5,2,0:0:0:0:
148,148,145954,1,0,0:0:0:0:
152,284,146123,1,2,0:0:0:0:
208,172,146291,1,0,0:0:0:0:
152,284,146460,1,2,0:0:0:0:
256,212,146628,1,0,0:0:0:0:
152,284,146797,1,2,0:0:0:0:
276,272,146965,1,0,0:0:0:0:
152,284,147134,1,2,0:0:0:0:
264,340,147302,1,0,0:0:0:0:
152,284,147471,1,0,0:0:0:0:
156,84,147639,6,2,P|256:76|336:144,1,200,2|2,0:0|0:0,0:0:0:0:
216,216,148145,2,2,P|232:272|296:288,1,100
328,192,148482,2,2,P|364:124|340:64,1,100
232,104,148819,1,8,0:0:0:0:
96,212,149325,2,2,P|56:296|72:344,1,100
184,312,149662,1,2,0:0:0:0:
256,192,149830,12,4,150673,0:0:0:0:
120,24,151010,6,0,L|192:92,1,100,2|0,0:0|0:0,0:0:0:0:
324,296,151347,1,2,0:0:0:0:
320,92,151516,1,2,0:0:0:0:
192,296,151684,1,2,0:0:0:0:
396,192,151853,1,2,0:0:0:0:
128,192,152021,2,0,L|244:192,1,100,2|0,0:0|0:0,0:0:0:0:
396,192,152359,5,2,0:0:0:0:
228,192,152527,2,0,P|196:252|128:264,1,100,2|0,0:0|0:0,0:0:0:0:
104,152,152864,2,0,P|68:108|56:60,1,100
192,40,153201,2,2,P|312:56|336:80,2,150,2|2|2,0:0|0:0|0:0,0:0:0:0:
236,168,153875,2,0,P|204:240|216:280,1,100,2|0,0:0|0:0,0:0:0:0:
368,264,154212,1,2,0:0:0:0:
404,88,154381,1,0,0:0:0:0:
180,48,154550,2,0,P|100:88|88:120,1,100,2|0,0:0|0:0,0:0:0:0:
200,176,154887,1,0,0:0:0:0:
100,328,155055,1,0,0:0:0:0:
312,324,155224,6,0,P|352:252|344:216,1,100,2|0,0:0|0:0,0:0:0:0:
212,220,155561,2,0,P|200:136|216:108,1,100
372,164,155898,2,0,P|400:80|392:40,1,100,2|0,0:0|0:0,0:0:0:0:
260,84,156235,1,0,0:0:0:0:
48,152,156403,1,0,0:0:0:0:
64,320,156572,2,0,P|124:352|168:348,1,100,2|0,0:0|0:0,0:0:0:0:
144,232,156909,2,0,P|200:260|248:252,1,100,2|0,0:0|0:0,0:0:0:0:
216,140,157246,2,0,P|280:164|324:156,1,100,2|0,0:0|0:0,0:0:0:0:
288,56,157583,2,0,P|344:32|416:44,1,100,2|0,0:0|0:0,0:0:0:0:
360,156,157920,2,0,P|412:212|412:256,1,100,2|0,0:0|0:0,0:0:0:0:
100,332,158426,5,2,0:0:0:0:
256,192,158763,1,2,0:0:0:0:
256,352,158932,1,2,0:0:0:0:
256,192,159100,1,2,0:0:0:0:
416,192,159269,1,10,0:0:0:0:
256,192,159437,1,2,0:0:0:0:
256,32,159606,1,10,0:0:0:0:
76,124,160111,2,0,P|16:192|24:232,1,100
148,244,160448,1,0,0:0:0:0:
360,108,160617,1,4,0:0:0:0:
120,104,163314,6,0,L|100:176,1,62.5,2|0,0:0|0:0,0:0:0:0:
192,164,163482,2,0,L|168:252,1,62.5
260,224,163651,2,0,L|236:304,1,62.5
440,324,163988,1,2,0:0:0:0:
304,64,164241,1,2,0:0:0:0:
176,328,164493,1,2,0:0:0:0:
84,240,164662,6,0,L|48:172,1,62.5,2|0,0:0|0:0,0:0:0:0:
20,112,164830,1,0,0:0:0:0:
200,88,164999,2,0,L|264:156,1,62.5,2|0,0:0|0:0,0:0:0:0:
312,196,165167,1,0,0:0:0:0:
452,64,165336,2,0,L|464:144,1,62.5,2|0,0:0|0:0,0:0:0:0:
480,216,165505,1,0,0:0:0:0:
368,320,165673,2,0,P|284:352|248:324,1,125
120,224,166010,6,0,L|204:224,1,62.5,2|0,0:0|0:0,0:0:0:0:
204,144,166179,2,0,L|276:144,1,62.5
272,60,166347,2,0,L|334:60,1,62.5
408,224,166684,1,2,0:0:0:0:
204,348,166937,1,2,0:0:0:0:
176,108,167190,1,2,0:0:0:0:
376,136,167359,5,2,0:0:0:0:
336,212,167443,2,0,L|296:280,1,62.5
172,232,167695,1,2,0:0:0:0:
116,164,167780,2,0,L|72:100,1,62.5
264,56,168033,1,2,0:0:0:0:
352,56,168117,2,0,L|424:56,1,62.5
404,224,168370,1,2,0:0:0:0:
348,292,168454,2,0,L|300:348,1,62.5
128,304,168707,1,2,0:0:0:0:
92,232,168791,2,0,L|56:172,1,62.5
312,132,169212,5,2,0:0:0:0:
432,136,169381,2,0,P|356:228|360:268,1,125,0|8,0:0|0:0,0:0:0:0:
476,252,169718,2,2,P|444:336|400:360,1,125
356,248,170055,2,2,P|292:220|228:232,1,125
280,356,170392,1,2,0:0:0:0:
112,220,170898,6,2,P|52:144|56:128,1,125
184,128,171235,1,0,0:0:0:0:
256,192,171403,12,4,172246,0:0:0:0:
184,312,172583,5,2,0:0:0:0:
88,120,172920,2,2,P|144:68|208:64,1,100
200,192,173257,2,2,P|252:224|296:220,1,100
288,92,173594,1,8,0:0:0:0:
408,288,173932,5,2,0:0:0:0:
376,180,174100,1,2,0:0:0:0:
344,172,174184,1,0,0:0:0:0:
308,248,174269,1,0,0:0:0:0:
280,240,174353,1,0,0:0:0:0:
232,308,174437,1,0,0:0:0:0:
208,296,174521,1,0,0:0:0:0:
88,228,174774,2,2,P|176:172|200:136,1,150
72,88,175280,1,2,0:0:0:0:
236,92,175448,6,0,P|292:76|300:84,2,50,2|0|0,0:0|0:0|0:0,0:0:0:0:
312,188,175785,2,0,P|280:228|264:228,2,50,2|0|0,0:0|0:0|0:0,0:0:0:0:
212,148,176123,2,0,P|160:160|156:172,2,50,2|0|0,0:0|0:0|0:0,0:0:0:0:
220,252,176460,1,0,0:0:0:0:
392,324,176628,1,0,0:0:0:0:
392,104,176797,5,2,0:0:0:0:
376,80,176881,1,0,0:0:0:0:
312,128,176965,1,0,0:0:0:0:
300,104,177050,1,0,0:0:0:0:
240,156,177134,1,0,0:0:0:0:
224,136,177218,1,0,0:0:0:0:
372,256,177471,2,2,P|312:312|244:332,2,150
252,216,178145,6,0,P|208:244|180:236,1,50,2|0,0:0|0:0,0:0:0:0:
196,168,178314,1,0,0:0:0:0:
300,72,178482,2,0,P|356:88|360:104,1,50,2|0,0:0|0:0,0:0:0:0:
316,152,178651,1,0,0:0:0:0:
280,292,178819,2,0,P|252:336|236:332,1,50,2|0,0:0|0:0,0:0:0:0:
208,280,178988,1,0,0:0:0:0:
92,200,179156,2,0,P|44:180|36:160,1,50,2|0,0:0|0:0,0:0:0:0:
96,128,179325,1,0,0:0:0:0:
228,56,179493,2,0,P|280:36|308:56,1,50,2|0,0:0|0:0,0:0:0:0:
284,108,179662,1,0,0:0:0:0:
432,284,179999,5,2,0:0:0:0:
300,344,180167,2,0,P|240:360|192:340,1,100,0|2,0:0|0:0,0:0:0:0:
252,248,180505,2,2,P|220:188|220:156,1,100
348,160,180842,2,2,P|348:80|320:44,1,100
232,128,181179,1,8,0:0:0:0:
96,248,181684,2,2,P|120:320|156:352,1,100
220,248,182021,2,0,P|216:188|184:152,1,100,2|4,0:0|0:0,0:0:0:0:
256,192,182274,12,4,184887,0:0:0:0:
