osu file format v12

[General]
AudioFilename: last remote.mp3
AudioLeadIn: 0
PreviewTime: 140392
Countdown: 0
SampleSet: Soft
StackLeniency: 0.7
Mode: 0
LetterboxInBreaks: 1
WidescreenStoryboard: 0

[Editor]
Bookmarks: 8257,16347,32527,48707,59156,70280,91853,99943,108033,122274,129606,140392,141741,163314,184887
DistanceSpacing: 1.2
BeatDivisor: 4
GridSize: 8

[Metadata]
Title:Last Remote
TitleUnicode:ラストリモート
Artist:ZUN
ArtistUnicode:ZUN
Creator:Lunaties
Version:Hard
Source:Touhou
Tags:th11 sa subterranean animism komeiji koishi vhy hoshisorakiseki
BeatmapID:263761
BeatmapSetID:99047

[Difficulty]
HPDrainRate:5
CircleSize:4
OverallDifficulty:6
ApproachRate:7
SliderMultiplier:1.4
SliderTickRate:1

[Events]
//Background and Video events
0,0,"K.jpg",0,0
//Break Periods
2,48906,55897
2,92053,97020
//Storyboard Layer 0 (Background)
//Storyboard Layer 1 (Fail)
//Storyboard Layer 2 (Pass)
//Storyboard Layer 3 (Foreground)
//Storyboard Sound Samples
//Background Colour Transformations
3,100,163,162,255

[TimingPoints]
168,337.078651685393,4,2,0,85,1,0
32527,-100,4,2,0,65,0,0
47948,-100,4,2,0,60,0,0
48791,-100,4,2,0,85,0,0
67920,-100,4,2,0,50,0,0
69606,-100,4,2,0,55,0,0
70027,-100,4,2,0,85,0,0
70617,-100,4,2,0,60,0,0
70701,-100,4,2,0,85,0,0
71123,-100,4,2,0,65,0,0
71207,-100,4,2,0,85,0,0
71965,-100,4,2,0,65,0,0
72050,-100,4,2,0,85,0,0
72471,-100,4,2,0,65,0,0
72555,-100,4,2,0,85,0,0
73314,-100,4,2,0,65,0,0
73398,-100,4,2,0,85,0,0
73819,-100,4,2,0,65,0,0
73903,-100,4,2,0,85,0,0
74662,-100,4,2,0,65,0,0
74746,-100,4,2,0,85,0,0
75167,-100,4,2,0,65,0,0
75252,-100,4,2,0,85,0,0
76010,-100,4,2,0,65,0,0
76094,-100,4,2,0,85,0,0
76516,-100,4,2,0,65,0,0
76600,-100,4,2,0,85,0,0
77359,-100,4,2,0,65,0,0
77443,-100,4,2,0,85,0,0
77864,-100,4,2,0,65,0,0
77948,-100,4,2,0,85,0,0
78707,-100,4,2,0,65,0,0
78791,-100,4,2,0,85,0,0
79212,-100,4,2,0,65,0,0
79297,-100,4,2,0,85,0,0
80055,-100,4,2,0,65,0,0
80139,-100,4,2,0,85,0,0
80561,-100,4,2,0,65,0,0
80645,-100,4,2,0,85,0,0
81403,-100,4,2,0,65,0,0
81488,-100,4,2,0,85,0,0
81909,-100,4,2,0,65,0,0
81993,-100,4,2,0,85,0,0
82752,-100,4,2,0,65,0,0
82836,-100,4,2,0,85,0,0
83257,-100,4,2,0,65,0,0
83342,-100,4,2,0,85,0,0
84100,-100,4,2,0,65,0,0
84184,-100,4,2,0,85,0,0
84606,-100,4,2,0,65,0,0
84690,-100,4,2,0,85,0,0
85448,-100,4,2,0,65,0,0
85533,-100,4,2,0,85,0,0
85954,-100,4,2,0,65,0,0
86038,-100,4,2,0,85,0,0
86797,-100,4,2,0,65,0,0
86881,-100,4,2,0,85,0,0
87302,-100,4,2,0,65,0,0
87387,-100,4,2,0,85,0,0
88145,-100,4,2,0,65,0,0
88229,-100,4,2,0,85,0,0
88651,-100,4,2,0,65,0,0
88735,-100,4,2,0,85,0,0
97920,-100,4,2,0,80,0,0
108033,-100,4,2,0,65,0,0
128257,-100,4,2,0,75,0,0
129606,-100,4,2,0,85,0,0
140392,-200,4,2,0,85,0,0
141741,-100,4,2,0,85,0,1
149830,-200,4,2,0,85,0,1
150673,-100,4,2,0,85,0,1
163229,-100,4,2,0,55,0,0
163314,-100,4,2,0,85,0,1
171403,-200,4,2,0,85,0,1
172246,-100,4,2,0,85,0,1
184887,-100,4,2,0,85,0,0

[Colours]
Combo1 : 128,128,255
Combo2 : 0,128,128
Combo3 : 255,128,192
Combo4 : 128,255,255

[HitObjects]
304,56,8257,2,0,B|448:56,2,140,2|0|0,0:0|0:0|0:0,0:0:0:0:
160,56,9269,2,0,P|96:104|88:160,1,140,2|0,0:0|0:0,0:0:0:0:
136,208,9774,1,0,0:0:0:0:
200,240,9943,1,0,0:0:0:0:
64,280,10280,6,0,B|184:360|336:312,1,280,2|0,0:0|0:0,0:0:0:0:
392,184,11291,1,2,0:0:0:0:
480,296,11628,2,0,B|480:376,2,70
344,256,12302,6,0,B|288:200|328:128,1,140,6|0,0:0|0:0,0:0:0:0:
368,72,12808,1,0,0:0:0:0:
432,40,12976,1,0,0:0:0:0:
288,40,13314,2,0,P|208:48|168:96,1,140,2|0,0:0|0:0,0:0:0:0:
248,112,13819,1,0,0:0:0:0:
192,160,13988,1,0,0:0:0:0:
160,296,14325,6,0,B|112:232|64:264|32:200,2,140,2|0|0,0:0|0:0|0:0,0:0:0:0:
296,280,15336,2,0,B|344:224,2,70,6|0|0,0:0|0:0|0:0,0:0:0:0:
368,296,15842,2,0,B|320:352,2,70,4|0|0,0:0|0:0|0:0,0:0:0:0:
424,248,16347,5,6,0:0:0:0:
456,112,16684,1,0,0:0:0:0:
344,32,17021,1,8,0:0:0:0:
456,112,17359,1,8,0:0:0:0:
320,152,17696,1,0,0:0:0:0:
304,224,17864,1,0,0:0:0:0:
248,176,18033,2,0,B|192:168|216:120|120:120,1,140,2|8,0:0|0:0,0:0:0:0:
104,256,18707,5,8,0:0:0:0:
152,312,18875,1,0,0:0:0:0:
80,328,19044,1,0,0:0:0:0:
216,344,19381,2,0,P|248:328|272:296,1,70,2|0,0:0|0:0,0:0:0:0:
208,264,19718,2,0,L|208:192,2,70,8|0|8,0:0|0:0|0:0,0:0:0:0:
272,144,20392,6,0,B|208:96|136:144,1,140,6|0,0:0|0:0,0:0:0:0:
208,264,21066,1,8,0:0:0:0:
141,140,21403,2,0,B|208:96|272:144,1,140,10|0,0:0|0:0,0:0:0:0:
384,224,22078,1,0,0:0:0:0:
400,296,22246,1,0,0:0:0:0:
456,248,22415,5,8,0:0:0:0:
344,160,22752,2,0,B|296:88|200:88,1,140,10|0,0:0|0:0,0:0:0:0:
160,112,23257,1,0,0:0:0:0:
120,168,23426,2,0,L|56:296,1,140,2|8,0:0|0:0,0:0:0:0:
128,312,23932,1,0,0:0:0:0:
192,280,24100,1,8,0:0:0:0:
192,352,24269,2,0,P|224:344|256:312,1,70,2|4,0:0|0:0,0:0:0:0:
384,280,24774,5,0,0:0:0:0:
432,224,24943,1,0,0:0:0:0:
416,152,25111,1,8,0:0:0:0:
320,248,25448,2,0,P|288:208|296:120,1,140,10|0,0:0|0:0,0:0:0:0:
360,104,25954,1,0,0:0:0:0:
400,48,26123,1,0,0:0:0:0:
264,48,26460,6,0,B|120:48,2,140,10|8|2,0:0|0:0|0:0,0:0:0:0:
400,48,27471,2,0,P|448:96|448:176,1,140,2|8,0:0|0:0,0:0:0:0:
408,224,27976,1,0,0:0:0:0:
336,224,28145,2,0,L|192:224,1,140,10|0,0:0|0:0,0:0:0:0:
160,88,28819,5,0,0:0:0:0:
96,120,28988,1,0,0:0:0:0:
64,184,29156,2,0,P|64:224|104:328,1,140,10|8,0:0|0:0,0:0:0:0:
160,280,29662,1,0,0:0:0:0:
224,312,29830,2,0,L|280:368,2,70,2|0|2,0:0|0:0|0:0,0:0:0:0:
160,280,30336,1,0,0:0:0:0:
224,240,30505,2,0,P|216:192|256:112,2,140,10|8|2,0:0|0:0|0:0,0:0:0:0:
360,280,31516,2,0,L|432:304,2,70,2|0|10,0:0|0:0|0:0,0:0:0:0:
440,168,32190,1,10,0:0:0:0:
360,56,32527,6,0,L|288:192,2,140,4|2|2,0:0|0:0|0:0,0:0:0:0:
296,24,33875,1,0,0:0:0:0:
224,8,34212,1,0,0:0:0:0:
152,24,34550,1,2,0:0:0:0:
120,88,34887,1,2,0:0:0:0:
120,88,35224,6,0,L|256:160,2,140,4|2|2,0:0|0:0|0:0,0:0:0:0:
88,152,36572,1,0,0:0:0:0:
72,224,36909,1,0,0:0:0:0:
88,296,37246,1,2,0:0:0:0:
152,328,37583,1,2,0:0:0:0:
152,328,37920,6,0,L|224:192,2,140,4|2|2,0:0|0:0|0:0,0:0:0:0:
216,360,39269,1,0,0:0:0:0:
288,376,39606,1,0,0:0:0:0:
360,360,39943,1,2,0:0:0:0:
392,296,40280,1,2,0:0:0:0:
392,296,40617,6,0,L|256:224,2,140,4|2|2,0:0|0:0|0:0,0:0:0:0:
424,232,41965,1,0,0:0:0:0:
440,160,42302,1,0,0:0:0:0:
424,88,42639,1,2,0:0:0:0:
360,56,42976,1,2,0:0:0:0:
317,136,43314,6,0,P|291:234|200:280,1,210,6|0,0:0|0:0,0:0:0:0:
200,280,43988,1,0,0:0:0:0:
208,168,44325,1,0,0:0:0:0:
213,56,44662,6,0,P|121:101|96:200,1,210,2|0,0:0|0:0,0:0:0:0:
96,200,45336,1,0,0:0:0:0:
256,192,46010,12,0,47359,0:0:0:0:
192,64,48033,6,0,P|160:104|152:96,2,70,2|2|2,0:0|0:0|0:0,0:0:0:0:
312,120,48538,2,0,L|344:192,1,70,2|4,0:0|0:0,0:0:0:0:
256,192,56797,12,8,58819,0:0:0:0:
384,240,59156,6,0,P|360:288|344:296,2,70
344,152,59830,1,0,0:0:0:0:
432,112,60167,2,0,B|392:40|312:64,2,140,0|8|0,0:0|0:0|0:0,0:0:0:0:
40,304,61684,6,0,B|96:272|168:344,1,140,0|0,0:0|0:0,0:0:0:0:
304,288,62359,2,0,L|320:216,1,70
384,280,62696,2,0,L|368:208,1,70
448,232,63033,2,0,L|400:168,1,70,0|8,0:0|0:0,0:0:0:0:
328,88,63370,1,0,0:0:0:0:
328,88,63538,2,0,P|288:80|184:80,2,140
120,144,64550,6,0,L|96:224,1,70
184,192,64887,2,0,L|176:272,1,70
256,224,65224,2,0,L|264:296,1,70
401,254,65561,2,0,L|496:152,1,140,0|8,0:0|0:0,0:0:0:0:
496,152,66066,1,0,0:0:0:0:
296,56,66403,6,0,L|232:16,1,70
256,120,66741,2,0,L|184:104,1,70
256,192,67078,2,0,L|184:208,1,70
288,256,67415,2,0,L|224:296,1,70
256,192,67920,12,0,69269,0:0:0:0:
256,160,69606,5,8,0:0:0:0:
256,160,69943,1,8,0:0:0:0:
80,280,70280,6,0,P|144:240|224:264,1,140,0|8,0:0|0:0,0:0:0:0:
336,304,70954,2,0,L|272:376,2,70,0|8|0,0:0|0:0|0:0,0:0:0:0:
408,184,71628,2,0,L|440:40,1,140,0|8,0:0|0:0,0:0:0:0:
328,136,72302,2,0,P|288:96|248:80,2,70,0|8|0,0:0|0:0|0:0,0:0:0:0:
200,192,72976,6,0,L|160:336,1,140,0|8,0:0|0:0,0:0:0:0:
96,216,73651,1,0,0:0:0:0:
96,216,73819,2,0,L|72:144,1,70,8|0,0:0|0:0,0:0:0:0:
192,72,74325,2,0,L|328:136,1,140,0|8,0:0|0:0,0:0:0:0:
344,272,74999,1,0,0:0:0:0:
344,272,75167,2,0,L|280:312,1,70,8|0,0:0|0:0,0:0:0:0:
408,232,75673,6,0,P|440:160|432:88,2,140,0|8|0,0:0|0:0|0:0,0:0:0:0:
344,200,76516,2,0,L|272:184,1,70,8|0,0:0|0:0,0:0:0:0:
168,96,77021,2,0,P|216:56|296:56,2,140,0|8|0,0:0|0:0|0:0,0:0:0:0:
136,160,77864,2,0,L|152:232,1,70,8|0,0:0|0:0,0:0:0:0:
72,344,78370,5,0,0:0:0:0:
72,344,78707,2,0,P|136:328|208:360,1,140,8|0,0:0|0:0,0:0:0:0:
264,320,79212,2,0,L|270:250,1,70,8|0,0:0|0:0,0:0:0:0:
152,176,79718,1,0,0:0:0:0:
152,176,80055,2,0,P|232:128|304:144,1,140,8|0,0:0|0:0,0:0:0:0:
344,136,80561,2,0,L|328:204,1,70,8|0,0:0|0:0,0:0:0:0:
448,280,81066,5,0,0:0:0:0:
312,304,81403,1,8,0:0:0:0:
256,352,81572,1,0,0:0:0:0:
200,304,81741,1,0,0:0:0:0:
256,256,81909,1,8,0:0:0:0:
48,272,82415,2,0,L|104:144,1,140,0|8,0:0|0:0,0:0:0:0:
280,32,83257,6,0,P|360:80|432:72,1,140,8|0,0:0|0:0,0:0:0:0:
472,200,83932,2,0,L|384:224,1,70,0|8,0:0|0:0,0:0:0:0:
336,232,84269,2,0,L|424:256,1,70
472,272,84606,2,0,L|392:296,1,70,8|0,0:0|0:0,0:0:0:0:
336,304,84943,1,0,0:0:0:0:
280,264,85111,2,0,P|208:304|160:296,1,105,2|0,0:0|0:0,0:0:0:0:
160,304,85448,2,0,P|104:296|72:256,1,105,10|0,0:0|0:0,0:0:0:0:
72,224,85785,1,2,0:0:0:0:
72,152,85954,1,8,0:0:0:0:
136,120,86123,6,0,L|200:152,1,70,2|0,0:0|0:0,0:0:0:0:
208,80,86460,2,0,L|288:120,1,70,2|0,0:0|0:0,0:0:0:0:
280,40,86797,2,0,L|352:80,1,70,10|2,0:0|0:0,0:0:0:0:
400,120,87134,2,0,L|456:64,2,70,2|8|0,0:0|0:0|0:0,0:0:0:0:
424,184,87639,5,2,0:0:0:0:
296,232,87976,1,0,0:0:0:0:
344,288,88145,1,10,0:0:0:0:
272,304,88314,2,0,L|200:304,1,70,0|2,0:0|0:0,0:0:0:0:
144,264,88651,1,8,0:0:0:0:
112,200,88819,1,2,0:0:0:0:
184,200,88988,2,0,L|184:128,1,70,2|2,0:0|0:0,0:0:0:0:
256,192,89493,12,4,91853,0:0:0:0:
320,32,97920,6,0,L|312:72,3,35
272,40,98257,2,0,L|248:80,3,35
224,56,98594,2,0,L|184:80,3,35
192,72,98932,2,0,P|158:165|232:288,1,245
248,296,99606,2,0,B|320:272|304:312|360:304,1,105
376,288,99943,6,0,L|424:264,2,35,4|0|0,0:0|0:0|0:0,0:0:0:0:
376,192,100280,1,0,0:0:0:0:
304,128,100448,1,0,0:0:0:0:
376,56,100617,1,0,0:0:0:0:
448,128,100785,1,0,0:0:0:0:
376,192,100954,2,0,L|376:264,1,70
304,328,101291,1,0,0:0:0:0:
224,272,101460,1,2,0:0:0:0:
144,216,101628,1,2,0:0:0:0:
64,160,101797,6,0,P|92:139|126:133,1,70,2|4,0:0|0:0,0:0:0:0:
224,136,102134,1,0,0:0:0:0:
320,136,102302,1,0,0:0:0:0:
400,192,102471,1,0,0:0:0:0:
456,272,102639,1,0,0:0:0:0:
360,272,102808,1,0,0:0:0:0:
264,272,102976,2,0,L|184:272,1,70
128,192,103314,1,0,0:0:0:0:
72,112,103482,1,2,0:0:0:0:
32,200,103651,1,2,0:0:0:0:
128,192,103819,6,0,P|136:160|160:128,1,70,2|4,0:0|0:0,0:0:0:0:
232,64,104156,1,0,0:0:0:0:
328,64,104325,1,0,0:0:0:0:
280,144,104493,1,0,0:0:0:0:
232,64,104662,1,0,0:0:0:0:
328,64,104830,1,0,0:0:0:0:
281,144,104999,2,0,L|344:176,1,70
280,248,105336,2,0,L|216:288,2,70,0|2|2,0:0|0:0|0:0,0:0:0:0:
352,312,105842,6,0,P|384:288|384:256,1,70,2|4,0:0|0:0,0:0:0:0:
344,176,106179,1,0,0:0:0:0:
280,248,106347,1,0,0:0:0:0:
184,248,106516,1,0,0:0:0:0:
112,184,106684,1,0,0:0:0:0:
184,248,106853,2,0,L|184:320,1,70
104,264,107190,2,0,L|48:320,2,70,0|0|2,0:0|0:0|0:0,0:0:0:0:
24,208,107696,2,0,L|24:136,1,70,2|2,0:0|0:0,0:0:0:0:
168,56,108033,5,4,0:0:0:0:
240,96,108201,1,0,0:0:0:0:
240,176,108370,1,0,0:0:0:0:
168,216,108538,1,0,0:0:0:0:
96,176,108707,1,2,0:0:0:0:
96,96,108875,1,0,0:0:0:0:
168,136,109044,1,2,0:0:0:0:
312,136,109381,6,0,L|464:136,1,140,0|2,0:0|0:0,0:0:0:0:
312,136,110055,2,0,L|144:136,1,140,2|0,0:0|0:0,0:0:0:0:
344,328,110729,5,4,0:0:0:0:
272,288,110898,1,0,0:0:0:0:
272,208,111066,1,0,0:0:0:0:
344,168,111235,1,0,0:0:0:0:
416,208,111403,1,2,0:0:0:0:
416,288,111572,1,0,0:0:0:0:
344,248,111741,1,2,0:0:0:0:
200,248,112078,6,0,L|48:248,1,140,0|2,0:0|0:0,0:0:0:0:
200,248,112752,2,0,L|368:248,1,140,2|0,0:0|0:0,0:0:0:0:
296,32,113426,5,4,0:0:0:0:
392,88,113594,1,0,0:0:0:0:
296,144,113763,1,0,0:0:0:0:
192,192,113932,1,0,0:0:0:0:
296,240,114100,1,2,0:0:0:0:
392,296,114269,1,0,0:0:0:0:
296,352,114437,1,2,0:0:0:0:
32,120,114774,6,0,L|32:264,1,140,0|2,0:0|0:0,0:0:0:0:
480,264,115448,2,0,L|480:120,1,140,2|0,0:0|0:0,0:0:0:0:
216,352,116123,5,4,0:0:0:0:
120,296,116291,1,0,0:0:0:0:
216,240,116460,1,0,0:0:0:0:
320,192,116628,1,0,0:0:0:0:
216,144,116797,1,2,0:0:0:0:
120,88,116965,1,0,0:0:0:0:
216,32,117134,1,2,0:0:0:0:
480,264,117471,6,0,L|480:120,1,140,0|2,0:0|0:0,0:0:0:0:
32,120,118145,2,0,L|32:264,1,140,2|0,0:0|0:0,0:0:0:0:
160,336,118819,6,0,P|224:288|288:296,1,140
416,336,119325,2,0,P|368:280|384:192,1,140
280,168,119830,1,2,0:0:0:0:
312,88,119999,1,2,0:0:0:0:
400,48,120167,2,0,P|448:72|464:96,1,70
480,168,120505,5,2,0:0:0:0:
424,232,120673,1,2,0:0:0:0:
336,280,120842,2,0,P|288:280|264:296,1,70
176,344,121179,1,2,0:0:0:0:
104,280,121347,1,2,0:0:0:0:
208,224,121516,6,0,P|192:160|112:120,1,140
80,24,122021,2,0,P|32:64|40:160,1,140
112,200,122527,1,2,0:0:0:0:
176,136,122696,1,2,0:0:0:0:
248,72,122864,2,0,L|280:160,1,70
336,216,123201,5,2,0:0:0:0:
280,288,123370,1,2,0:0:0:0:
384,352,123538,2,0,P|416:304|432:296,1,70
488,200,123875,1,2,0:0:0:0:
464,112,124044,1,2,0:0:0:0:
256,192,124212,12,0,126572,0:0:0:0:
384,80,126909,5,2,0:0:0:0:
128,80,127246,1,2,0:0:0:0:
128,304,127583,1,2,0:0:0:0:
384,304,127920,1,2,0:0:0:0:
312,136,128257,5,10,0:0:0:0:
200,136,128426,1,10,0:0:0:0:
200,248,128594,1,10,0:0:0:0:
312,248,128763,1,10,0:0:0:0:
256,192,128932,6,2,L|256:144,7,35,10|2|2|2|2|2|2|2,0:0|0:0|0:0|0:0|0:0|0:0|0:0|0:0,0:0:0:0:
256,192,129606,6,0,B|240:288|240:288|112:288,1,210,4|0,0:0|0:0,0:0:0:0:
40,288,130617,2,0,L|40:200,1,70
40,144,131291,1,0,0:0:0:0:
40,144,131797,1,0,0:0:0:0:
256,192,132302,6,0,B|272:96|272:96|400:96,1,210,4|0,0:0|0:0,0:0:0:0:
472,96,133314,2,0,L|472:184,1,70
472,240,133988,1,0,0:0:0:0:
472,240,134493,1,0,0:0:0:0:
256,56,134999,5,4,0:0:0:0:
256,328,135505,1,0,0:0:0:0:
256,160,136010,2,0,L|256:240,1,70
360,88,136684,1,0,0:0:0:0:
152,296,137190,1,0,0:0:0:0:
392,192,137696,5,4,0:0:0:0:
120,192,138201,1,0,0:0:0:0:
288,192,138707,2,0,L|208:192,3,70,4|0|0|0,0:0|0:0|0:0|0:0,0:0:0:0:
64,248,140392,6,0,P|96:168|136:160,1,122.5
123,159,141066,2,0,P|160:224|216:224,1,122.5
203,228,141741,6,0,L|264:360,1,140,4|8,0:0|0:0,0:0:0:0:
320,312,142246,2,0,L|368:240,1,70
304,208,142583,1,0,0:0:0:0:
304,208,142752,2,0,L|240:168,1,70,8|0,0:0|0:0,0:0:0:0:
272,104,143089,2,0,P|320:72|400:56,2,140,4|4|4,0:0|0:0|0:0,0:0:0:0:
208,80,143932,5,0,0:0:0:0:
144,104,144100,1,8,0:0:0:0:
96,152,144269,1,0,0:0:0:0:
160,168,144437,2,0,L|160:240,1,70,4|0,0:0|0:0,0:0:0:0:
120,296,144774,1,8,0:0:0:0:
192,304,144943,6,0,L|264:280,1,70
328,304,145280,1,0,0:0:0:0:
312,232,145448,2,0,L|392:192,1,70,8|0,0:0|0:0,0:0:0:0:
440,232,145785,2,0,P|440:168|376:128,2,140,4|4|4,0:0|0:0|0:0,0:0:0:0:
152,144,146628,5,0,0:0:0:0:
256,96,146797,1,8,0:0:0:0:
360,144,146965,1,0,0:0:0:0:
152,240,147134,1,4,0:0:0:0:
256,288,147302,1,0,0:0:0:0:
360,240,147471,1,8,0:0:0:0:
152,144,147639,6,0,P|88:192|80:256,1,140,4|0,0:0|0:0,0:0:0:0:
152,240,148145,2,0,P|200:280|224:280,2,70,8|0|4,0:0|0:0|0:0,0:0:0:0:
216,208,148651,2,0,P|264:168|288:168,2,70,0|8|0,0:0|0:0|0:0,0:0:0:0:
352,224,149325,1,0,0:0:0:0:
408,176,149493,1,8,0:0:0:0:
424,248,149662,1,0,0:0:0:0:
424,280,149830,2,0,P|352:312|264:256,1,175
272,128,151010,6,0,L|149:196,1,140,2|0,0:0|0:0,0:0:0:0:
120,264,151516,2,0,L|56:232,1,70,2|0,0:0|0:0,0:0:0:0:
56,160,151853,2,0,L|120:128,1,70,2|0,0:0|0:0,0:0:0:0:
184,96,152190,1,2,0:0:0:0:
216,96,152274,1,2,0:0:0:0:
248,112,152359,1,2,0:0:0:0:
272,144,152443,1,2,0:0:0:0:
280,176,152527,6,0,L|152:240,1,140,4|8,0:0|0:0,0:0:0:0:
176,304,153033,2,0,L|248:312,1,70
312,336,153370,1,0,0:0:0:0:
384,320,153538,2,0,L|416:248,1,70,8|0,0:0|0:0,0:0:0:0:
440,192,153875,2,0,P|400:136|320:144,2,140,4|4|4,0:0|0:0|0:0,0:0:0:0:
368,200,154718,6,0,L|336:272,1,70,0|8,0:0|0:0,0:0:0:0:
296,320,155055,1,0,0:0:0:0:
224,328,155224,2,0,P|184:328|144:312,1,70,4|0,0:0|0:0,0:0:0:0:
104,272,155561,1,8,0:0:0:0:
72,208,155729,6,0,L|72:138,1,70
120,80,156066,1,0,0:0:0:0:
192,64,156235,2,0,L|272:64,1,70,8|0,0:0|0:0,0:0:0:0:
336,64,156572,2,0,P|408:80|456:128,2,140,4|4|4,0:0|0:0|0:0,0:0:0:0:
304,128,157415,5,0,0:0:0:0:
304,200,157583,2,0,L|304:272,1,70,8|0,0:0|0:0,0:0:0:0:
256,320,157920,2,0,L|112:320,1,140,4|8,0:0|0:0,0:0:0:0:
88,248,158426,2,0,L|228:248,1,140,4|0,0:0|0:0,0:0:0:0:
368,248,158932,2,0,L|424:304,2,70,8|0|4,0:0|0:0|0:0,0:0:0:0:
368,176,159437,2,0,L|440:104,2,70,0|8|0,0:0|0:0|0:0,0:0:0:0:
208,120,160111,5,0,0:0:0:0:
304,120,160280,1,0,0:0:0:0:
256,192,160448,1,0,0:0:0:0:
256,280,160617,1,0,0:0:0:0:
256,192,160785,12,0,162976,0:0:0:0:
328,344,163314,6,0,P|360:256|352:208,1,140,4|8,0:0|0:0,0:0:0:0:
416,152,163819,2,0,L|440:232,1,70
280,264,164156,1,0,0:0:0:0:
280,264,164325,2,0,L|200:296,1,70,8|0,0:0|0:0,0:0:0:0:
152,232,164662,1,4,0:0:0:0:
400,192,164999,1,4,0:0:0:0:
152,152,165336,1,4,0:0:0:0:
152,72,165505,5,8,0:0:0:0:
152,72,165842,2,0,L|224:16,1,70,0|4,0:0|0:0,0:0:0:0:
288,48,166179,1,0,0:0:0:0:
368,32,166347,1,8,0:0:0:0:
448,56,166516,2,0,L|400:144,1,70
368,192,166853,5,0,0:0:0:0:
368,192,167021,2,0,L|448:256,1,70,8|0,0:0|0:0,0:0:0:0:
352,288,167359,1,4,0:0:0:0:
256,72,167696,1,4,0:0:0:0:
160,288,168033,1,4,0:0:0:0:
88,248,168201,1,8,0:0:0:0:
88,248,168538,6,0,L|48:168,1,70,0|4,0:0|0:0,0:0:0:0:
128,144,168875,2,0,L|200:144,1,70,0|8,0:0|0:0,0:0:0:0:
272,176,169212,1,4,0:0:0:0:
352,144,169381,2,0,L|440:144,1,70
384,256,169718,2,0,L|336:320,2,70,8|0|4,0:0|0:0|0:0,0:0:0:0:
128,256,170224,2,0,L|170:312,2,70,0|8|0,0:0|0:0|0:0,0:0:0:0:
88,144,170898,5,0,0:0:0:0:
112,112,171066,1,8,0:0:0:0:
152,96,171235,1,0,0:0:0:0:
192,104,171403,2,0,B|288:216|256:96|344:112,1,175
168,352,172583,6,0,L|272:272,1,105,2|0,0:0|0:0,0:0:0:0:
280,312,172920,2,0,P|344:312|368:296,1,70,2|0,0:0|0:0,0:0:0:0:
392,208,173257,2,0,P|328:208|264:232,1,105,2|0,0:0|0:0,0:0:0:0:
240,208,173594,2,0,L|192:144,2,70,2|0|2,0:0|0:0|0:0,0:0:0:0:
320,120,174100,6,0,P|376:64|432:48,1,140,4|8,0:0|0:0,0:0:0:0:
320,192,174606,2,0,L|320:280,1,70
256,312,174943,1,0,0:0:0:0:
192,256,175111,2,0,L|136:200,1,70,8|0,0:0|0:0,0:0:0:0:
32,160,175448,2,0,P|96:120|120:80,1,105,4|0,0:0|0:0,0:0:0:0:
112,96,175785,2,0,P|152:48|216:32,1,105,4|0,0:0|0:0,0:0:0:0:
190,33,176123,1,4,0:0:0:0:
272,32,176291,6,0,L|328:88,1,70,8|0,0:0|0:0,0:0:0:0:
240,112,176628,2,0,L|296:168,1,70,0|4,0:0|0:0,0:0:0:0:
208,192,176965,2,0,L|264:248,1,70,0|8,0:0|0:0,0:0:0:0:
176,272,177302,6,0,L|96:272,1,70
128,192,177639,2,0,L|72:136,2,70,0|8|0,0:0|0:0|0:0,0:0:0:0:
192,120,178145,2,0,P|280:112|296:96,1,105,4|0,0:0|0:0,0:0:0:0:
288,104,178482,2,0,P|360:128|376:176,1,105,4|0,0:0|0:0,0:0:0:0:
372,150,178819,1,4,0:0:0:0:
152,240,178988,5,8,0:0:0:0:
256,288,179157,1,0,0:0:0:0:
360,240,179325,1,0,0:0:0:0:
152,144,179494,1,4,0:0:0:0:
256,96,179662,1,0,0:0:0:0:
360,144,179831,1,8,0:0:0:0:
152,144,179999,6,0,L|296:224,1,140,4|0,0:0|0:0,0:0:0:0:
360,144,180505,2,0,L|424:80,2,70,8|0|4,0:0|0:0|0:0,0:0:0:0:
152,240,181010,2,0,L|88:304,2,70,0|8|0,0:0|0:0|0:0,0:0:0:0:
344,152,181684,5,0,0:0:0:0:
168,232,181853,1,0,0:0:0:0:
344,232,182021,1,0,0:0:0:0:
168,152,182190,1,0,0:0:0:0:
256,192,182359,12,0,184550,0:0:0:0:
256,192,184887,5,4,0:0:0:0:
