osu file format v9

[General]
AudioFilename: ZUN - Touhou Judgement in the Sixtieth Year ~ Fate of Sixty Years.mp3
AudioLeadIn: 1000
PreviewTime: 38591
Countdown: 0
SampleSet: Normal
StackLeniency: 0.7
Mode: 0
LetterboxInBreaks: 1

[Editor]
Bookmarks: 1138,31181,32679,38633,62710,63156,72507,81978,104335,115226,139685,161086,164144,182679,200640,225195
DistanceSpacing: 1.2
BeatDivisor: 4
GridSize: 4

[Metadata]
Title:Judgement in the Sixtieth Year ~ Fate of Sixty Years
Artist:ZUN
Creator:DarkDunskin
Version:Hard
Source:Touhou
Tags:shikieiki yamaxanadu Phantasmagoria of flower view Stage Final Fight69 OnosakiHito PoFV

[Difficulty]
HPDrainRate:5
CircleSize:4
OverallDifficulty:5
ApproachRate:7
SliderMultiplier:1.2
SliderTickRate:1

[Events]
//Background and Video events
0,0,"shikieiki-and-komachi-in-boat.jpg"
//Break Periods
2,63640,71711
2,100327,104577
2,164530,181773
//Storyboard Layer 0 (Background)
//Storyboard Layer 1 (Fail)
//Storyboard Layer 2 (Pass)
//Storyboard Layer 3 (Foreground)
//Storyboard Sound Samples
//Background Colour Transformations
3,100,163,162,255

[TimingPoints]
1530,382.165605095541,6,1,1,50,1,0
38982,382.165605095541,4,1,1,50,1,0
63440,382.165605095541,6,1,1,50,1,0
104713,382.165605095541,4,1,1,50,1,0
105096,-200,4,1,1,50,0,0
113884,-100,4,1,1,50,0,0
164330,382.165605095541,6,1,1,50,1,0
201017,382.165605095541,4,1,1,50,1,0
225475,-100,4,1,1,50,0,1
249934,382.165605095541,6,1,1,50,1,0

[Colours]
Combo1 : 158,48,58
Combo2 : 3,143,3
Combo3 : 0,0,191
Combo4 : 180,31,201

[HitObjects]
80,68,1529,1,4
432,316,3822,1,4
80,316,5924,1,0
80,244,6115,5,4
142,280,6307,1,8
187,143,6689,2,8,B|198:73|274:77,1,120
353,195,7453,2,8,B|342:265|266:261,1,120
325,128,8217,6,8,B|386:92,2,60,8|4|8
204,208,8982,2,8,B|166:257|184:322,1,120
327,321,9746,1,8
255,321,9937,2,0,B|255:237,2,60,0|8|0
184,320,10510,1,12
136,264,10701,5,4
136,192,10893,2,8,B|135:121|206:111,1,120
289,208,11657,2,8,B|360:197|359:126,1,120
359,270,12421,1,8
215,270,12803,1,8
143,270,12994,5,4
179,332,13186,1,8
179,188,13568,2,8,B|179:68,1,120
322,68,14332,2,8,B|322:188,1,120
322,331,15096,1,8
359,269,15287,5,4
286,269,15479,1,8
426,238,15861,2,8,B|466:178|422:118,1,120
304,52,16625,2,8,B|265:104|305:164,1,120
426,238,17389,6,8,B|485:272,2,60,8|4|8
284,210,18154,2,8,B|212:210|176:250,1,120
116,120,18918,2,8,B|188:120|224:80,1,120
367,59,19682,1,8
430,94,19873,5,4
367,130,20065,1,8
460,240,20447,2,8,B|455:306|397:338,1,120
330,209,21211,2,8,B|290:252|219:251,1,120
184,112,21975,1,8
148,49,22166,5,4
112,112,22358,1,8
51,242,22740,2,8,B|106:284|161:241,1,120
304,241,23504,2,8,B|359:283|414:240,1,120
357,107,24268,1,8
293,70,24459,5,4
357,35,24651,1,8
284,159,25033,2,8,B|217:262,1,120
166,125,25797,2,8,B|99:228,1,120
23,346,26561,1,8
27,274,26752,5,4
88,312,26944,1,8
231,312,27326,2,8,B|302:301|301:230,1,120
164,186,28090,2,8,B|163:115|234:105,1,120
378,104,28854,1,8
378,104,29045,5,4
108,296,31338,1,4
373,316,33440,1,8
444,316,33631,1,4
408,253,33822,1,8
268,215,34205,5,8
200,88,34587,1,8
73,155,34969,1,8
140,282,35351,1,8
151,142,35733,2,8,B|116:82,2,60,8|4|8
213,266,36498,5,8
248,328,36689,2,0,B|332:328,1,60,0|8
285,259,37071,2,0,B|369:259,1,60,0|8
323,190,37453,2,0,B|391:190,2,60,0|8|0
360,122,38026,1,4
360,122,38217,1,4
215,122,38600,5,4
143,122,38791,1,8
179,184,38982,2,0,B|130:240|182:300,3,120
227,240,40319,1,8
277,292,40510,2,0,B|322:238|273:183,3,120
252,114,41848,1,8
323,129,42039,6,0,B|364:190|435:156,3,120
389,98,43376,1,8
453,64,43567,2,0,B|412:7|346:39,3,120
389,98,44905,5,8
349,158,45096,2,0,B|273:266,1,120
279,112,45860,2,0,B|216:200,1,90
162,272,46434,1,8
106,226,46625,2,0,B|14:142,2,120
216,318,47771,1,0
359,318,48153,6,0,B|404:264|358:209,1,120
214,209,48918,2,0,B|169:152|219:97,1,120
265,156,49491,1,8
311,100,49682,2,0,B|361:153|315:208,1,120
236,328,50446,2,0,B|112:328,1,120
71,190,51211,5,4
175,90,51593,1,0
279,190,51975,1,0
175,290,52357,1,0
175,290,52548,1,8
35,320,52931,6,0,B|80:272,1,60,8|0
175,172,53504,1,0
271,276,53886,2,0,B|313:318,1,60,0|8
387,316,54268,5,0
475,200,54650,1,0
383,88,55032,1,0
295,204,55415,2,0,B|219:204,1,60,0|8
107,136,55988,6,8,B|151:188,1,60,8|0
79,204,56370,2,0,B|155:204,1,60,8|0
107,276,56752,2,8,B|151:224,1,60,8|0
211,204,57134,2,0,B|287:204,1,60,8|0
373,306,57708,5,0
474,204,58090,1,0
474,204,58281,1,8
372,102,58663,1,8
270,203,59045,6,0,B|222:251,1,60,8|0
199,178,59427,2,0,B|151:226,1,60,8|0
128,153,59810,2,0,B|80:201,1,60,8|0
56,129,60192,1,8
256,192,60383,12,4,63440
256,40,72611,5,4
304,96,72803,2,8,B|344:160|296:220,1,120
212,96,73567,2,8,B|172:160|220:220,1,120
256,344,74331,1,8
112,344,74713,1,8
142,278,74904,6,0,B|101:223,1,60,4|8
174,208,75287,2,0,B|133:149,1,60,0|8
208,135,75669,1,0
342,82,76051,2,0,B|342:6,2,60,0|8|0
342,225,76815,1,0
466,151,77197,5,4
393,151,77389,1,8
249,151,77771,2,8,B|177:159|177:231,1,120
278,332,78535,2,8,B|350:324|350:252,1,120
350,108,79299,2,8,B|394:60,2,60,8|4|8
257,218,80064,2,8,B|203:265|149:217,1,120
149,73,80828,2,8,B|202:25|256:73,1,120
256,217,81592,1,8
205,267,81783,6,0,B|109:362,2,120,4|0|0
339,215,82930,2,0,B|329:145|259:134,1,120
118,134,83694,1,0
170,268,84076,6,0,B|219:219,1,60,4|8
270,268,84459,2,0,B|318:219,1,60,0|8
383,225,84841,1,0
485,124,85223,6,0,B|430:179,1,60,0|8
385,122,85605,2,0,B|326:181,1,60,0|8
270,164,85987,1,0
157,74,86369,6,0,B|95:103|104:174,2,120,4|0|0
225,200,87516,1,0
260,137,87707,1,8
296,200,87898,2,0,B|408:264,2,120,0|0|4
170,128,89045,2,0,B|66:67,2,120
204,191,90000,1,8
242,130,90191,1,0
385,130,90573,1,0
385,273,90955,5,4
240,273,91338,1,0
96,273,91720,2,0,B|35:259|10:197,1,120
140,136,92484,2,0,B|228:48,1,120
275,185,93248,6,0,B|323:233,2,60,4|8|0
223,133,93822,2,0,B|175:85,1,60,8|0
172,234,94395,2,0,B|124:282,2,60,0|8|0
273,132,95159,1,0
273,132,95541,1,4
256,192,95924,12,4,100127
256,116,105477,6,0,B|256:72,2,45,0|0|8
256,154,106241,1,4
100,154,107005,1,0
180,287,107770,1,0
335,287,108534,1,0
420,156,109298,6,0,B|420:100|364:83,1,90,0|8
256,86,110445,1,0
178,86,110827,2,0,B|127:95|127:151,1,90,0|8
127,266,111974,1,0
204,266,112356,2,0,B|296:266,2,90,0|8|0
127,266,113884,6,0,B|67:266,2,60,4|8|0
182,219,114458,1,0
235,170,114649,1,4
378,170,115031,1,0
306,50,115413,6,0,B|306:170,1,120,4|2
234,290,116177,2,0,B|234:170,1,120,0|2
161,50,116942,2,0,B|161:170,1,120,0|2
89,290,117706,2,0,B|89:170,1,120,0|2
161,50,118470,6,0,B|245:50|245:126,1,120,4|2
161,233,119235,2,0,B|160:299|244:299,1,120,0|2
386,298,119999,2,0,B|481:203,2,120,0|2|0
315,171,121146,2,2,B|315:107,1,60,2|8
315,39,121528,6,0,B|264:43|239:84|245:125,1,120,4|2
244,263,122292,2,0,B|238:339|164:338,1,120,0|2
42,267,123056,1,0
42,122,123439,1,2
168,193,123821,1,0
168,49,124203,1,2
291,122,124585,6,0,B|411:122,1,120,4|2
291,193,125349,2,0,B|171:193,1,120,0|2
291,265,126114,2,0,B|423:265,2,120,0|2|0
147,265,127260,1,2
111,125,127642,5,4
183,125,127834,1,8
147,61,128025,1,0
287,27,128407,2,0,B|359:34|363:106,1,120,0|2
362,248,129171,6,0,B|362:316,2,60,0|8|0
482,176,129935,2,0,B|362:176,1,120,0|2
217,176,130700,5,4
180,238,130891,1,8
145,176,131082,1,0
268,250,131464,2,0,B|324:286|384:254,1,120,0|2
453,130,132228,6,0,B|473:70,2,60,0|8|0
308,130,132993,2,0,B|236:135|232:206,1,120,0|2
176,328,133757,5,4
140,264,133948,1,8
104,328,134139,1,0
228,255,134521,2,0,B|276:215|268:143,1,120,0|2
149,65,135286,6,0,B|81:65,2,60,0|8|0
292,65,136050,2,0,B|364:65|386:127,1,120,0|2
351,265,136814,5,4
423,265,137005,1,8
387,201,137197,1,0
249,160,137579,2,0,B|137:92,1,120,0|2
248,243,138343,6,0,B|146:181,1,120,0|2
248,326,139107,2,0,B|146:264,1,120,0|2
24,186,139872,5,4
125,84,140254,1,0
264,118,140636,1,0
384,38,141018,2,0,B|452:61,2,60,0|8|0
419,177,141783,1,0
301,259,142165,1,0
176,187,142547,6,0,B|112:187,2,60,0|8|4
301,116,143311,1,2
301,259,143693,2,0,B|290:328|214:343,1,120,0|2
172,211,144458,2,0,B|104:217|82:288,1,120,0|2
36,145,145222,1,0
138,44,145604,5,0
172,107,145795,1,8
209,44,145986,2,0,B|311:47|357:136,1,180,4|8
175,252,147133,1,0
31,252,147515,2,0,B|19:189|63:121|127:116,1,180,0|8
336,116,148662,1,0
336,259,149044,6,0,B|323:325|259:350,1,120,4|2
261,201,149808,2,0,B|235:264|166:259,1,120,0|2
141,117,150572,2,0,B|72:113|42:174,2,120,0|2|0
282,90,151719,5,0
318,152,151910,1,8
246,152,152101,1,4
143,252,152483,1,4
96,112,152865,2,0,B|24:40,2,90,4|0|8
168,128,153630,2,0,B|216:128|224:80,2,60,4|8|4
96,248,154394,2,0,B|72:320|112:352,2,90,4|0|8
136,192,155158,5,4
232,88,155541,1,4
368,136,155923,1,4
256,224,156305,2,0,B|211:269,1,60,0|8
138,285,156687,1,0
36,183,157069,1,2
137,81,157451,1,0
239,183,157834,6,0,B|299:183,2,60,0|8|4
378,149,158598,1,0
444,119,158789,1,8
444,262,159171,1,8
378,233,159362,2,0,B|258:233,1,120
113,233,160127,1,0
113,233,160318,1,8
113,89,160700,2,8,B|113:149,1,60,8|0
256,144,161273,6,0,B|298:90|256:33,1,120,4|2
185,158,162037,2,0,B|149:216|186:271,2,120,0|2|0
319,211,163184,1,2
452,156,163566,2,0,B|488:214|451:269,1,120,0|2
319,211,164330,1,4
380,172,182673,6,0,B|362:108|293:96,3,120,4|0|0|0
252,232,184202,1,0
380,295,184584,1,0
318,165,184966,6,0,B|290:109,1,60,4|8
242,165,185349,2,0,B|214:109,1,60,0|8
167,165,185731,1,0
52,252,186113,6,0,B|80:308,1,60,0|8
128,252,186495,2,0,B|156:308,1,60,0|8
203,252,186877,1,0
334,252,187259,5,4
213,173,187642,1,0
341,109,188024,1,0
270,219,188406,2,0,B|234:274,2,60,0|8|0
144,160,189170,1,0
215,39,189552,6,0,B|95:39,2,120,4|0|0
215,183,190699,2,0,B|160:219,1,60,0|8
164,287,191081,1,0
20,287,191463,1,0
20,143,191845,6,0,B|27:71|96:63,2,120,4|0|0
20,287,192992,1,0
163,287,193374,2,0,B|234:277|241:207,1,120
200,71,194138,6,0,B|244:119,1,60,4|8
297,71,194521,2,0,B|341:119,1,60,0|8
394,71,194903,1,0
281,161,195285,6,0,B|232:201,2,60,0|8|0
394,72,196049,1,0
394,72,196431,1,4
256,192,196814,12,0,200254
96,94,201017,6,0,B|164:94,1,60,4|8
156,237,201590,1,8
299,237,201972,1,8
299,93,202354,2,0,B|363:93,2,60,8|0|8
155,93,203118,5,8
52,195,203501,1,8
155,294,203883,2,8,B|105:343,2,60,8|4|8
256,192,204647,5,8
357,90,205029,1,8
458,191,205411,2,8,B|503:147,2,60,8|0|8
355,293,206176,1,8
256,192,206558,1,8
256,120,206749,6,8,B|256:56,1,60,0|8
184,60,207131,2,0,B|138:103|138:171|188:225,1,180,4|8
310,292,208087,2,0,B|342:304|369:282,2,60,8|0|8
327,221,208660,2,0,B|374:171|374:103|328:60,1,180,4|8
184,60,209615,2,8,B|120:60,2,60,8|0|8
255,60,210188,5,4
327,60,210380,1,8
400,183,210762,1,8
256,183,211144,1,8
112,183,211526,2,8,B|48:183,2,60,8|0|8
184,58,212290,1,8
184,202,212673,1,8
184,273,212864,6,8,B|184:336,1,60,0|8
256,333,213246,1,4
399,333,213628,1,4
399,189,214010,1,4
288,184,214297,2,0,B|208:128,1,90,0|8
96,48,214966,6,0,B|160:96,1,60,8|4
85,214,215539,1,4
136,312,215825,2,8,B|232:312,1,90,0|8
296,312,216303,1,4
317,171,216685,1,4
440,244,217067,1,4
448,99,217450,2,0,B|412:154,1,60,0|8
377,209,217832,5,0
338,269,218023,1,8
236,167,218405,1,8
134,268,218787,2,8,B|112:296|80:294,2,60,8|0|8
77,223,219360,2,0,B|90:124|187:89,1,180,4|8
327,90,220316,1,8
398,90,220507,1,0
362,152,220698,1,8
433,152,220889,6,0,B|433:193|401:226|358:222|358:222|308:272,1,180,0|8
191,188,221845,2,0,B|191:252,1,60,8|0
228,108,222418,5,4
156,108,222609,1,8
48,203,222991,1,8
191,203,223373,1,8
334,203,223755,1,8
264,76,224138,1,8
264,220,224520,2,0,B|264:284,2,60,8|0|8
264,148,225093,1,0
264,76,225284,1,8
200,112,225475,6,0,B|140:112,1,60,4|8
19,45,226048,1,8
19,190,226431,1,8
140,112,226813,6,0,B|216:112,1,60,8|0
271,112,227195,1,8
414,112,227577,1,8
342,237,227959,1,8
342,93,228341,6,8,B|342:21,2,60,8|4|8
342,237,229106,1,8
467,166,229488,1,8
323,166,229870,6,8,B|255:166,1,60,8|0
191,166,230252,1,8
162,307,230634,1,8
120,168,231017,1,8
192,168,231208,6,8,B|252:168,1,60,0|8
296,92,231590,2,0,B|350:126|354:203|292:245,1,180,4|8
176,348,232545,2,8,B|104:348,2,60,8|0|8
260,324,233118,6,0,B|200:284|204:208|258:174,1,180,4|8
128,208,234074,2,8,B|68:208,2,60,8|0|8
200,208,234647,5,4
272,208,234838,1,8
400,144,235220,1,8
344,272,235602,1,8
206,228,235985,1,8
77,292,236367,1,8
85,149,236749,1,8
216,80,237131,5,8
178,140,237322,2,8,B|144:189,1,60,4|12
102,253,237704,1,4
220,335,238087,1,4
298,214,238469,1,4
325,318,238755,2,0,B|242:264,1,90,0|8
140,174,239424,5,8
140,174,239615,1,4
268,108,239997,2,0,B|312:83|370:89,2,90,4|0|8
204,142,240762,5,4
104,240,241144,1,4
242,284,241526,1,4
246,139,241908,2,0,B|284:80,2,60,0|8|0
208,198,242481,1,8
63,198,242864,1,8
134,72,243246,1,8
205,72,243437,6,8,B|273:72,1,60,0|8
323,113,243819,2,0,B|376:194|321:286,1,180,4|8
194,347,244774,2,0,B|134:347,1,60,8|0
42,235,245348,6,0,B|3:181|20:108|81:80,1,180,0|8
180,182,246303,2,0,B|120:171,2,60,8|0|8
248,192,246876,1,4
256,192,247259,12,4,249934
