osu file format v9

[General]
AudioFilename: ZUN - Hiroari Shoots a Strange Bird ~ Till When (Short Ver.).mp3
AudioLeadIn: 1000
PreviewTime: 32420
Countdown: 0
SampleSet: Normal
StackLeniency: 0.7
Mode: 0
LetterboxInBreaks: 1

[Editor]
DistanceSpacing: 1.3
BeatDivisor: 4
GridSize: 4

[Metadata]
Title:Hiroari Shoots a Strange Bird ~ Till When (Short Ver.)
Artist:ZUN
Creator:Urlangce
Version:Hard
Source:Touhou
Tags:Youmu Konpaku Perfect Cherry Blossom moe Naryuga

[Difficulty]
HPDrainRate:6
CircleSize:4
OverallDifficulty:6
ApproachRate:8
SliderMultiplier:1.5
SliderTickRate:1

[Events]
//Background and Video events
0,0,"BG3.jpg"
//Break Periods
2,66782,68929
//Storyboard Layer 0 (Background)
//Storyboard Layer 1 (Fail)
//Storyboard Layer 2 (Pass)
//Storyboard Layer 3 (Foreground)
//Storyboard Sound Samples
//Background Colour Transformations
3,100,163,162,255

[TimingPoints]
1550,387.096774193548,4,1,1,70,1,0
57291,-100,4,2,0,65,0,0
66582,-100,4,1,1,70,0,0
82066,-100,4,1,1,70,0,1
106840,-100,4,1,1,70,0,0

[Colours]
Combo1 : 200,0,0
Combo2 : 0,200,200
Combo3 : 200,0,200
Combo4 : 200,200,200
Combo5 : 0,200,0

[HitObjects]
312,48,1550,2,0,B|312:144|408:144,1,150,4|0
368,220,2130,1,0
328,228,2227,1,0
288,236,2324,1,0
200,48,2711,2,0,B|200:144|104:144,1,150,8|0
144,220,3291,1,0
184,228,3388,1,0
224,236,3485,1,0
328,300,3679,2,0,B|176:300,1,150
176,300,4162,1,0
176,300,4259,2,0,B|100:300,1,75,8|0
44,192,4646,22,0,B|92:128|168:104,1,150
257,58,5227,1,0
256,224,5614,1,0
348,105,5808,2,0,B|420:128|468:192,1,150,8|0
412,252,6388,1,0
412,252,6485,1,0
412,252,6582,1,0
328,248,6775,2,0,B|343:268,8,25
372,312,7356,2,0,B|399:313,5,25,8|0|0|0|0|0
424,312,7743,6,0,B|488:232,1,75,4|0
408,228,8130,2,0,B|424:148,1,75,0|0
355,152,8517,2,0,B|355:72,1,75
291,98,8904,2,0,B|259:26,1,75,8|0
209,73,9291,2,0,B|129:25,1,75
123,99,9679,2,0,B|43:99,1,75,0|0
62,165,10066,2,0,B|-2:213,1,75
54,253,10453,2,0,B|38:349,1,75,8|0
120,280,10840,6,0,B|184:360,1,75
212,288,11227,2,0,B|292:320,1,75,0|0
312,255,11614,2,0,B|392:223,1,75
334,179,12001,2,0,B|318:99,1,75,8|0
256,130,12388,2,0,B|176:146,1,75
199,210,12775,2,0,B|215:306,1,75,0|0
276,264,13162,2,0,B|372:248,1,75
344,184,13549,2,0,B|328:104,1,75,8|0
256,60,13937,5,4
164,88,14130,1,0
164,88,14227,1,0
164,88,14324,1,0
240,152,14517,1,0
148,184,14711,2,0,B|88:228,1,75
180,252,15098,2,0,B|256:272,1,75,8|0
256,60,15485,21,4
348,88,15678,1,0
348,88,15775,1,0
348,88,15872,1,0
272,152,16065,1,0
364,184,16259,2,0,B|424:228,1,75
332,252,16646,2,0,B|256:272,1,75,8|0
256,172,17033,6,0,B|212:108,1,75
212,112,17324,1,0
212,112,17420,2,0,B|284:72,1,75,0|0
352,140,17808,1,0
412,216,18001,1,0
376,308,18195,2,0,B|332:244,1,75,8|0
256,212,18582,6,0,B|300:276,1,75
300,272,18873,1,0
300,272,18969,2,0,B|228:312,1,75,0|0
160,244,19357,1,0
100,168,19550,1,0
136,76,19744,2,0,B|180:140,1,75,8|0
256,52,20130,5,4
328,232,20517,1,0
184,232,20711,2,0,B|140:172,1,75
80,96,21098,1,0
80,96,21195,1,0
80,96,21291,1,8
256,52,21679,21,4
184,232,22066,1,0
328,232,22260,2,0,B|372:172,1,75
432,96,22647,1,0
432,96,22744,1,0
432,96,22840,1,8
236,108,23227,6,0,B|292:164,1,75
192,168,23614,2,0,B|138:114,1,75
80,196,24001,1,0
52,288,24195,1,0
52,288,24291,1,0
52,288,24388,1,8
148,272,24582,1,0
276,276,24775,6,0,B|220:220,1,75
320,216,25162,2,0,B|373:269,1,75
432,188,25549,1,0
460,96,25743,1,0
460,96,25839,1,0
460,96,25936,1,8
364,112,26130,1,0
308,192,26324,6,0,B|400:316,1,150,4|0
256,284,26904,1,0
96,172,27291,2,0,B|52:112,2,75,0|8|0
204,192,27872,22,0,B|112:68,1,150,4|0
256,100,28452,1,0
416,212,28839,2,0,B|460:272,2,75,0|8|0
308,192,29420,6,0,B|400:316,1,150,4|0
396,312,30001,1,0
264,140,30388,2,0,B|216:84,2,75,0|8|0
176,180,30969,6,0,B|120:120,1,75
100,220,31356,2,0,B|151:274,1,75
216,348,31743,2,0,B|184:368,5,25
296,348,32130,2,0,B|328:368,5,25
256,296,32517,5,4
196,104,32904,1,8
352,224,33098,1,0
316,104,33291,1,0
160,224,33485,1,0
160,224,33582,1,0
160,224,33679,1,8
256,192,33872,1,0
256,96,34066,2,0,B|256:20,1,75
352,36,34453,2,0,B|416:88,1,75,8|0
444,176,34840,1,0
376,244,35033,1,0
468,276,35227,1,8
296,364,35614,22,0,B|168:280,1,150,0|8
256,236,36195,1,0
312,156,36388,1,0
200,156,36582,1,0
200,156,36679,1,0
200,156,36775,1,8
104,160,36969,1,0
84,256,37162,2,0,B|136:316,1,75,0|0
232,312,37549,2,0,B|182:255,1,75,8|0
280,256,37937,2,0,B|332:316,1,75,0|0
428,312,38324,2,0,B|378:255,1,75,8|0
452,192,38711,6,0,B|452:96|340:96,1,150,0|8
256,96,39291,1,0
140,248,39679,1,8
80,324,39872,1,8
140,248,40066,1,0
60,192,40259,6,0,B|60:96|172:96,1,150,0|8
256,96,40839,1,0
372,248,41227,1,8
432,324,41420,1,8
372,248,41614,1,0
324,164,41808,6,0,B|265:117,1,75
184,172,42195,2,0,B|242:218,1,75,8|0
280,248,42485,1,0
320,276,42582,2,0,B|378:322,1,75
412,232,42969,1,8
340,168,43162,1,0
328,72,43356,2,0,B|400:96,1,75
340,168,43743,2,0,B|368:240,1,75,8|0
184,72,44130,2,0,B|112:96,1,75
172,168,44517,2,0,B|144:240,1,75,8|0
256,88,44904,21,4
316,280,45291,1,8
160,160,45485,1,0
196,280,45678,1,0
352,160,45872,1,0
352,160,45969,1,0
352,160,46066,1,8
256,192,46259,1,0
256,288,46453,2,0,B|256:364,1,75
160,348,46840,2,0,B|96:296,1,75,8|0
68,208,47227,1,0
136,140,47420,1,0
44,108,47614,1,8
216,20,48001,6,0,B|344:104,1,150,0|8
256,148,48582,1,0
200,228,48775,1,0
312,228,48969,1,0
312,228,49066,1,0
312,228,49162,1,8
408,224,49356,1,0
428,128,49549,2,0,B|376:68,1,75,0|0
280,72,49936,2,0,B|329:128,1,75,8|0
232,128,50324,2,0,B|180:68,1,75,0|0
84,72,50711,2,0,B|133:128,1,75,8|0
60,192,51098,6,0,B|60:288|172:288,1,150,0|8
256,288,51678,1,0
372,136,52066,1,8
432,60,52259,1,8
372,136,52453,1,0
452,192,52646,6,0,B|452:288|340:288,1,150,0|8
256,288,53226,1,0
112,156,53614,1,8
32,100,53807,1,8
112,156,54001,1,0
188,220,54195,22,0,B|246:266,1,75
328,212,54582,2,0,B|269:165,1,75,8|0
232,136,54872,1,0
192,108,54969,2,0,B|133:61,1,75
100,152,55356,1,8
172,216,55549,1,0
184,312,55743,2,0,B|112:288,1,75
172,216,56130,2,0,B|144:144,1,75,8|0
328,312,56517,2,0,B|400:288,1,75
340,216,56904,2,0,B|368:144,1,75,8|0
256,52,57291,5,4
344,228,57679,2,0,B|376:308,1,75,0|0
168,228,58066,2,0,B|136:308,1,75,0|0
200,160,58453,2,0,B|172:90,1,75,0|0
312,160,58840,2,0,B|339:90,1,75,0|0
224,328,59227,2,0,B|144:280,1,75
288,328,59614,2,0,B|368:280,1,75
256,268,60001,6,0,B|256:108,1,150
444,160,60775,2,0,B|416:88,1,75
68,160,61162,2,0,B|96:88,1,75
256,32,61549,2,0,B|256:116,1,75
180,168,61937,1,0
292,328,62324,1,0
328,168,62711,2,0,B|408:168,2,75
220,328,63485,5,0
108,236,63775,2,0,B|74:349,1,112.5
32,256,64259,1,0
220,196,64646,1,0
292,56,65033,21,0
404,148,65323,2,0,B|438:35,1,112.5
480,128,65807,1,0
292,188,66194,1,0
120,96,66582,5,4
120,96,69679,5,4
256,236,70066,2,0,B|256:156,1,75,8|0
256,160,70356,1,0
256,160,70453,1,0
380,124,70646,1,0
308,52,70840,1,8
204,52,71033,1,0
132,124,71227,1,0
192,200,71420,2,0,B|172:276,1,75,0|8
320,200,71808,2,0,B|340:276,1,75,0|0
256,96,72388,1,8
120,288,72775,5,4
256,148,73162,2,0,B|256:228,1,75,8|0
256,224,73452,1,0
256,224,73549,1,0
380,260,73742,1,0
308,332,73936,1,8
204,332,74129,1,0
132,260,74323,1,0
192,184,74516,2,0,B|172:108,1,75,0|8
320,184,74904,2,0,B|340:108,1,75,0|0
256,288,75484,1,8
112,156,75872,22,0,B|206:156|206:60,1,150,4|8
256,148,76453,1,0
256,324,76840,1,8
352,340,77033,1,8
256,324,77227,1,0
400,156,77420,6,0,B|306:156|306:60,1,150,4|8
256,148,78001,1,0
256,324,78388,1,0
160,340,78581,1,8
256,324,78775,1,8
216,248,78969,6,0,B|167:191,1,75
292,244,79356,2,0,B|341:187,1,75,8|0
376,152,79646,1,0
408,116,79743,2,0,B|457:59,1,75
360,52,80130,1,8
288,120,80324,1,0
224,192,80517,2,0,B|175:249,1,75
204,340,80904,2,0,B|236:360,5,25,0|0|0|0|0|0
312,340,81291,2,0,B|280:360,8,25
256,292,81872,1,0
256,192,82066,5,4
444,140,82453,1,8
428,236,82646,1,0
428,236,82743,1,0
428,236,82840,1,2
348,288,83033,1,0
344,192,83227,2,0,B|296:124,1,75,8|0
372,64,83614,2,0,B|296:64,1,75,2|0
200,68,84001,2,0,B|120:116,1,75,8|0
140,204,84388,2,0,B|212:252,1,75,2|0
140,320,84775,1,8
256,192,85162,21,4
68,244,85549,1,8
84,148,85742,1,0
84,148,85839,1,0
84,148,85936,1,2
164,96,86129,1,0
168,192,86323,2,0,B|216:260,1,75,8|0
140,320,86710,2,0,B|216:320,1,75,2|0
312,316,87097,2,0,B|392:268,1,75,8|0
372,180,87484,2,0,B|300:132,1,75,2|0
372,64,87872,1,8
256,216,88259,5,4
100,96,88646,1,8
196,120,88840,1,0
196,120,88937,1,0
196,120,89033,1,2
68,8,89227,1,0
32,168,89420,1,8
100,96,89614,1,0
256,216,89808,5,4
412,96,90195,1,8
316,120,90389,1,0
316,120,90486,1,0
316,120,90582,1,2
444,8,90776,1,0
480,168,90969,1,8
412,96,91163,1,0
388,192,91356,6,0,B|432:260,1,75,2|0
332,256,91743,2,0,B|291:193,1,75,8|0
180,256,92130,22,0,B|220:193,1,75,2|0
124,192,92517,2,0,B|83:254,1,75,8|0
80,256,92904,1,2
160,344,93098,1,0
168,328,93195,1,0
176,316,93291,2,0,B|212:228,1,75,8|0
256,332,93679,2,0,B|256:256,1,75,2|0
336,316,94066,2,8,B|300:228,1,75
256,164,94453,5,4
84,72,94840,1,8
180,80,95033,1,0
180,80,95130,1,0
180,80,95227,1,2
120,156,95420,1,0
40,216,95614,2,0,B|8:136,1,75,8|0
68,276,96001,2,0,B|100:356,1,75,2|0
188,316,96388,2,0,B|156:196|236:100,1,225,8|0
148,56,97162,1,8
256,220,97549,5,4
428,312,97936,1,8
332,304,98129,1,0
332,304,98226,1,0
332,304,98323,1,2
392,228,98516,1,0
472,168,98710,2,0,B|504:248,1,75,8|0
444,108,99098,2,0,B|412:28,1,75,2|0
328,80,99485,2,0,B|355:149,1,75,8|0
268,192,99872,2,0,B|240:122,1,75,2|0
240,120,100259,1,8
112,268,100646,5,4
224,68,101033,1,8
140,120,101227,1,0
140,120,101324,1,0
140,120,101420,1,2
48,84,101614,1,0
148,216,101808,1,8
224,68,102001,1,0
400,116,102195,21,4
288,316,102582,1,8
372,264,102776,1,0
372,264,102873,1,0
372,264,102969,1,2
464,300,103163,1,0
364,168,103357,1,8
288,316,103550,1,0
192,316,103743,6,0,B|117:316,1,75,2|0
60,240,104130,2,0,B|136:240,1,75,8|0
192,160,104517,2,0,B|117:160,1,75,2|0
68,76,104904,2,0,B|144:76,1,75,8|0
240,76,105291,1,2
336,76,105485,1,0
384,76,105582,1,0
432,80,105679,2,0,B|460:80,5,25,8|0|0|0|0|0
436,128,106066,2,0,B|436:156,6,25,2|0|0|0|0|0|0
436,224,106646,1,0
352,276,106840,5,4
168,48,107420,1,0
72,324,108001,1,0
340,96,108388,5,0
112,280,108968,1,0
388,376,109549,1,0
160,108,109937,21,0
344,336,110517,1,0
440,60,111098,1,0
172,288,111485,5,0
400,104,112066,2,0,B|372:84,5,25
452,144,112453,2,0,B|472:158,5,25
256,192,113033,5,4
