osu file format v5

[General]
AudioFilename: 風05:運命のダークサイド.mp3
AudioLeadIn: 0
PreviewTime: -1
Countdown: 1
SampleSet: Normal
StackLeniency: 0.7
Mode: 0
LetterboxInBreaks: 1
EditorBookmarks: 34825

[Metadata]
Title:Hina
Artist:ZUN
Creator:sz19951122
Version:Hard
Source:
Tags:

[Difficulty]
HPDrainRate:10
CircleSize:7
OverallDifficulty:10
SliderMultiplier:1.4
SliderTickRate:1

[Events]
//Background and Video events
0,0,"untitled.jpg"
//Break Periods
2,28954,32908
2,51811,55765
2,80383,84337
//Storyboard Layer 0 (Background)
//Storyboard Layer 1 (Failing)
//Storyboard Layer 2 (Passing)
//Storyboard Layer 3 (Foreground)
//Storyboard Sound Samples
//Background Colour Transformations
3,100,163,162,255

[TimingPoints]
5897,357.142857142857,4,1,0,100,1

[HitObjects]
256,192,5897,1,0
224,192,6075,1,0
192,192,6254,1,8
160,192,6343,1,8
128,192,6432,1,8
96,192,6611,1,0
96,96,7147,1,0
128,96,7325,1,0
160,96,7504,1,0
224,96,7682,1,8
256,96,7772,1,8
288,96,7861,1,8
320,96,7950,1,8
352,96,8039,1,8
96,160,8397,1,8
160,160,8575,1,8
224,160,8754,1,8
320,256,9289,1,8
416,256,9468,1,8
224,128,10182,5,0
96,192,10450,1,0
96,256,10718,1,0
192,224,10897,1,0
224,224,10986,1,0
256,224,11075,1,0
288,224,11164,1,0
320,224,11254,1,0
256,192,11611,1,2
192,192,11789,1,2
160,192,11968,1,2
128,192,12057,1,2
96,192,12147,1,2
64,192,12325,1,2
96,96,12861,1,0
128,96,13039,1,0
160,96,13218,1,0
224,96,13396,1,8
256,96,13486,1,8
288,96,13575,1,8
320,96,13664,1,8
352,96,13754,1,8
96,288,14111,1,8
224,288,14289,1,0
160,288,14468,1,8
320,256,15003,1,2
128,96,15182,1,0
224,128,15896,5,2
96,192,16164,1,2
96,256,16432,1,2
192,224,16611,1,2
224,224,16700,1,2
256,224,16789,1,2
288,224,16878,1,2
320,224,16968,1,2
128,64,17325,5,0
160,64,17414,1,0
192,64,17504,1,0
224,64,17593,1,0
256,64,17682,1,0
128,128,17861,1,0
160,128,17950,1,0
192,128,18039,1,0
224,128,18129,1,0
256,128,18218,1,0
288,128,18307,1,0
320,128,18396,1,0
128,192,18575,1,0
160,192,18664,1,0
192,192,18754,1,0
256,192,18932,1,0
288,192,19021,1,0
320,192,19111,1,0
384,192,19289,1,0
416,192,19379,1,0
416,256,19468,6,2,B|192:256,1,210
206,256,20093,1,0
128,256,20182,1,0
160,256,20271,1,0
96,256,20361,1,0
128,224,20450,1,0
128,192,20539,1,0
128,96,20718,1,0
160,96,20807,1,0
192,96,20896,1,0
224,96,20986,1,0
256,96,21075,1,0
256,96,21164,1,0
288,96,21254,1,0
128,32,21432,1,0
160,32,21521,1,0
192,32,21611,1,0
224,32,21700,1,0
256,32,21789,1,0
288,32,21879,1,0
320,32,21968,1,0
352,32,22057,1,0
384,32,22146,1,0
352,96,22236,1,0
352,96,22325,6,2,B|64:96,1,280
160,64,23129,1,0
192,64,23219,1,0
224,64,23308,1,0
256,64,23397,1,0
128,128,23576,1,0
160,128,23665,1,0
192,128,23754,1,0
224,128,23844,1,0
256,128,23933,1,0
288,128,24022,1,0
320,128,24111,1,0
128,192,24290,1,0
160,192,24379,1,0
192,192,24469,1,0
256,192,24647,1,0
288,192,24736,1,0
320,192,24826,1,0
384,192,25004,1,0
416,192,25094,1,0
416,256,25182,6,2,B|192:256,1,210
206,256,25808,1,0
128,256,25897,1,0
160,256,25986,1,0
96,256,26076,1,0
128,224,26165,1,0
128,192,26254,1,0
128,96,26433,1,0
160,96,26522,1,0
192,96,26611,1,0
224,96,26701,1,0
256,96,26790,1,0
256,96,26879,1,0
288,96,26969,1,0
128,32,27147,1,0
160,32,27236,1,0
192,32,27326,1,0
224,32,27415,1,0
256,32,27504,1,0
288,32,27594,1,0
320,32,27683,1,0
352,32,27772,1,0
384,32,27861,1,0
352,96,27951,1,0
256,192,28039,12,12,28754
256,192,34468,5,0
192,192,34646,1,0
160,192,34825,1,0
128,192,34914,1,0
96,192,35004,1,0
64,192,35182,1,0
96,96,35718,1,8
128,96,35896,1,8
160,96,36075,1,8
224,96,36253,1,8
256,96,36343,1,8
288,96,36432,1,8
320,96,36521,1,8
352,96,36611,1,8
96,288,36968,1,8
224,288,37146,1,0
160,288,37325,1,8
320,256,37860,1,0
128,96,38039,1,8
224,128,38753,5,2
96,192,39021,1,2
96,256,39289,1,2
192,224,39468,1,2
224,224,39557,1,2
256,224,39646,1,2
288,224,39735,1,2
320,224,39825,1,2
128,64,40182,5,0
160,64,40271,1,0
192,64,40361,1,0
224,64,40450,1,0
256,64,40539,1,0
128,128,40718,1,0
160,128,40807,1,0
192,128,40896,1,0
224,128,40986,1,0
256,128,41075,1,0
288,128,41164,1,0
320,128,41253,1,0
128,192,41432,1,0
160,192,41521,1,0
192,192,41611,1,0
256,192,41789,1,0
288,192,41878,1,0
320,192,41968,1,0
384,192,42146,1,0
416,192,42236,1,0
416,256,42325,6,2,B|192:256,1,210
206,256,42950,1,0
128,256,43039,1,0
160,256,43128,1,0
96,256,43218,1,0
128,224,43307,1,0
128,192,43396,1,0
128,96,43575,1,0
160,96,43664,1,0
192,96,43753,1,0
224,96,43843,1,0
256,96,43932,1,0
256,96,44021,1,0
288,96,44111,1,0
128,32,44289,1,0
160,32,44378,1,0
192,32,44468,1,0
224,32,44557,1,0
256,32,44646,1,0
288,32,44736,1,0
320,32,44825,1,0
352,32,44914,1,0
384,32,45003,1,0
352,96,45093,1,0
352,96,45182,6,2,B|64:96,1,280
160,64,45986,1,0
192,64,46076,1,0
224,64,46165,1,0
256,64,46254,1,0
128,128,46433,1,0
160,128,46522,1,0
192,128,46611,1,0
224,128,46701,1,0
256,128,46790,1,0
288,128,46879,1,0
320,128,46968,1,0
128,192,47147,1,0
160,192,47236,1,0
192,192,47326,1,0
256,192,47504,1,0
288,192,47593,1,0
320,192,47683,1,0
384,192,47861,1,0
416,192,47951,1,0
416,256,48039,6,2,B|192:256,1,210
206,256,48665,1,0
128,256,48754,1,0
160,256,48843,1,0
96,256,48933,1,0
128,224,49022,1,0
128,192,49111,1,0
128,96,49290,1,0
160,96,49379,1,0
192,96,49468,1,0
224,96,49558,1,0
256,96,49647,1,0
256,96,49736,1,0
288,96,49826,1,0
128,32,50004,1,0
160,32,50093,1,0
192,32,50183,1,0
224,32,50272,1,0
256,32,50361,1,0
288,32,50451,1,0
320,32,50540,1,0
352,32,50629,1,0
384,32,50718,1,0
352,96,50808,1,0
256,192,50896,12,4,51611
256,192,57325,5,0
224,192,57503,1,0
192,192,57682,1,8
160,192,57771,1,8
128,192,57860,1,8
96,192,58039,1,0
96,96,58575,1,0
128,96,58753,1,0
160,96,58932,1,0
224,96,59110,1,8
256,96,59200,1,8
288,96,59289,1,8
320,96,59378,1,8
352,96,59467,1,8
96,160,59825,1,8
160,160,60003,1,8
224,160,60182,1,8
320,256,60717,1,8
416,256,60896,1,8
224,128,61610,5,0
96,192,61878,1,0
96,256,62146,1,0
192,224,62325,1,0
224,224,62414,1,0
256,224,62503,1,0
288,224,62592,1,0
320,224,62682,1,0
256,192,63039,1,2
192,192,63217,1,2
160,192,63396,1,2
128,192,63485,1,2
96,192,63575,1,2
64,192,63753,1,2
96,96,64289,1,0
128,96,64467,1,0
160,96,64646,1,0
224,96,64824,1,8
256,96,64914,1,8
288,96,65003,1,8
320,96,65092,1,8
352,96,65182,1,8
96,288,65539,1,8
224,288,65717,1,0
160,288,65896,1,8
320,256,66431,1,2
128,96,66610,1,0
224,128,67324,5,2
96,192,67592,1,2
96,256,67860,1,2
192,224,68039,1,2
224,224,68128,1,2
256,224,68217,1,2
288,224,68306,1,2
320,224,68396,1,2
128,64,68753,5,0
160,64,68842,1,0
192,64,68932,1,0
224,64,69021,1,0
256,64,69110,1,0
128,128,69289,1,0
160,128,69378,1,0
192,128,69467,1,0
224,128,69557,1,0
256,128,69646,1,0
288,128,69735,1,0
320,128,69824,1,0
128,192,70003,1,0
160,192,70092,1,0
192,192,70182,1,0
256,192,70360,1,0
288,192,70449,1,0
320,192,70539,1,0
384,192,70717,1,0
416,192,70807,1,0
416,256,70896,6,2,B|192:256,1,210
206,256,71521,1,0
128,256,71610,1,0
160,256,71699,1,0
96,256,71789,1,0
128,224,71878,1,0
128,192,71967,1,0
128,96,72146,1,0
160,96,72235,1,0
192,96,72324,1,0
224,96,72414,1,0
256,96,72503,1,0
256,96,72592,1,0
288,96,72682,1,0
128,32,72860,1,0
160,32,72949,1,0
192,32,73039,1,0
224,32,73128,1,0
256,32,73217,1,0
288,32,73307,1,0
320,32,73396,1,0
352,32,73485,1,0
384,32,73574,1,0
352,96,73664,1,0
352,96,73753,6,2,B|64:96,1,280
160,64,74557,1,0
192,64,74647,1,0
224,64,74736,1,0
256,64,74825,1,0
128,128,75004,1,0
160,128,75093,1,0
192,128,75182,1,0
224,128,75272,1,0
256,128,75361,1,0
288,128,75450,1,0
320,128,75539,1,0
128,192,75718,1,0
160,192,75807,1,0
192,192,75897,1,0
256,192,76075,1,0
288,192,76164,1,0
320,192,76254,1,0
384,192,76432,1,0
416,192,76522,1,0
416,256,76610,6,2,B|192:256,1,210
206,256,77236,1,0
128,256,77325,1,0
160,256,77414,1,0
96,256,77504,1,0
128,224,77593,1,0
128,192,77682,1,0
128,96,77861,1,0
160,96,77950,1,0
192,96,78039,1,0
224,96,78129,1,0
256,96,78218,1,0
256,96,78307,1,0
288,96,78397,1,0
128,32,78575,1,0
160,32,78664,1,0
192,32,78754,1,0
224,32,78843,1,0
256,32,78932,1,0
288,32,79022,1,0
320,32,79111,1,0
352,32,79200,1,0
384,32,79289,1,0
352,96,79379,1,0
256,192,79467,12,12,80182
256,192,85896,5,0
192,192,86074,1,0
160,192,86253,1,0
128,192,86342,1,0
96,192,86432,1,0
64,192,86610,1,0
96,96,87146,1,8
128,96,87324,1,8
160,96,87503,1,8
224,96,87681,1,8
256,96,87771,1,8
288,96,87860,1,8
320,96,87949,1,8
352,96,88039,1,8
96,288,88396,1,8
224,288,88574,1,0
160,288,88753,1,8
320,256,89288,1,0
128,96,89467,1,8
224,128,90181,5,2
96,192,90449,1,2
96,256,90717,1,2
192,224,90896,1,2
224,224,90985,1,2
256,224,91074,1,2
288,224,91163,1,2
320,224,91253,1,2
128,64,91610,5,0
160,64,91699,1,0
192,64,91789,1,0
224,64,91878,1,0
256,64,91967,1,0
128,128,92146,1,0
160,128,92235,1,0
192,128,92324,1,0
224,128,92414,1,0
256,128,92503,1,0
288,128,92592,1,0
320,128,92681,1,0
128,192,92860,1,0
160,192,92949,1,0
192,192,93039,1,0
256,192,93217,1,0
288,192,93306,1,0
320,192,93396,1,0
384,192,93574,1,0
416,192,93664,1,0
416,256,93753,6,2,B|192:256,1,210
206,256,94378,1,0
128,256,94467,1,0
160,256,94556,1,0
96,256,94646,1,0
128,224,94735,1,0
128,192,94824,1,0
128,96,95003,1,0
160,96,95092,1,0
192,96,95181,1,0
224,96,95271,1,0
256,96,95360,1,0
256,96,95449,1,0
288,96,95539,1,0
128,32,95717,1,0
160,32,95806,1,0
192,32,95896,1,0
224,32,95985,1,0
256,32,96074,1,0
288,32,96164,1,0
320,32,96253,1,0
352,32,96342,1,0
384,32,96431,1,0
352,96,96521,1,0
352,96,96610,6,2,B|64:96,1,280
160,64,97414,1,0
192,64,97504,1,0
224,64,97593,1,0
256,64,97682,1,0
128,128,97861,1,0
160,128,97950,1,0
192,128,98039,1,0
224,128,98129,1,0
256,128,98218,1,0
288,128,98307,1,0
320,128,98396,1,0
128,192,98575,1,0
160,192,98664,1,0
192,192,98754,1,0
256,192,98932,1,0
288,192,99021,1,0
320,192,99111,1,0
384,192,99289,1,0
416,192,99379,1,0
416,256,99467,6,2,B|192:256,1,210
206,256,100093,1,0
128,256,100182,1,0
160,256,100271,1,0
96,256,100361,1,0
128,224,100450,1,0
128,192,100539,1,0
128,96,100718,1,0
160,96,100807,1,0
192,96,100896,1,0
224,96,100986,1,0
256,96,101075,1,0
256,96,101164,1,0
288,96,101254,1,0
128,32,101432,1,0
160,32,101521,1,0
192,32,101611,1,0
224,32,101700,1,0
256,32,101789,1,0
288,32,101879,1,0
320,32,101968,1,0
352,32,102057,1,0
384,32,102146,1,0
352,96,102236,1,0
256,192,102324,12,4,103039
