osu file format v7

[General]
AudioFilename: 08 (Satori Stage) .mp3
AudioLeadIn: 3000
PreviewTime: 0
Countdown: 0
SampleSet: Soft
StackLeniency: 0.8
Mode: 0
LetterboxInBreaks: 1

[Editor]
DistanceSpacing: 0.699999988079071
BeatDivisor: 4
GridSize: 8

[Metadata]
Title:Heartfelt Fancy
Artist:ZUN
Creator:Lemon-Chan
Version:Normal
Source:Touhou
Tags:zun satori komeji touhou subterrainean animism

[Difficulty]
HPDrainRate:5
CircleSize:4
OverallDifficulty:4
SliderMultiplier:1.3
SliderTickRate:2

[Events]
//Background and Video events
0,0,"Satori&Koishi.jpg"
//Break Periods
2,52971,55765
//Storyboard Layer 0 (Background)
//Storyboard Layer 1 (Fail)
//Storyboard Layer 2 (Pass)
//Storyboard Layer 3 (Foreground)
//Storyboard Sound Samples
//Background Colour Transformations
3,100,64,0,64

[TimingPoints]
85,375,4,2,0,80,1,0

[Colours]
Combo1 : 247,136,255
Combo2 : 193,0,193

[HitObjects]
256,192,1397,12,8,4585
72,104,6085,5,2
432,112,7585,5,0
344,112,7960,1,2
344,112,8335,2,8,L|472:112|472:248|328:248,1,390,0|8
344,336,9835,5,8
256,336,10210,2,0,L|112:336,1,130
32,336,10960,1,2
80,256,11335,2,0,C|-16:184|120:104|0:48,1,390,0|8
192,48,12835,6,0,C|328:48,3,130,8|0|0|0
416,48,14335,1,8
416,136,14710,1,8
416,224,15085,1,2
352,288,15460,6,0,C|488:288,2,130,2|0|0
256,192,16585,1,0
256,192,16960,1,8
256,192,17335,1,8
144,72,18085,6,0,C|232:96|344:56|416:88,1,260,0|2
376,256,19585,2,0,C|328:240|224:288|120:256,1,260,0|2
136,80,21085,2,0,C|224:104|336:64|408:96,2,260
128,32,23710,6,0,C|224:32,1,65
240,32,24085,1,2
424,32,24835,5,2
424,104,25116,2,0,C|424:272,1,162.5,0|2
336,272,25960,1,0
248,272,26335,2,0,B|104:272,1,130
168,128,27085,5,2
256,128,27460,1,0
344,128,27835,1,2
256,128,28210,2,0,C|256:272,1,130,0|8
200,288,30085,6,0,B|392:200|400:120|352:8|280:16|272:112|256:168|248:168|208:152|248:152|320:152|264:200|224:16|176:0|112:72|88:200|336:288,1,780,2|0
96,96,33085,1,2
96,280,33835,1,0
160,160,34397,2,0,B|160:256,1,65,2|8
392,80,35710,5,2
392,128,35897,2,0,B|392:208,1,65,0|8
256,312,36835,1,2
168,312,37210,2,0,L|168:176|168:168,1,130
96,128,37960,1,0
168,72,38335,1,8
240,128,38710,1,8
312,72,39085,5,0
384,136,39460,1,2
432,136,39647,1,2
480,136,39835,1,2
432,208,40210,1,0
432,296,40585,2,0,L|168:296,1,260,0|8
32,176,42085,5,0
256,176,43022,1,0
304,176,43210,2,2,L|376:176|384:176,2,65
336,112,43866,1,0
336,40,44147,2,4,L|264:40,1,65
184,40,44710,6,0,L|96:40,1,65
120,88,45085,2,0,L|120:168,2,65,2|0|0
120,88,45647,2,0,L|216:88,2,65,2|0|0
120,88,46210,2,0,L|24:88,2,65,2|0|0
120,88,46772,1,8
256,192,47522,12,4,49022
64,72,50522,5,4
64,256,51272,1,4
216,160,52022,1,2
304,160,52397,2,4,L|448:160,1,130
104,88,57085,6,0,B|0:136|0:240|104:288,1,260,2|0
256,192,58585,1,8
304,56,59710,6,0,B|392:56|400:56,2,65,2|0|0
392,56,60460,1,0
392,216,61116,2,0,B|360:312|24:304,1,390,2|0
32,192,62710,2,0,B|32:112,1,65,2|0
32,80,63085,1,4
216,80,63835,2,4,B|480:80,1,260,2|4
392,176,65335,6,0,B|264:176,1,97.5,2|0
224,176,65897,2,0,B|320:176,1,65,2|0
256,192,67678,12,8,70585
96,40,72085,5,2
96,312,73210,2,0,B|184:312|192:312,2,65,2|0|2
32,192,73960,1,0
32,192,74335,2,0,B|136:320|264:184,1,260,0|2
472,200,75835,2,0,B|360:72|248:200,1,260,0|2
72,200,77335,5,8
224,120,78085,6,0,B|168:176,1,65
176,224,78460,2,2,B|232:280,3,65
280,272,79210,2,0,B|344:208,1,65
336,168,79585,2,2,B|280:112,3,65
256,192,80335,5,8
256,192,80710,1,8
152,88,81085,5,0
360,88,81460,1,2
368,288,81835,1,0
152,280,82210,1,2
256,192,82585,12,4,83710
216,248,84085,6,0,B|144:184|224:136|224:136,1,130
256,112,84647,1,2
296,136,84835,2,0,B|367:200|288:247|288:247,1,130
256,192,85585,12,8,86710
280,72,87085,6,0,B|216:120|272:216,1,130
376,208,87835,2,0,B|328:144|232:200,1,130
240,304,88585,2,0,B|304:256|248:160,1,130
144,168,89335,2,0,B|192:232|288:176,1,130
256,192,90085,12,4,92710
88,104,93085,6,0,L|200:168|304:88|440:160,1,390
344,200,94585,1,0
256,200,94960,1,0
168,200,95335,1,0
