osu file format v7

[General]
AudioFilename: 08 (Satori Stage) .mp3
AudioLeadIn: 3000
PreviewTime: 0
Countdown: 0
SampleSet: Soft
StackLeniency: 0.8
Mode: 0
LetterboxInBreaks: 1

[Editor]
Bookmarks: -2147483648,58847,64850,71508,78167
DistanceSpacing: 0.899999976158142
BeatDivisor: 4
GridSize: 8

[Metadata]
Title:Heartfelt Fancy
Artist:ZUN
Creator:Lemon-Chan
Version:Hard
Source:Touhou
Tags:zun satori komeji touhou subterrainean animism

[Difficulty]
HPDrainRate:6
CircleSize:4
OverallDifficulty:4
SliderMultiplier:1.3
SliderTickRate:2

[Events]
//Background and Video events
0,0,"Satori&Koishi.jpg"
//Break Periods
2,52972,55765
//Storyboard Layer 0 (Background)
//Storyboard Layer 1 (Fail)
//Storyboard Layer 2 (Pass)
//Storyboard Layer 3 (Foreground)
//Storyboard Sound Samples
//Background Colour Transformations
3,100,163,162,255

[TimingPoints]
85,375,4,2,0,40,1,0
5976,375,4,2,0,61,1,0

[Colours]
Combo1 : 255,168,224
Combo2 : 173,4,198

[HitObjects]
256,192,85,1,0
256,192,1585,1,0
80,56,3085,6,0,B|152:56|160:56,3,65
176,104,3835,2,0,B|96:104|88:104,3,65
136,160,4585,2,0,B|184:232|264:160,1,130
232,288,5335,2,0,B|304:224|232:160,1,130,0|8
200,64,6085,5,0
240,16,6272,1,0
280,64,6460,1,0
320,24,6647,1,0
360,64,6835,1,0
400,24,7022,1,0
432,72,7210,1,0
432,192,7585,2,0,B|312:312|192:176,1,260
88,192,8710,5,8
40,88,9085,6,0,B|120:88,1,65,0|2
160,88,9460,2,0,B|235:88,1,65,0|2
232,32,9835,1,0
288,32,10022,1,0
344,32,10210,1,0
464,32,10585,2,0,B|440:120|352:104,1,130,0|8
264,144,11335,6,0,B|312:216|392:192,1,130,0|8
400,312,12085,6,0,B|327:312,1,65
280,312,12460,2,0,B|208:312,1,65
160,312,12835,2,0,B|71:312,1,65
40,312,13210,1,8
96,208,13585,6,0,B|120:208,3,16.25
200,104,13960,6,0,B|224:104,3,16.25
304,208,14335,6,0,B|328:208,3,16.25
400,104,14710,6,0,B|424:104,3,16.25
256,192,15085,12,4,16210
224,194,16585,6,0,B|329:194|319:194,4,65,0|0|0|0|8
24,80,18085,6,0,C|24:104|8:120|40:160|8:192|40:224|16:264|24:288,1,260
256,288,19585,2,0,C|256:264|240:248|272:208|240:176|272:144|248:104|256:80,1,260
448,88,21085,2,0,C|432:104|464:144|432:176|464:208|440:248|448:272|448:304,2,260
104,24,23710,5,0
48,24,23897,1,0
104,24,24085,1,2
104,80,24272,2,0,B|104:152,2,65
104,200,24835,2,0,C|136:184|200:208|240:200,1,130,0|2
280,200,25585,1,0
280,200,25960,1,0
280,200,26335,1,0
280,200,26710,1,2
368,120,27085,2,0,B|416:65,2,65
368,240,27835,6,0,B|429:274,2,65
256,192,28585,12,4,29335
48,48,30085,6,0,B|125:48,3,65
168,48,30835,2,0,B|247:48,3,65
288,48,31585,2,0,B|304:64|304:64|280:88|280:88|304:112|304:112|280:136|280:136|304:160|304:160|280:184|280:184|304:208|304:208|280:248,1,260,0|8
424,56,33085,5,0
424,56,33835,1,0
424,56,34585,1,0
144,40,35710,5,0
96,72,35897,1,2
48,104,36085,2,0,B|48:184,3,65
48,224,36835,1,0
112,280,37116,2,0,B|176:240|103:237,2,81.25,0|2|0
232,288,37960,1,0
352,288,38335,1,0
472,288,38710,1,8
472,168,39085,5,0
472,112,39272,1,0
472,56,39460,2,2,B|439:56,1,32.5,2|2
352,56,39835,1,0
296,56,40022,1,0
240,56,40210,1,0
160,144,40585,2,0,B|103:200,1,65,0|8
216,160,40960,2,0,B|191:236,1,65,0|8
272,160,41335,2,0,B|302:242,1,65,0|8
320,144,41710,2,0,B|376:188,1,65,0|8
392,128,42085,6,8,C|456:136|480:112|488:80|472:48|440:32|400:48|376:72,1,260,0|2
392,128,43022,1,0
384,184,43210,2,0,B|305:184,2,65
472,184,43866,1,4
472,272,44147,1,4
472,272,44335,1,4
360,312,44710,6,0,B|276:312,1,65
240,312,45085,2,0,B|159:313,1,65
120,312,45460,1,2
136,256,45647,2,0,B|215:256,1,65
256,256,46022,1,2
272,200,46210,2,0,B|193:200,1,65
152,200,46585,1,2
168,144,46772,2,0,B|448:144,1,260,0|4
136,192,48460,6,0,B|184:192|208:192,2,65
136,136,49022,1,2
80,48,50522,5,8
136,48,50710,2,0,C|160:40|184:48|216:48,2,65
136,104,51272,1,8
192,104,51460,2,0,C|208:96|240:112|264:104,2,65
192,160,52022,2,0,B|192:233,1,65,2|8
248,232,52397,2,0,B|248:299,1,65,2|8
304,304,52772,1,8
256,192,57085,12,4,58585
88,136,59710,6,0,B|158:137,1,65
208,136,60085,1,2
328,136,60460,1,0
456,296,61116,1,8
24,296,62710,5,0
24,240,62897,1,0
24,184,63085,2,0,B|96:184,1,65
144,184,63460,1,2
144,184,63647,1,8
200,184,63835,2,0,B|200:264,1,65
200,249,64210,1,2
200,249,64397,1,8
256,248,64585,1,4
128,48,65335,6,0,B|257:48,1,97.5,0|2
312,48,65897,1,0
368,48,66085,2,0,B|384:64|384:64|360:88|360:88|384:112|384:112|360:136|360:136|384:160|384:160|360:184|360:184|384:208|384:208|360:248,1,260,0|8
136,192,67585,5,0
136,192,69085,5,0
368,272,70585,6,0,B|352:288|352:288|328:264|328:264|304:288|304:288|280:264|280:264|256:288|256:288|232:264|232:264|208:288|208:288|168:264,1,260,0|8
64,64,72085,2,0,B|80:48|80:48|104:72|104:72|128:48|128:48|152:72|152:72|176:48|176:48|200:72|200:72|224:48|224:48|264:72,1,260,0|8
368,64,73210,2,0,B|456:64|464:64,2,65
256,128,73960,1,0
256,232,74335,1,2
256,128,74710,1,0
256,232,75085,1,2
256,128,75835,6,0,B|160:40|120:136|264:240,1,260,0|2
256,128,77335,2,2,B|352:40|392:136|248:240,1,260,2|4
40,72,78835,6,0,B|112:72|120:72,3,65
160,72,79585,1,0
280,72,79960,1,0
400,72,80335,1,0
448,104,80522,1,8
496,136,80710,1,8
504,256,81085,5,0
472,304,81272,1,0
432,344,81460,2,0,B|397:288|460:275,1,65,0|0
432,224,81835,2,0,B|392:168|344:288|312:200,1,130,0|8
304,344,82585,5,0
304,344,82772,1,0
248,344,82960,2,0,B|248:288,2,32.5
248,344,83335,2,0,B|176:344,1,65
128,344,83710,1,2
16,312,84085,6,0,B|0:248|64:256,1,65,0|8
56,200,84460,2,0,B|72:136|8:144,1,65,0|8
16,88,84835,2,0,B|56:88,2,32.5
56,40,85210,1,8
176,32,85585,5,0
176,32,85772,1,0
176,88,85960,1,0
176,88,86147,1,0
232,88,86335,1,0
176,192,86710,1,8
256,272,87085,6,0,B|328:272,3,65
256,272,87835,2,0,B|176:272,3,65
256,272,88585,2,0,B|256:352,1,65
312,336,88960,1,2
368,336,89147,2,2,B|440:336,1,65,0|2
488,336,89522,1,8
488,280,89710,1,8
376,248,90085,6,0,L|472:248,1,65
488,216,90460,2,0,B|488:144,1,65
488,96,90835,1,0
432,96,91022,2,2,L|432:16,3,65
376,32,91772,2,0,B|304:32|288:32,1,65
304,88,92147,2,0,B|224:88|216:88,1,65
232,144,92522,2,2,B|160:144|152:144,1,65
256,192,93085,12,4,94210
224,192,94585,6,0,C|312:192,5,65
289,192,95710,1,8
