osu file format v9

[General]
AudioFilename: 02 - - .mp3
AudioLeadIn: 0
PreviewTime: -1
Countdown: 1
SampleSet: Normal
StackLeniency: 0.7
Mode: 0
LetterboxInBreaks: 1

[Editor]
DistanceSpacing: 1
BeatDivisor: 4
GridSize: 8

[Metadata]
Title:Greenwich in the Sky
Artist:ZUN
Creator:Foster Don
Version:Extra Stage
Source:Touhou
Tags:Magical Astronomy

[Difficulty]
HPDrainRate:6
CircleSize:4
OverallDifficulty:8
ApproachRate:9
SliderMultiplier:1.6
SliderTickRate:1

[Events]
//Background and Video events
0,0,"konachan-com-56150-blonde_hair-brown_hair-hat-long_hair-maribel_han-short_hair-smile-touhou-usami_renko.jpg"
//Break Periods
2,76580,83780
2,184669,191870
//Storyboard Layer 0 (Background)
//Storyboard Layer 1 (Fail)
//Storyboard Layer 2 (Pass)
//Storyboard Layer 3 (Foreground)
//Storyboard Sound Samples
//Background Colour Transformations
3,100,163,162,255

[TimingPoints]
8310,250,4,1,0,70,1,0
27060,-200,4,1,0,70,0,0
27310,-100,4,1,0,70,0,0
31060,-200,4,1,0,70,0,0
31310,-100,4,1,0,70,0,0
40310,257.659148936172,4,1,0,70,1,0
44380,250,4,1,0,70,1,0
89130,-200,4,1,0,70,0,0
89380,-100,4,1,0,70,0,0
103130,-200,4,1,0,70,0,0
103380,-100,4,1,0,70,0,0
109130,-200,4,1,0,70,0,0
109380,-100,4,1,0,70,0,0
116380,257.658911133442,4,1,0,70,1,0
120470,250,4,1,0,70,1,0
182220,-200,4,1,0,70,0,0
182470,-100,4,1,0,70,0,0
200470,-80,4,1,0,70,0,1
203220,-160,4,1,0,70,0,1
203470,-80,4,1,0,70,0,1
207220,-160,4,1,0,70,0,1
207470,-80,4,1,0,70,0,1
208470,-66.6666666666667,4,1,0,70,0,1
211220,-133.333333333333,4,1,0,70,0,1
211470,-66.6666666666667,4,1,0,70,0,1
215220,-200,4,1,0,70,0,0

[Colours]
Combo1 : 255,255,0
Combo2 : 0,255,0
Combo3 : 255,255,255
Combo4 : 255,0,128

[HitObjects]
432,160,7809,2,0,B|480:192|432:224,1,80,0|0
360,192,8059,1,0
336,192,8122,1,0
320,192,8184,1,0
296,192,8247,1,0
280,192,8309,1,0
176,312,8560,6,0,B|130:357|85:357|36:308,1,160,0|0
112,192,8935,1,0
36,75,9060,2,0,B|85:26|130:26|176:72,1,160,0|0
256,160,9497,5,2
368,112,9685,1,2
368,192,9810,1,2
256,240,9997,1,2
144,192,10185,1,2
144,272,10310,6,0,B|144:312|144:352,1,80
224,368,10560,2,0,B|256:320|288:368,1,80
368,352,10810,2,0,B|368:312|368:272,1,80
256,240,11060,2,0,B|256:72,1,160
312,8,11497,6,0,B|192:8,1,120
192,8,11810,1,0
192,8,12060,1,0
96,328,12310,6,0,B|80:288|96:248,1,80
160,288,12560,2,0,B|216:288|232:240,1,80
160,208,12810,2,0,B|170:173|226:173,1,80
288,216,13060,2,0,B|336:168|272:104|256:88|216:96,1,160,0|2
152,96,13497,5,2
32,96,13685,1,2
32,96,13810,1,2
32,216,13997,1,2
152,216,14185,1,2
208,160,14310,5,0
272,112,14435,1,0
336,160,14560,1,0
272,208,14685,2,0,B|272:288,1,80
208,336,14935,1,0
272,384,15060,2,0,B|336:336|336:336|352:296|352:296|352:256,1,160
352,136,15498,6,0,B|352:99|352:99|368:59|368:59|424:24,1,120
432,112,15810,1,0
448,128,15873,1,0
464,144,15935,1,0
448,160,15998,1,0
432,176,16060,1,0
448,192,16123,1,0
464,208,16185,1,0
448,224,16248,1,0
432,240,16310,6,0,B|360:312|360:312|304:336|248:312|248:312|176:240,2,320
304,144,17560,5,0
176,48,17810,1,0
48,144,18060,1,0
64,304,18310,2,0,B|176:384|288:304,2,240
208,232,19310,6,0,B|296:192|360:240,2,160
104,112,20060,1,0
256,56,20310,1,0
408,112,20560,5,0
408,112,20685,2,0,B|408:192|320:240,1,160
188,238,21060,2,0,B|104:192|104:112,1,160
256,160,21561,6,0,B|256:72,1,80
256,240,21936,2,0,B|256:160,1,80
256,320,22311,1,0
256,192,22436,12,0,23312
256,272,23561,5,0
256,112,23686,1,0
199,248,23811,1,0
312,135,23936,1,0
176,191,24061,1,0
335,191,24186,1,0
256,192,24311,1,8
144,80,24561,6,0,B|104:80|72:112,1,80,0|8
96,192,24811,1,0
72,272,24936,1,0
144,312,25060,2,0,B|208:360|208:360|288:360,1,160,8|2
232,256,25498,6,0,B|288:256|288:256|336:208,1,120,2|2
256,176,25811,2,0,B|301:130|301:130|357:130,2,120,2|2|2
184,192,26311,6,0,B|144:216|104:192,1,80,8|0
112,112,26561,2,0,B|152:88|192:112,1,80,0|8
328,192,26811,2,0,B|368:216|408:192,1,80
400,112,27061,2,0,B|360:88|320:112,1,80,8|2
256,208,27497,5,2
216,80,27686,2,0,B|256:56|296:80,3,80,2|2|0|0
256,232,28311,5,8
256,232,28436,1,0
296,304,28561,1,0
296,304,28686,2,0,B|392:304,1,80,8|0
424,240,28936,2,0,B|344:240,1,80,0|8
296,88,29311,5,2
296,88,29499,1,2
296,88,29686,1,2
216,88,29811,1,2
216,88,29999,1,2
216,88,30186,1,2
136,88,30311,6,0,B|136:168,1,80,8|0
216,296,30561,2,0,B|216:216,1,80,0|8
296,88,30811,2,0,B|296:168,1,80,0|0
376,296,31061,2,0,B|376:216,1,80,8|2
376,96,31499,6,2,B|416:96|416:96|448:128|448:128|448:168,1,120
448,240,31811,2,0,B|448:320|448:336|448:336|408:376|408:376|320:376,1,240,2|0
240,376,32311,5,8
240,376,32436,1,0
168,344,32561,1,0
168,344,32686,1,8
136,272,32811,1,0
136,272,32936,1,0
136,192,33061,2,0,B|136:136|104:88|48:72,1,160,8|2
48,192,33499,5,2
48,192,33686,2,0,B|128:192,1,80,2|2
240,232,33999,1,2
240,232,34187,2,0,B|264:192|240:152,1,80,2|8
160,160,34437,6,0,B|160:112|200:88,1,80
160,224,34687,2,0,B|160:272|120:296,1,80,8|0
80,224,34937,1,0
240,152,35062,2,0,B|272:104|336:72|376:72,1,160,8|2
376,192,35499,5,2
304,288,35687,1,2
304,288,35812,2,0,B|248:352|200:344|152:352|96:288,1,240,2|0
120,208,36312,6,0,B|152:176|152:136,1,80,8|0
176,256,36562,2,0,B|221:256|249:227,1,80,0|8
184,328,36812,2,0,B|216:360|256:360,2,80,0|0|8
320,248,37310,6,2,B|384:248|432:296,2,120
192,136,37810,2,2,B|128:136|80:88,2,120
256,192,38310,5,8
256,192,38435,1,0
176,192,38560,1,0
176,192,38685,1,8
336,192,38810,1,0
336,192,38935,1,0
328,272,39060,2,0,B|256:336|184:272,2,160,10|2|0
256,128,39810,6,2,B|256:88,6,40,2|0|0|0|0|0|0
184,192,40310,6,0,B|256:8|328:192,2,240,2|0|0
256,336,41341,5,2
136,232,41598,1,0
192,128,41727,1,0
320,128,41855,1,0
376,232,41984,1,0
256,264,42113,1,0
256,192,42372,12,0,44380
256,88,44630,5,0
112,160,44880,1,0
112,320,45130,1,0
256,256,45380,1,0
400,320,45630,5,0
448,256,45755,1,0
400,192,45880,1,8
448,128,46005,1,8
400,64,46130,1,8
256,136,46380,5,0
120,48,46630,1,0
256,136,46880,1,0
392,48,47130,1,0
256,136,47380,1,0
112,200,47630,5,0
176,248,47755,1,0
256,264,47880,1,8
336,248,48005,1,8
400,200,48130,1,8
448,48,48380,6,0,B|280:48,1,160
288,48,48880,1,0
64,336,49130,2,0,B|232:336,1,160
224,336,49630,5,0
304,336,49755,1,0
376,304,49880,1,8
400,224,50005,1,8
400,144,50130,1,8
256,192,50255,12,0,50755
256,64,50880,6,0,B|160:64,1,80
384,192,51130,6,0,B|384:96,1,80
256,320,51380,6,0,B|352:320,1,80
128,192,51630,6,0,B|128:288,2,80
256,192,52130,5,0
176,56,52380,5,0
336,56,52630,1,0
112,136,52880,1,0
400,136,53130,1,0
176,216,53380,1,0
336,216,53630,5,0
336,216,53755,1,0
336,216,53880,1,8
336,216,54005,1,8
336,216,54130,1,8
256,352,54380,5,0
136,248,54630,1,0
376,248,54880,1,0
176,120,55130,1,0
336,120,55380,1,0
256,256,55630,5,0
256,176,55755,1,0
256,256,55880,1,8
256,176,56005,1,8
256,256,56130,1,8
176,120,56380,5,0
336,120,56630,1,0
96,120,56880,1,0
416,120,57130,1,0
96,120,57380,1,0
256,96,57630,5,0
256,96,57755,1,0
184,192,57880,1,8
256,224,58005,1,8
328,192,58130,1,8
472,192,58380,6,0,B|472:32,1,160,0|0
40,192,58880,2,0,B|40:352,1,160,0|2
120,352,59255,5,0
136,352,59317,1,0
152,352,59380,2,0,B|200:304,3,40
208,352,59630,6,0,B|240:320,3,40,2|0|0|0
264,352,59880,6,0,B|296:320,3,40
320,352,60130,6,0,B|352:320,4,40,0|0|0|0|2
360,192,60630,5,0
360,32,60880,1,0
328,192,61130,1,0
328,32,61380,1,0
296,192,61630,5,0
208,112,61755,1,0
112,32,61880,1,8
208,112,62005,1,8
296,192,62130,1,8
200,352,62380,5,0
56,272,62630,1,0
56,112,62880,1,0
200,32,63130,1,0
376,192,63380,1,0
216,192,63630,5,0
96,192,63755,1,0
216,192,63880,1,8
96,192,64005,1,8
216,192,64130,1,8
328,336,64380,6,0,B|256:400|184:336,1,160
256,192,64880,1,0
327,47,65130,2,0,B|256:-16|184:47,1,160
320,128,65630,5,0
192,128,65755,1,0
160,240,65880,1,8
256,312,66005,1,8
352,240,66130,1,8
256,192,66255,12,0,66755
256,320,66880,5,0
336,320,67005,1,0
128,192,67130,5,0
128,272,67255,1,0
256,64,67380,5,0
176,64,67505,1,0
384,192,67630,5,0
384,112,67755,1,0
384,192,67880,1,0
224,192,68130,6,0,B|240:208|240:208|240:184|240:184|256:208|256:208|256:184|256:184|272:208|272:208|272:184|272:184|280:200,1,160
112,192,68630,6,0,B|112:136|112:136|152:96|152:96|200:96,1,160
400,192,69130,2,0,B|400:248|400:248|360:288|360:288|312:288,1,160
184,192,69630,5,0
224,120,69755,1,0
344,144,69880,1,8
304,216,70005,1,8
256,280,70130,1,8
256,48,70380,5,0
400,112,70630,1,0
400,272,70880,1,0
256,336,71130,1,0
184,192,71380,1,0
72,304,71630,5,0
24,240,71755,1,0
88,192,71880,1,8
24,144,72005,1,8
72,80,72130,1,8
208,160,72380,5,0
264,224,72630,1,0
320,72,72880,1,0
376,304,73130,1,0
480,0,73380,1,0
344,80,73630,6,0,B|432:80,1,80
384,192,73880,1,8
424,304,74005,2,8,B|336:304,1,80
232,192,74380,5,0
192,192,74630,1,0
152,192,74879,1,2
136,192,74942,1,0
120,192,75005,2,0,B|80:192,6,40,0|0|2|0|0|0|0
128,272,75505,6,0,B|208:272,1,80,0|2
304,112,75755,2,0,B|224:112,1,80
208,248,76005,2,0,B|288:248,1,80
384,88,76255,2,0,B|304:88,1,80
256,120,84380,5,8
189,83,84505,1,0
114,109,84630,1,0
84,181,84755,1,8
115,250,84880,1,0
182,287,85005,1,0
256,261,85130,1,8
352,136,85380,6,2,B|352:256,2,120
432,256,85880,2,2,B|432:136,2,120
392,328,86380,5,8
392,328,86505,1,0
320,360,86630,1,0
320,360,86755,1,8
248,328,86880,1,0
248,328,87005,1,0
320,288,87130,2,0,B|280:256|280:256|248:256|216:256|216:256|176:288,1,160,8|2
64,288,87567,6,0,B|152:200,1,120,2|2
224,176,87880,2,0,B|312:176|312:176|368:232,1,160,2|0
304,80,88380,6,0,B|216:80,1,80,8|0
88,160,88630,2,0,B|168:160,1,80,0|8
304,240,88880,2,0,B|216:240,1,80
88,328,89130,2,0,B|168:328,1,80,8|2
288,328,89567,5,2
392,272,89755,1,2
424,200,89880,1,2
392,88,90067,1,2
288,24,90255,1,2
208,24,90380,5,8
208,24,90505,1,0
128,24,90630,2,0,B|128:72|128:72|152:96,1,80,0|8
232,96,90880,2,0,B|232:136|232:136|192:168,1,80
120,160,91130,2,0,B|120:240|192:240|192:296,1,160,8|2
256,192,91567,5,2
320,296,91755,1,2
400,296,91880,1,2
408,280,91942,1,0
416,264,92005,1,0
424,248,92067,1,0
432,232,92130,1,0
440,216,92192,1,0
448,200,92255,1,0
456,184,92317,1,0
464,168,92380,1,8
344,64,92630,6,0,B|256:64|256:64|200:120,1,160,0|8
48,120,93130,2,0,B|8:192|8:192|48:264,2,160,0|8|0
88,192,93755,2,0,B|128:152|128:152|208:232|208:232|264:176,1,240,8|8
400,88,94380,2,0,B|512:192|400:296,2,240,8|8|8
280,192,95380,1,8
280,192,95630,1,0
160,296,95880,5,8
256,72,96130,1,0
352,296,96380,1,8
464,48,96880,2,4,B|296:48,1,160
40,192,97380,6,2,B|208:192,1,160
464,272,97755,2,2,B|296:272,1,160,0|0
48,352,98130,2,8,B|216:352,1,160,8|8
256,192,98505,12,0,99380
192,128,99630,5,0
320,128,99755,1,0
256,232,99880,1,0
256,72,100005,5,0
176,208,100130,1,0
336,208,100255,1,0
256,232,100380,6,0,B|256:312,2,80,8|0|0
256,152,100755,2,0,B|256:64,2,80,8|0|0
256,232,101130,1,8
360,112,101380,5,2
256,56,101567,1,2
144,112,101755,1,2
144,272,101880,1,2
256,328,102068,1,2
360,272,102255,1,2
336,192,102380,6,0,B|336:280,1,80,8|0
176,216,102630,2,0,B|176:136,1,80,0|8
336,112,102880,2,0,B|336:192,1,80
176,136,103130,2,0,B|176:56,1,80,8|2
56,56,103567,6,2,B|24:88|88:88|56:120|56:120|56:168,1,120
56,248,103880,2,0,B|56:296|88:328|176:328,1,160,2|0
328,280,104380,5,8
256,248,104505,1,0
336,256,104630,1,0
264,224,104755,1,8
344,232,104880,1,0
272,200,105005,1,0
352,208,105130,1,8
328,48,105380,5,2
328,48,105567,1,2
328,48,105755,1,2
184,48,105880,1,2
184,48,106067,1,2
184,48,106255,1,2
224,120,106380,5,8
224,120,106505,1,0
288,168,106630,1,0
288,168,106755,1,8
224,216,106880,1,0
224,216,107005,1,0
288,264,107130,2,0,B|248:304|176:304|144:240|144:240,1,160,8|2
152,128,107567,6,2,B|88:128|88:128|48:168,1,120
48,248,107880,2,2,B|88:248|88:248|136:200|136:200|192:200,1,160,2|0
344,152,108380,6,0,B|344:232,1,80,8|0
424,232,108630,2,0,B|424:144,1,80,0|8
264,152,108880,2,0,B|264:232,1,80
504,232,109130,2,0,B|504:144,1,80,8|2
400,88,109567,6,2,B|400:56|400:56|368:24|368:24|320:24,1,120
280,88,109880,2,2,B|256:64|256:64|256:24|256:24|256:24|208:24,2,120
336,152,110380,6,0,B|384:152,2,40,8|0|0
336,232,110630,1,0
336,232,110692,1,0
336,232,110755,1,8
288,296,110880,2,0,B|320:328,2,40
208,312,111130,1,8
208,312,111192,1,0
208,312,111255,1,0
208,312,111317,1,0
208,312,111380,1,2
224,192,111567,5,2
104,192,111755,1,2
104,192,111880,2,2,B|120:112|208:80,1,160,2|0
352,8,112380,5,8
408,64,112505,1,0
448,128,112630,1,0
488,192,112755,1,8
448,256,112880,1,0
408,320,113005,1,0
352,376,113130,1,8
272,240,113380,6,2,B|312:192|312:192|272:144,2,120
188,147,113880,2,2,B|152:192|152:192|192:240,2,120
256,104,114380,5,8
328,64,114505,1,0
400,104,114630,1,0
328,200,114755,1,8
256,240,114880,1,0
184,200,115005,1,0
184,200,115130,1,10
256,56,115380,5,2
256,72,115442,1,0
256,88,115505,1,0
256,104,115567,1,0
256,120,115630,1,0
256,136,115692,1,0
256,152,115755,1,0
256,168,115817,1,0
256,184,115880,6,0,B|256:208,12,20,2|0|0|0|0|0|0|0|0|0|0|0|0
328,192,116380,6,0,B|256:376|184:192,2,240
256,48,117411,1,0
376,152,117668,1,0
320,256,117797,1,0
192,256,117925,1,0
136,152,118054,1,0
256,120,118183,1,0
256,192,118441,12,0,120470
128,192,120720,5,0
176,344,120970,1,0
336,344,121220,1,0
384,192,121470,1,0
256,96,121720,5,0
176,96,121845,1,0
216,168,121970,1,8
296,168,122095,1,8
336,96,122220,1,8
256,232,122470,5,0
112,304,122720,2,0,B|48:232|112:160,1,160
400,160,123220,2,0,B|464:232|400:304,1,160
256,368,123720,5,0
216,296,123845,1,0
296,296,123970,1,8
256,224,124095,1,8
256,224,124220,1,8
136,120,124470,5,0
256,16,124720,1,0
376,120,124970,1,0
256,16,125220,1,0
256,176,125470,1,0
256,16,125720,5,0
256,16,125845,1,0
256,16,125970,1,8
256,16,126095,1,8
256,16,126220,1,8
256,192,126345,12,0,126845
256,336,126970,5,0
208,336,127095,1,0
144,312,127220,1,0
96,248,127345,1,0
96,152,127470,1,0
168,72,127595,1,0
296,40,127720,1,0
416,128,127845,1,0
416,288,127970,1,0
232,192,128220,6,0,B|240:200|240:200|240:184|240:184|248:200|248:200|248:184|248:184|256:200|256:200|256:184|256:184|264:200|264:200|264:184|264:184|272:200|272:200|272:184|272:184|280:192,1,160
432,192,128720,6,0,B|360:256|288:192,1,160
80,192,129220,2,0,B|152:128|224:192,1,160
256,32,129720,5,0
192,80,129845,1,0
216,152,129970,1,8
296,152,130095,1,8
320,80,130220,1,8
256,224,130470,5,0
144,112,130720,1,0
368,112,130970,1,0
368,336,131220,1,0
144,336,131470,1,0
80,192,131720,5,0
168,272,131845,1,0
256,192,131970,1,8
344,272,132095,1,8
432,192,132220,1,8
336,64,132470,6,0,B|176:64,1,160
336,192,132970,2,0,B|176:192,1,160
256,328,133470,1,0
160,200,133720,5,0
208,264,133845,1,0
256,200,133970,1,8
304,264,134095,1,8
352,200,134220,1,8
256,72,134470,5,0
256,72,134532,1,0
136,80,134720,1,0
136,80,134782,1,0
56,176,134970,1,0
56,176,135032,1,0
56,296,135220,1,0
136,296,135345,5,0
152,296,135407,1,0
168,296,135470,2,0,B|200:264,3,40
216,304,135720,6,0,B|248:272,3,40
272,304,135970,6,0,B|304:272,3,40
328,304,136220,6,0,B|360:272,4,40
40,40,136720,5,0
472,40,136970,1,0
40,344,137220,1,0
472,344,137470,1,0
336,264,137720,5,0
240,192,137845,1,0
336,120,137970,1,8
240,192,138095,1,8
336,264,138220,1,8
472,344,138470,5,0
40,40,138720,1,0
472,40,138970,1,0
40,344,139220,1,0
40,344,139470,1,0
88,192,139720,5,0
160,288,139845,1,0
256,360,139970,1,8
352,288,140095,1,8
424,192,140220,1,8
472,40,140470,5,0
472,40,140720,1,0
40,40,140970,1,0
40,40,141220,1,0
256,344,141470,1,0
256,184,141720,5,0
256,184,141845,1,0
256,184,141970,1,8
256,184,142095,1,8
256,184,142220,1,8
256,192,142345,12,0,142845
32,192,142970,5,0
48,264,143095,1,0
112,336,143220,1,0
232,352,143345,1,0
360,296,143470,1,0
440,144,143595,1,0
296,16,143720,1,0
112,128,143845,1,0
288,296,143970,1,0
168,192,144220,5,0
256,112,144345,1,0
344,192,144470,1,0
200,272,144720,6,0,B|256:376|312:272,1,160
312,112,145220,2,0,B|256:8|200:112,1,160
64,192,145720,5,0
136,96,145845,1,0
208,192,145970,1,8
280,288,146095,1,8
352,192,146220,1,8
464,184,146470,6,0,B|464:136|464:136|424:96|424:96|368:96,1,160
48,200,146970,2,0,B|48:248|48:248|88:288|88:288|144:288,1,160
256,192,147470,1,0
192,48,147720,5,0
192,48,147845,1,0
320,48,147970,1,8
320,48,148095,1,8
256,152,148220,1,8
136,256,148470,6,0,B|136:312|96:352|32:352,1,160
376,128,148970,2,0,B|376:72|416:32|480:32,2,160
416,280,149720,5,0
296,256,149845,1,0
256,144,149970,1,8
216,32,150095,1,8
96,8,150220,1,8
96,168,150470,5,0
112,248,150595,1,0
168,304,150720,1,0
248,328,150845,1,0
328,328,150970,1,2
344,328,151032,1,0
360,320,151095,1,0
376,304,151157,1,0
384,288,151220,1,2
384,272,151282,1,0
384,256,151345,1,0
376,240,151407,1,0
368,224,151470,6,0,B|352:184,6,40,0|0|0|0|2|0|0
256,176,151970,5,0
288,104,152095,1,0
272,96,152158,1,0
256,96,152220,1,0
240,96,152282,1,0
224,104,152345,1,0
256,32,152470,5,0
32,352,152720,1,0
480,352,152970,1,0
256,48,153220,1,0
256,368,153470,1,0
176,192,153720,5,0
336,192,153845,1,0
176,192,153970,1,8
336,192,154095,1,8
176,192,154220,1,8
16,192,154470,6,0,B|16:24,1,160
496,192,154970,2,0,B|496:360,2,160
248,64,155720,5,0
120,160,155845,1,0
176,312,155970,1,8
336,312,156095,1,8
392,160,156220,1,8
176,192,156470,5,0
336,192,156720,1,0
96,192,156970,1,0
416,192,157220,1,0
16,192,157470,1,0
496,192,157720,5,0
392,72,157845,1,0
256,152,157970,1,8
120,72,158095,1,8
16,192,158220,1,8
256,192,158345,12,0,158845
472,40,158970,5,0
424,152,159095,1,0
312,192,159220,1,0
192,88,159345,5,0
141,195,159470,1,0
186,308,159595,1,0
312,192,159720,5,0
424,232,159845,1,0
472,344,159970,1,0
56,192,160220,5,0
56,192,160282,1,0
56,192,160345,1,0
56,192,160407,1,0
56,192,160470,1,0
336,40,160720,1,0
336,40,160782,1,0
336,40,160845,1,0
336,40,160907,1,0
336,40,160970,1,0
336,344,161220,1,0
336,344,161282,1,0
336,344,161345,1,0
336,344,161407,1,0
336,344,161470,1,0
144,288,161720,5,0
56,152,161845,1,0
160,32,161970,1,8
320,48,162095,1,8
384,192,162220,1,8
472,328,162470,6,0,B|312:328,1,160
40,328,162970,2,0,B|200:328,1,160
256,176,163470,1,0
40,184,163720,5,0
96,32,163845,1,0
256,8,163970,1,8
416,32,164095,1,8
472,184,164220,1,8
176,192,164470,5,0
216,192,164720,1,0
256,192,164970,1,0
296,192,165220,1,0
336,192,165470,1,0
256,56,165720,6,0,B|176:56,1,80
256,192,165970,1,8
256,328,166095,2,8,B|336:328,1,80
256,192,166470,5,0
256,192,166720,1,0
256,192,166970,1,0
256,192,167220,1,2
96,192,167470,6,0,B|56:192,2,40
256,32,167720,6,0,B|256:-8,2,40,2|0|0
416,192,167970,6,0,B|456:192,2,40
256,352,168220,6,0,B|256:392,4,40,2|0|0|0|0
96,344,168720,6,0,B|96:184,1,160
416,40,169220,2,0,B|416:200,1,160
256,112,169720,5,0
256,272,169845,1,0
336,192,169970,1,8
176,192,170095,1,8
336,192,170220,1,8
32,32,170470,5,0
480,352,170720,1,0
32,32,170970,1,0
480,352,171220,1,0
32,32,171470,1,0
256,232,171720,6,0,B|256:152,4,80,0|0|8|8|8
32,352,172470,5,0
480,32,172720,1,0
32,352,172970,1,0
480,32,173220,1,0
32,352,173470,1,0
296,192,173720,6,0,B|216:192,4,80,0|0|8|8|8
256,192,174345,12,0,174845
40,40,174970,5,0
96,192,175095,1,0
256,160,175220,1,0
472,40,175345,5,0
416,192,175470,1,0
256,160,175595,1,0
112,352,175720,5,0
256,280,175845,1,0
400,352,175970,1,0
216,40,176220,6,0,B|296:40,2,80
104,160,176720,1,0
408,160,176970,1,0
0,280,177220,1,0
512,280,177470,1,0
352,248,177720,6,0,B|352:304|304:304,1,80
160,136,177970,2,0,B|160:80|208:80,2,80,8|8|8
320,128,178470,5,0
192,256,178720,1,0
432,16,178970,1,0
80,368,179220,1,0
432,16,179470,1,0
352,160,179720,6,0,B|400:192|352:224,1,80
160,224,179970,2,8,B|112:192|160:160,2,80
312,264,180470,6,0,B|256:368|200:264,1,160
56,192,180970,1,0
200,120,181220,2,0,B|256:16|312:120,1,160
456,192,181720,6,0,B|376:192,1,80
397,333,181970,2,8,B|340:276,1,80
397,50,182220,2,0,B|340:107,1,80,8|0
200,192,182720,5,0
40,192,182970,1,2
200,192,183220,5,2
200,192,183282,1,0
200,192,183345,1,0
256,136,183470,5,0
256,136,183532,1,0
256,136,183595,1,0
312,192,183720,5,2
312,192,183782,1,0
312,192,183845,1,0
256,248,183970,5,0
256,248,184032,1,0
256,248,184095,1,0
256,248,184157,1,0
256,248,184220,1,0
224,320,184345,6,2,B|256:368|288:320,1,80
256,192,192470,5,0
336,328,192720,2,0,B|381:373|426:373|477:322,1,160,0|0
400,192,193095,1,0
475,59,193220,2,0,B|426:10|381:10|336:56,1,160,0|0
256,144,193657,5,2
144,112,193845,1,2
144,192,193970,1,2
256,240,194157,1,2
368,192,194345,1,2
368,272,194470,6,0,B|368:312|368:352,1,80
288,360,194720,2,0,B|256:312|224:360,1,80
144,352,194970,2,0,B|144:312|144:272,1,80
256,264,195220,2,0,B|256:96,1,160
200,8,195657,6,0,B|320:8,1,120
320,8,195970,1,0
320,8,196220,1,0
416,328,196470,6,0,B|432:288|416:248,1,80
352,288,196720,2,0,B|296:288|280:240,1,80
352,208,196970,2,0,B|342:173|286:173,1,80
224,216,197220,2,0,B|176:168|240:104|256:88|296:96,1,160,0|2
360,96,197657,5,2
480,96,197845,1,2
480,96,197970,1,2
480,216,198157,1,2
360,216,198345,1,2
304,160,198470,5,0
240,112,198595,1,0
176,160,198720,1,0
240,208,198845,2,0,B|240:288,1,80
304,336,199095,1,0
240,384,199220,2,0,B|176:336|176:336|160:296|160:296|160:256,1,160
160,136,199658,6,0,B|160:99|160:99|144:59|144:59|88:24,1,120
80,112,199970,1,0
64,128,200033,1,0
48,144,200095,1,0
64,160,200158,1,0
80,176,200220,1,0
64,192,200283,1,0
48,208,200345,1,0
48,304,200470,5,8
64,320,200532,1,0
88,320,200595,1,0
184,304,200720,1,0
256,232,200845,1,8
256,136,200970,1,0
264,112,201032,1,0
280,96,201095,1,0
376,64,201220,1,8
376,264,201470,6,2,B|376:336|376:336|304:368,1,149.999997764826
304,367,201845,1,2
136,264,201970,2,2,B|136:336|136:336|208:368,1,149.999997764826
207,367,202345,1,2
280,296,202470,6,0,B|376:272,1,99.9999985098839,8|0
232,232,202720,2,0,B|136:208,1,99.9999985098839,0|8
280,168,202970,2,0,B|376:144,1,99.9999985098839
232,104,203220,2,0,B|136:80,1,99.9999985098839,8|2
32,192,203657,5,2
32,192,203845,1,2
32,288,203970,2,0,B|112:288|112:288|160:240|224:192|160:144|112:96|112:96|32:96,1,399.999994039536,2|8
112,40,204595,1,0
136,40,204657,1,0
160,40,204720,1,0
288,120,204845,1,8
264,120,204908,1,0
240,120,204970,1,0
112,200,205095,1,0
240,280,205220,1,8
264,280,205282,1,0
288,280,205345,1,0
384,256,205470,6,2,B|456:192|384:128,2,149.999997764826
128,256,205970,2,2,B|56:192|128:128,2,149.999997764826
184,344,206470,6,0,B|144:344|88:312,1,99.9999985098839,8|0
160,240,206720,2,0,B|131:211|114:149,1,99.9999985098839,0|8
216,160,206970,2,0,B|216:120|248:64,1,99.9999985098839,0|0
328,128,207220,2,0,B|356:99|418:82,1,99.9999985098839,8|2
480,160,207595,5,0
480,160,207657,1,2
480,160,207720,2,0,B|480:208,3,49.999999254942,0|0|2|0
432,232,207970,6,0,B|432:280,3,49.999999254942,2|0|0|0
480,304,208220,6,0,B|480:352,4,49.999999254942,0|0|0|0|8
360,328,208595,5,0
256,272,208720,1,0
152,328,208845,1,8
152,208,208970,1,0
256,152,209095,1,0
360,208,209220,1,8
152,88,209470,6,2,B|72:136|72:136|72:224,1,179.999994635582
72,222,209845,1,2
360,88,209970,2,2,B|440:136|440:136|440:224,1,179.999994635582
440,222,210345,1,2
440,344,210470,6,0,B|320:344,1,119.999996423721,8|0
72,344,210720,2,0,B|192:344,1,119.999996423721,0|8
480,272,210970,2,0,B|360:272,1,119.999996423721
32,272,211220,2,0,B|152:272,1,119.999996423721,8|2
256,120,211657,5,2
256,120,211845,1,2
160,192,211970,2,2,B|256:328|352:192,1,239.999992847443,2|0
184,320,212470,5,8
80,240,212595,1,0
184,184,212720,1,0
80,120,212845,1,8
192,64,212970,1,0
296,120,213095,1,0
296,240,213220,1,8
448,56,213470,5,2
328,192,213657,1,2
448,328,213845,1,2
64,328,213970,1,2
184,192,214158,1,2
64,56,214345,1,2
184,32,214470,5,8
304,56,214595,1,0
392,136,214720,1,0
392,256,214845,1,8
304,336,214970,1,0
184,360,215095,1,0
256,192,215220,2,0,B|168:192,1,80,8|8
256,192,215595,12,4,215970
