osu file format v9

[General]
AudioFilename: 01 Sanatorium in Mountain.mp3
AudioLeadIn: 0
PreviewTime: -1
Countdown: 0
SampleSet: Normal
StackLeniency: 0.7
Mode: 0
LetterboxInBreaks: 1

[Editor]
DistanceSpacing: 0.8
BeatDivisor: 2
GridSize: 8

[Metadata]
Title:Green Sanatorium
Artist:ZUN
Creator:Xyou
Version:Normal
Source:Neo-Traditionalism of Japan
Tags:Green Sanatorium Touhou ZUN Neo-Traditionalism of Japan music collection 7 Maribel Hearn Renko Usami

[Difficulty]
HPDrainRate:6
CircleSize:5
OverallDifficulty:5
ApproachRate:5
SliderMultiplier:1
SliderTickRate:1

[Events]
//Background and Video events
0,0,"Green Sanatorium.jpg"
//Break Periods
2,50944,64043
//Storyboard Layer 0 (Background)
//Storyboard Layer 1 (Fail)
//Storyboard Layer 2 (Pass)
//Storyboard Layer 3 (Foreground)
//Storyboard Sound Samples
//Background Colour Transformations
3,100,163,162,255

[TimingPoints]
0,402.736842105265,4,1,0,70,1,0

[Colours]
Combo1 : 47,184,208
Combo2 : 115,250,107
Combo3 : 37,51,222
Combo4 : 231,226,50
Combo5 : 255,17,23

[HitObjects]
157,198,805,1,0
313,230,1610,1,0
446,142,2416,1,0
300,76,3221,1,0
156,146,4027,1,0
78,285,4832,1,0
219,210,5638,2,0,B|431:306|431:306|457:139,1,400
306,85,8054,5,0
154,135,8860,1,0
300,198,9665,1,0
143,233,10471,1,0
269,330,11276,1,0
428,313,12082,2,0,B|56:136,1,400
215,82,14498,5,0
373,56,15304,1,0
430,205,16109,1,0
288,278,16914,1,0
431,206,17720,2,0,B|429:154|388:129|358:128|328:132|307:147|299:182|306:221|303:217,2,200
353,346,20136,5,0
219,257,20942,1,0
352,345,21747,1,0
467,234,22553,1,0
337,139,23358,1,0
212,239,24164,1,0
371,255,24969,2,0,B|438:207|443:165|426:139|414:109|364:96|358:92,1,200
222,48,26580,5,0
163,102,26983,1,0
242,110,27386,1,0
182,163,27788,1,0
253,199,28191,1,0
374,303,28997,5,0
214,305,29802,1,0
89,203,30608,1,0
223,116,31413,2,0,B|410:211,1,200
469,351,33024,5,0
409,296,33427,1,0
344,343,33829,1,0
299,276,34232,1,0
226,310,34635,1,0
88,228,35440,1,0
172,93,36246,5,0
192,170,36649,1,0
269,149,37051,1,0
248,71,37454,1,0
323,96,37857,1,0
365,250,38662,2,0,B|250:276|255:274,2,100
453,116,40273,6,0,B|329:119|331:117,4,100
426,274,42690,1,0
270,309,43495,1,0
424,268,44301,1,0
256,192,45509,12,0,50744
114,294,65243,5,0
267,337,66048,1,0
421,293,66854,1,0
346,151,67659,1,0
186,164,68465,1,0
67,271,69270,1,0
224,297,70076,1,0
378,256,70881,1,0
378,95,71687,5,0
218,93,72492,1,0
220,253,73298,1,0
222,93,74103,1,0
382,88,74909,1,0
379,247,75714,1,0
223,207,76520,2,0,B|45:87,1,200
58,255,78130,6,0,B|271:291|264:291,1,200
261,287,79741,1,0
420,303,80547,1,0
418,143,81352,1,0
257,138,82158,1,0
257,297,82963,1,0
257,136,83769,2,0,B|257:338,1,200
389,245,85380,5,0
311,227,85782,1,0
285,302,86185,1,0
362,320,86588,1,0
435,288,86991,1,0
450,209,87393,1,0
386,159,87796,1,0
306,166,88199,1,0
234,202,88602,5,0
179,260,89004,1,0
100,246,89407,1,0
106,166,89810,1,0
166,113,90213,2,0,B|164:103|164:78|173:62|197:51|239:44|273:57|287:79|287:112|276:136,2,200
113,264,92629,2,0,B|246:283|216:284,1,100
289,259,93434,6,0,B|398:193|371:217,1,100
326,147,94240,2,0,B|192:141,1,100
146,137,95045,2,0,B|58:194,1,100
102,260,95851,2,0,B|200:349,1,100
231,269,96656,1,0
391,274,97462,5,0
389,114,98267,1,0
257,204,99073,1,0
343,338,99878,1,0
434,206,100684,1,0
333,81,101489,1,0
198,167,102295,5,0
129,207,102697,1,0
180,268,103100,1,0
337,297,103906,1,0
368,140,104711,1,0
288,137,105114,1,0
327,67,105517,1,0
171,105,106322,5,0
97,137,106725,1,0
158,188,107128,1,0
254,315,107933,1,0
317,265,108336,1,0
381,218,108738,1,0
228,32,109947,2,0,B|49:129|48:131|48:131|211:279|211:279|459:137,1,700
447,302,113571,5,0
290,333,114377,1,0
230,278,114780,1,0
305,252,115182,1,0
384,239,115585,1,0
340,172,115988,1,0
180,178,116793,1,0
138,332,117599,5,0
88,179,118404,1,0
216,83,119210,1,0
375,85,120015,1,0
417,239,120821,1,0
359,294,121223,1,0
420,345,121626,1,0
261,320,122432,5,0
124,237,123237,1,0
182,88,124042,1,0
218,159,124445,1,0
290,125,124848,1,0
303,203,125251,1,0
231,238,125653,1,0
162,196,126056,1,0
122,126,126459,1,0
82,195,126862,1,0
98,273,127264,1,0
256,192,127667,12,0,129882
