osu file format v9

[General]
AudioFilename: 01 Sanatorium in Mountain.mp3
AudioLeadIn: 0
PreviewTime: -1
Countdown: 0
SampleSet: Normal
StackLeniency: 0.7
Mode: 0
LetterboxInBreaks: 1

[Editor]
DistanceSpacing: 1.4
BeatDivisor: 4
GridSize: 4

[Metadata]
Title:Green Sanatorium
Artist:ZUN
Creator:Xyou
Version:Insane
Source:Neo-Traditionalism of Japan
Tags:Green Sanatorium Touhou ZUN Neo-Traditionalism of Japan music collection 7 Maribel Hearn Renko Usami

[Difficulty]
HPDrainRate:6
CircleSize:5
OverallDifficulty:6
ApproachRate:6
SliderMultiplier:1
SliderTickRate:1

[Events]
//Background and Video events
0,0,"Green Sanatorium.jpg"
//Break Periods
2,52555,64193
2,103703,108897
2,142365,154406
//Storyboard Layer 0 (Background)
//Storyboard Layer 1 (Fail)
//Storyboard Layer 2 (Pass)
//Storyboard Layer 3 (Foreground)
//Storyboard Sound Samples
//Background Colour Transformations
3,100,163,162,255

[TimingPoints]
0,402.736842105265,4,1,0,70,1,0

[Colours]
Combo1 : 47,184,208
Combo2 : 115,250,107
Combo3 : 37,51,222
Combo4 : 231,226,50
Combo5 : 255,17,23

[HitObjects]
76,172,805,1,0
132,148,1006,1,0
132,148,1107,1,0
132,148,1208,1,0
192,244,1409,1,0
260,272,1610,1,0
336,264,1812,1,0
336,264,1913,1,0
336,264,2013,1,0
408,180,2215,5,0
372,116,2416,1,0
304,88,2617,1,0
304,88,2718,1,0
304,88,2819,1,0
172,80,3020,1,0
104,112,3221,1,0
68,176,3423,1,0
68,176,3523,1,0
68,176,3624,1,0
200,316,4027,5,0
272,300,4228,1,0
272,300,4329,1,0
272,300,4430,1,0
392,232,4631,1,0
352,168,4832,1,0
276,160,5034,1,0
276,160,5134,1,0
276,160,5235,1,0
144,148,5436,5,0
76,184,5638,1,0
64,256,5839,1,0
64,256,5940,1,0
64,256,6041,1,0
132,236,6242,1,0
200,212,6443,1,0
424,144,7249,5,0
372,88,7450,1,0
372,88,7551,1,0
372,88,7652,1,0
228,72,7853,1,0
160,104,8054,1,0
116,168,8256,1,0
116,168,8356,1,0
116,168,8457,1,0
168,276,8658,5,0
240,300,8860,1,0
304,260,9061,1,0
304,260,9162,1,0
304,260,9262,1,0
396,208,9464,1,0
404,132,9665,1,0
332,112,9867,1,0
332,112,9967,1,0
332,112,10068,1,0
132,120,10471,5,0
116,192,10672,1,0
116,192,10773,1,0
116,192,10873,1,0
208,252,11075,2,0,B|256:252,9,50
428,172,13693,5,0
364,136,13894,1,0
364,136,13995,1,0
364,136,14095,1,0
224,128,14297,1,0
184,192,14498,1,0
116,220,14699,1,0
116,220,14800,1,0
116,220,14901,1,0
192,312,15102,5,0
264,296,15304,1,0
340,296,15505,1,0
340,296,15606,1,0
340,296,15706,1,0
408,228,15908,1,0
368,164,16109,1,0
292,156,16310,1,0
292,120,16411,1,0
292,84,16512,1,0
144,112,16914,5,0
96,168,17116,1,0
96,168,17217,1,0
96,168,17317,1,0
164,268,17519,1,0
240,260,17720,1,0
304,224,17921,1,0
304,224,18022,1,0
304,224,18123,1,0
424,204,18324,5,0
428,128,18525,1,0
356,108,18727,1,0
356,108,18827,1,0
356,108,18928,1,0
248,124,19130,1,0
180,152,19331,1,0
160,224,19532,1,0
184,244,19633,1,0
220,268,19734,1,0
368,272,20136,5,0
396,204,20338,1,0
396,204,20438,1,0
396,204,20539,1,0
260,148,20740,1,0
184,152,20942,1,0
204,80,21143,1,0
204,80,21244,1,0
204,80,21345,1,0
352,68,21546,5,0
420,100,21747,1,0
412,176,21949,1,0
412,176,22049,1,0
412,176,22150,1,0
316,292,22351,1,0
240,280,22553,1,0
256,208,22754,1,0
256,208,22855,1,0
256,208,22956,1,0
160,108,23358,5,0
132,172,23560,1,0
132,172,23660,1,0
132,172,23761,1,0
156,280,23962,1,0
224,300,24164,1,0
292,312,24365,1,0
292,312,24466,1,0
292,312,24566,1,0
424,264,24768,5,0
256,192,24969,1,0
256,192,25070,1,0
256,192,25171,1,0
256,192,25271,1,0
256,192,25372,1,0
256,192,25473,1,0
256,192,25573,1,0
256,192,25674,1,0
256,192,25775,1,0
440,96,26580,5,0
300,92,26983,1,0
300,92,27084,1,0
300,92,27184,1,0
300,92,27285,1,0
300,92,27386,1,0
164,120,27788,1,0
76,228,28191,1,0
204,280,28594,5,0
204,280,28695,1,0
204,280,28795,1,0
204,280,28896,1,0
204,280,28997,1,0
344,280,29399,5,0
440,180,29802,1,0
256,96,30205,1,0
148,192,30406,1,0
256,292,30608,1,0
360,192,30809,1,0
256,196,31010,1,0
256,196,31111,1,0
256,196,31212,1,0
256,196,31312,1,0
256,196,31413,1,0
332,312,31816,1,0
436,216,32218,1,0
376,88,32621,5,0
304,84,32823,1,0
236,76,33024,1,0
116,152,33427,1,0
116,152,33527,1,0
116,152,33628,1,0
116,152,33729,1,0
116,152,33829,1,0
256,312,34232,5,0
392,308,34635,1,0
392,308,34736,1,0
392,308,34836,1,0
392,308,34937,1,0
392,308,35038,1,0
392,96,35239,1,0
324,92,35440,1,0
184,80,35843,1,0
84,176,36246,5,0
80,264,36649,1,0
80,264,36749,1,0
80,264,36850,1,0
80,264,36951,1,0
80,264,37051,1,0
360,256,37454,1,0
256,164,37857,2,0,B|456:112|460:112,1,200
320,60,39065,5,0
188,112,39468,1,0
68,184,39870,1,0
68,184,39971,1,0
68,184,40072,1,0
68,184,40173,1,0
68,184,40273,1,0
308,292,40676,5,0
448,292,41079,1,0
372,176,41481,1,0
372,176,41582,1,0
372,176,41683,1,0
372,176,41783,1,0
372,176,41884,1,0
92,204,42287,5,0
100,344,42690,1,0
220,272,43092,1,0
256,272,43193,1,0
292,272,43294,1,0
356,272,43495,1,0
356,132,43898,1,0
320,132,43999,1,0
284,132,44099,1,0
216,128,44301,2,0,B|8:128,1,200
76,256,45509,5,0
128,304,45710,1,0
204,308,45912,1,0
412,284,46516,1,0
256,232,46918,1,0
256,232,47019,1,0
256,232,47120,1,0
160,200,47321,1,0
196,140,47522,1,0
336,140,47925,1,0
428,244,48328,1,0
316,324,48731,5,0
248,324,48932,1,0
176,316,49133,1,0
188,180,49536,1,0
188,180,49637,1,0
188,180,49738,1,0
188,180,49838,1,0
188,180,49939,1,0
324,156,50140,1,0
396,160,50342,2,0,B|396:228|396:228|368:240,4,100
400,160,52355,1,0
28,356,65243,5,0
148,284,65646,1,0
184,284,65746,1,0
220,284,65847,1,0
288,284,66048,1,0
340,240,66250,1,0
340,172,66451,1,0
208,120,66854,1,0
88,188,67257,5,0
88,224,67357,1,0
88,260,67458,1,0
152,292,67659,1,0
224,296,67861,1,0
292,288,68062,1,0
424,240,68465,1,0
328,140,68868,5,0
292,140,68968,1,0
256,140,69069,1,0
188,140,69270,1,0
120,156,69472,1,0
72,208,69673,2,0,B|116:248,6,50
332,312,71687,5,0
332,172,72089,1,0
332,136,72190,1,0
332,100,72291,1,0
264,96,72492,1,0
192,96,72694,1,0
124,104,72895,1,0
72,236,73298,5,0
212,236,73700,1,0
176,236,73801,1,0
140,236,73902,1,0
140,168,74103,1,0
140,100,74304,1,0
212,100,74506,1,0
352,108,74909,5,0
352,248,75311,1,0
316,248,75412,1,0
280,248,75513,1,0
232,196,75714,1,0
300,176,75915,1,0
260,120,76117,1,0
196,144,76318,1,0
200,72,76520,1,0
132,80,76721,1,0
128,148,76922,1,0
152,212,77124,1,0
220,204,77325,1,0
460,60,78130,5,0
460,96,78231,1,0
460,132,78332,1,0
460,168,78433,1,0
460,204,78533,1,0
460,276,78735,5,0
392,268,78936,1,0
324,272,79137,1,0
260,244,79339,1,0
296,184,79540,1,0
296,148,79641,1,0
296,112,79741,1,0
224,108,79943,5,0
188,108,80043,1,0
152,108,80144,1,0
152,180,80346,1,0
152,216,80446,1,0
152,252,80547,1,0
280,312,80950,1,0
280,172,81352,5,0
404,108,81755,1,0
368,108,81856,1,0
332,108,81956,1,0
260,108,82158,5,0
224,108,82259,1,0
188,108,82359,1,0
188,180,82561,5,0
188,216,82661,1,0
188,252,82762,1,0
256,256,82963,5,0
292,256,83064,1,0
328,256,83165,1,0
396,264,83366,5,0
396,228,83467,1,0
396,192,83567,1,0
396,120,83769,5,0
360,120,83869,1,0
324,120,83970,1,0
252,124,84172,6,0,B|216:124,2,25
252,56,84574,1,0
180,56,84776,1,0
176,124,84977,1,0
176,192,85178,1,0
248,196,85380,1,0
248,264,85581,5,0
180,264,85782,1,0
216,324,85984,1,0
284,324,86185,1,0
316,260,86387,1,0
368,212,86588,6,0,B|336:176,1,50
396,212,86991,2,0,B|396:144,1,50
440,216,87393,2,0,B|472:152,1,50
444,240,87796,2,0,B|480:288,1,50
408,252,88199,2,0,B|408:320,1,50
376,240,88602,2,0,B|332:276,1,50
372,212,89004,5,0
444,212,89206,1,0
408,152,89407,1,0
408,268,89608,1,0
480,268,89810,1,0
440,324,90011,1,0
368,320,90213,1,0
260,60,91018,5,0
212,112,91219,1,0
280,128,91421,1,0
264,160,91521,1,0
248,192,91622,1,0
216,252,91824,5,0
284,256,92025,1,0
244,312,92226,1,0
316,312,92428,1,0
372,268,92629,1,0
372,232,92730,1,0
372,196,92830,1,0
372,124,93032,5,0
296,124,93233,1,0
296,160,93334,1,0
296,196,93434,1,0
296,268,93636,1,0
228,268,93837,1,0
156,268,94039,5,0
108,216,94240,1,0
172,184,94441,1,0
212,128,94643,1,0
248,128,94743,1,0
284,128,94844,1,0
348,152,95045,5,0
392,204,95247,1,0
372,272,95448,1,0
336,272,95549,1,0
300,272,95650,1,0
276,208,95851,5,0
284,128,96052,1,0
244,72,96254,1,0
176,92,96455,1,0
112,124,96656,1,0
112,160,96757,1,0
112,196,96858,1,0
112,232,96958,1,0
112,268,97059,1,0
160,316,97260,5,0
232,320,97462,1,0
292,288,97663,1,0
248,236,97865,1,0
248,200,97965,1,0
248,164,98066,1,0
316,164,98267,5,0
388,164,98469,1,0
392,232,98670,1,0
392,268,98771,1,0
392,304,98871,1,0
320,308,99073,5,0
252,308,99274,1,0
200,264,99476,1,0
200,228,99576,1,0
200,192,99677,1,0
204,124,99878,5,0
276,128,100080,1,0
244,68,100281,1,0
104,60,100684,5,0
92,128,100885,1,0
80,196,101086,1,0
116,196,101187,1,0
152,196,101288,1,0
192,252,101489,1,0
236,200,101691,1,0
304,220,101892,1,0
256,192,102295,12,0,103503
468,316,109947,5,0
400,316,110148,1,0
408,248,110349,2,0,B|296:224|296:224|496:264|496:264|416:248|416:248|444:96|444:96|292:328|292:328|304:308,1,850
268,44,113974,1,0
200,60,114175,1,0
224,128,114377,1,0
156,144,114578,1,0
152,216,114780,1,0
152,216,114880,1,0
152,216,114981,1,0
152,216,115082,1,0
152,216,115182,1,0
280,268,115585,5,0
152,324,115988,1,0
224,204,116390,1,0
364,188,116793,1,0
316,140,116995,1,0
316,104,117095,1,0
316,68,117196,1,0
248,80,117397,5,0
184,108,117599,1,0
124,140,117800,1,0
124,176,117901,1,0
124,212,118001,1,0
188,244,118203,5,0
256,260,118404,1,0
328,256,118606,1,0
328,256,118706,1,0
328,256,118807,1,0
328,256,118908,1,0
328,256,119008,1,0
328,256,119109,1,0
328,256,119210,1,0
396,264,119411,5,0
424,200,119612,1,0
364,168,119814,1,0
328,168,119914,1,0
292,168,120015,1,0
224,168,120216,5,0
160,136,120418,1,0
184,112,120519,1,0
208,88,120619,1,0
236,64,120720,1,0
264,40,120821,1,0
332,44,121022,1,0
400,40,121223,5,0
400,76,121324,1,0
400,112,121425,1,0
400,148,121525,1,0
400,184,121626,1,0
368,244,121827,5,0
300,260,122029,1,0
232,256,122230,1,0
196,252,122331,1,0
160,248,122432,1,0
116,196,122633,2,0,B|168:168,1,50
224,152,123036,5,0
184,96,123237,1,0
252,112,123438,1,0
324,116,123640,1,0
324,152,123740,1,0
324,188,123841,1,0
256,212,124042,5,0
224,276,124244,1,0
292,276,124445,1,0
364,280,124647,1,0
376,212,124848,1,0
412,216,124949,1,0
448,224,125049,1,0
452,152,125251,5,0
392,116,125452,1,0
324,112,125653,1,0
288,116,125754,1,0
252,124,125855,1,0
188,148,126056,1,0
256,192,126258,12,0,127264
260,184,128070,6,0,B|220:180|220:180|260:140|260:140|276:256|276:256|184:212|184:212|376:200|376:200|240:136|240:136|276:288|280:288|280:288|356:100|356:100|192:96|192:96|252:264|252:264|288:128|288:128|64:328,1,1800
204,296,135722,5,0
272,284,135923,1,0
340,260,136125,2,0,B|380:168,1,100
240,188,136930,2,0,B|352:200,1,100
480,192,137736,2,0,B|360:188,1,100
252,244,138541,2,0,B|336:184,1,100
252,72,139346,5,0
196,116,139548,1,0
144,164,139749,1,0
96,216,139951,1,0
80,284,140152,1,0
112,300,140253,1,0
148,308,140353,1,0
212,280,140555,1,0
280,272,140756,1,0
268,204,140957,2,0,B|360:168,3,100
256,188,155456,5,0
256,188,155557,1,0
256,188,155657,1,0
256,188,155758,1,0
256,188,155859,1,0
256,188,155959,1,0
256,188,156060,1,0
256,188,156161,1,0
256,188,156261,1,0
184,184,156463,5,0
124,220,156664,1,0
92,236,156765,1,0
116,264,156866,1,0
116,332,157067,1,0
140,308,157168,1,0
152,340,157268,1,0
220,332,157470,5,0
220,296,157570,1,0
252,304,157671,1,0
308,260,157872,1,0
284,236,157973,1,0
316,220,158074,1,0
304,152,158275,1,0
168,112,158678,5,0
124,168,158879,1,0
156,180,158980,1,0
132,204,159081,1,0
108,268,159282,1,0
88,296,159383,1,0
124,300,159483,1,0
196,304,159685,5,0
228,292,159785,1,0
196,304,159886,1,0
304,252,160087,1,0
280,224,160188,1,0
316,224,160289,1,0
340,160,160490,5,0
308,148,160591,1,0
332,120,160692,1,0
300,60,160893,1,0
272,36,160994,1,0
308,28,161094,1,0
184,80,161296,6,0,B|128:100,1,50
112,236,161900,1,0
176,260,162101,1,0
144,248,162202,1,0
168,224,162302,1,0
236,240,162504,5,0
236,240,162605,1,0
236,240,162705,1,0
236,240,162806,1,0
236,240,162907,1,0
236,240,163007,1,0
236,240,163108,1,0
300,268,163309,5,0
348,220,163511,1,0
308,164,163712,1,0
240,152,163913,1,0
204,148,164014,1,0
184,120,164115,1,0
192,88,164215,1,0
224,72,164316,1,0
256,84,164417,1,0
268,116,164518,1,0
240,152,164618,1,0
204,148,164719,1,0
108,248,165122,5,0
168,284,165323,1,0
204,288,165424,1,0
240,292,165524,1,0
308,284,165726,5,0
324,216,165927,1,0
256,192,166128,12,0,166733
256,192,166934,12,0,167538
