osu file format v9

[General]
AudioFilename: f_00016a.mp3
AudioLeadIn: 0
PreviewTime: 14271
Countdown: 0
SampleSet: Soft
StackLeniency: 0.8
Mode: 0
LetterboxInBreaks: 1

[Editor]
DistanceSpacing: 1
BeatDivisor: 4
GridSize: 4

[Metadata]
Title:Futatsuiwa From Sado
Artist:ZUN
Creator:rockleejkooo
Version:Lunatic
Source:Touhou
Tags:th13 ten desires tanuki mamizou stage boss hellzero

[Difficulty]
HPDrainRate:6
CircleSize:4
OverallDifficulty:7
ApproachRate:8
SliderMultiplier:2
SliderTickRate:1

[Events]
//Background and Video events
0,0,"futatsuiwa800x600.JPG"
//Break Periods
2,109688,114888
//Storyboard Layer 0 (Background)
//Storyboard Layer 1 (Fail)
//Storyboard Layer 2 (Pass)
//Storyboard Layer 3 (Foreground)
//Storyboard Sound Samples
//Background Colour Transformations
3,100,163,162,255

[TimingPoints]
2160,372.670807453416,4,2,0,65,1,0
12501,-100,4,1,0,25,0,0
13992,-100,4,2,0,65,0,0
19628,-100,4,1,0,25,0,0
19955,-100,4,2,0,65,0,0
24846,-100,4,1,0,25,0,0
25917,-100,4,2,0,65,0,0
27408,-100,4,1,0,25,0,0
27967,-100,4,2,0,65,0,0
29364,-200,4,2,0,65,0,0
30296,-100,4,2,0,65,0,0
33371,-200,4,2,0,65,0,0
34675,-100,4,2,0,65,0,0
37004,-100,4,1,0,25,0,0
37843,-100,4,2,0,65,0,0
41383,-200,4,2,0,65,0,0
42128,-100,4,2,0,65,0,0
43433,-100,4,1,0,25,0,0
43992,-100,4,2,0,65,0,0
45296,-100,4,1,0,30,0,0
45948,-100,4,2,0,65,0,0
48278,-100,4,1,0,30,0,0
48837,-100,4,2,0,65,0,0
58340,-100,4,1,0,30,0,0
58899,-100,4,2,0,65,0,0
60622,-100,4,1,0,30,0,0
61694,-100,4,2,0,65,0,0
63184,-100,4,1,0,30,0,0
64582,-100,4,2,0,65,0,0
66212,-100,4,1,0,30,0,0
66725,-100,4,2,0,65,0,0
72128,-100,4,1,0,30,0,0
73619,-100,4,2,0,65,0,0
75110,-100,4,1,0,30,0,0
75669,-100,4,2,0,65,0,0
76228,-100,4,1,0,30,0,0
76694,-100,4,2,0,65,0,0
79209,-100,4,1,0,30,0,0
79675,-100,4,2,0,65,0,0
84054,-100,4,2,0,80,0,0
85545,-100,4,2,0,70,0,0
97191,-100,4,1,0,30,0,0
97656,-100,4,2,0,70,0,0
108697,-100,4,1,0,30,0,0
109535,-100,4,2,0,70,0,0
121041,-100,4,1,0,30,0,0
121507,-100,4,2,0,70,0,0
132501,-100,4,1,0,30,0,0

[Colours]
Combo1 : 255,255,0
Combo2 : 46,162,224

[HitObjects]
204,340,2159,2,0,B|304:340,1,100
380,276,2532,1,2
436,192,2719,1,0
380,108,2905,2,0,B|336:84|272:84,1,100
115,204,3278,2,0,B|159:228|212:228,1,100,2|0
128,92,3650,5,0
128,92,3743,1,0
128,92,3837,1,0
212,56,4023,1,2
300,56,4209,1,0
384,92,4396,2,0,B|344:192,1,100
162,340,4768,2,0,B|200:248,1,100,2|0
320,244,5141,5,0
455,159,5327,1,0
304,146,5514,1,2
419,252,5700,1,0
385,93,5886,1,0
304,32,6073,1,0
208,32,6259,1,2
127,93,6445,1,0
44,192,6632,5,0
44,192,6725,1,0
44,192,6818,1,0
176,284,7004,1,2
336,284,7191,1,0
468,192,7377,2,0,B|456:140|420:96,1,100,2|0
328,172,7750,2,0,B|308:64,1,100,2|0
184,172,8122,6,0,B|202:73,1,100
44,191,8495,2,0,B|56:140|86:102,1,100,2|0
120,252,8868,1,0
168,264,8961,1,0
204,308,9054,1,0
308,308,9240,1,2
392,252,9427,1,0
436,96,9613,5,0
412,112,9706,1,0
384,124,9799,1,0
356,128,9892,1,0
324,128,9986,1,2
256,56,10172,1,0
188,128,10358,2,0,B|76:160,1,100
71,291,10731,2,0,B|168:264,1,100,2|0
344,264,11104,6,0,B|441:291,1,100
420,155,11477,2,0,B|324:128,1,100,2|0
256,52,11849,1,0
104,104,12035,1,0
228,208,12222,1,2
76,264,12408,1,0
256,328,12594,6,0,B|256:368,8,25,0|0|0|0|8|0|0|0|0
352,304,13153,1,8
168,56,13526,1,8
208,84,13619,1,8
256,96,13712,1,8
304,84,13805,1,8
344,56,13898,1,8
456,152,14085,5,4
364,192,14271,1,0
336,232,14364,1,0
328,280,14458,1,8
256,348,14644,1,0
184,280,14830,2,0,B|96:327,1,100,2|0
136,192,15203,2,0,B|232:140,1,100,8|0
256,48,15576,5,2
348,88,15762,1,0
392,108,15855,1,0
428,140,15948,1,8
428,244,16135,1,0
368,324,16321,1,2
256,132,16507,1,2
144,328,16694,1,8
64,68,17066,5,2
100,160,17253,1,0
100,208,17346,1,0
100,256,17439,1,8
200,276,17625,2,0,B|216:352|232:360|232:360|240:352,2,100,0|2|0
312,108,18184,2,0,B|296:32|280:24|280:24|272:32,1,100,8|0
160,176,18557,5,2
207,184,18650,1,0
256,192,18743,1,2
304,200,18837,1,0
352,208,18930,1,8
399,296,19116,1,0
426,143,19302,2,0,B|435:94,3,50,2|0|0|0
452,164,19675,2,0,B|458:199,4,25
256,56,20048,5,2
176,116,20234,1,8
140,152,20327,1,0
92,160,20420,1,2
136,248,20607,1,8
256,340,20793,1,2
256,340,20886,1,0
256,340,20979,1,8
256,192,21166,1,2
256,192,21259,1,0
256,192,21352,1,8
256,56,21538,5,2
336,116,21724,1,8
372,152,21817,1,0
420,160,21910,1,2
376,248,22097,1,8
256,340,22283,1,2
256,340,22376,1,0
256,340,22469,1,8
256,56,22656,2,0,B|256:268,1,200,2|2
108,232,23215,5,8
184,100,23402,1,2
328,100,23588,1,8
396,232,23774,1,2
380,280,23868,1,0
348,316,23961,1,8
304,340,24054,1,0
256,348,24147,1,2
164,316,24333,1,0
100,240,24520,5,2
100,192,24613,1,0
100,144,24706,1,8
128,104,24799,1,0
164,68,24892,2,0,B|180:48,6,25,0|0|0|0|8|0|0
440,162,25451,5,8
390,175,25545,1,8
344,188,25638,1,8
297,200,25731,1,8
251,212,25824,1,8
256,48,26010,6,0,B|132:76,1,100,4|0
120,100,26290,1,0
96,144,26383,1,2
96,240,26569,1,0
256,348,26756,5,0
416,144,27128,1,2
96,144,27501,2,0,B|44:145,4,50
256,192,28246,5,0
256,192,28619,1,2
320,116,28805,1,0
256,40,28992,1,2
192,116,29178,1,0
320,256,29551,2,0,B|288:304|224:304|192:254,1,150,0|0
120,192,30296,5,0
92,288,30482,1,2
168,352,30669,1,0
256,304,30855,1,2
344,352,31041,1,0
420,288,31228,1,2
392,192,31414,1,0
344,104,31600,2,0,B|296:64|296:16,1,100
215,19,31973,5,0
144,88,32159,1,0
144,88,32253,1,0
144,88,32346,1,2
212,160,32532,1,0
116,188,32719,1,2
100,212,32812,1,0
84,236,32905,1,0
124,352,33091,1,2
140,328,33184,1,0
156,304,33277,1,0
252,332,33464,2,0,B|298:361|356:334|365:277,2,150
256,232,34768,5,0
256,132,34955,1,2
256,32,35141,1,0
148,84,35327,2,0,B|76:160,1,100,2|0
364,84,35700,2,0,B|436:160,1,100,2|0
372,260,36073,1,0
256,232,36259,1,0
140,260,36445,5,2
148,232,36538,1,0
160,204,36632,1,0
176,176,36725,1,0
196,152,36818,1,0
372,260,37191,1,0
364,232,37284,1,0
352,204,37378,1,0
336,176,37471,1,0
316,152,37563,2,8,B|316:104,2,50
256,336,37936,5,2
124,288,38122,1,8
124,288,38215,1,0
124,288,38309,1,2
108,136,38495,1,8
256,64,38681,1,2
256,64,38774,1,0
256,64,38868,1,8
404,136,39054,1,2
404,136,39147,1,0
404,136,39240,1,8
388,288,39427,5,2
388,288,39520,1,0
388,288,39613,1,8
192,200,39799,1,2
192,200,39892,1,0
192,200,39986,1,8
124,288,40172,5,2
124,288,40265,1,0
124,288,40358,1,8
320,200,40544,1,2
320,200,40637,1,0
320,200,40731,1,8
256,80,40917,6,0,B|256:24,2,50,2|0|8
256,180,41290,1,2
320,256,41476,2,0,B|287:303|223:303|194:258,1,150,8|2
124,188,42222,5,8
124,88,42408,1,2
256,32,42594,1,8
256,132,42781,1,2
388,188,42967,1,8
388,88,43153,1,2
256,252,43340,5,8
256,352,43526,2,0,B|256:388,8,25
172,296,44085,5,8
132,264,44178,1,0
92,236,44271,1,2
144,152,44458,1,8
200,68,44644,2,0,B|336:44,1,100,2|8
438,122,45017,2,0,B|340:140,1,100,2|8
376,232,45389,1,0
364,248,45482,1,0
348,264,45576,1,0
332,276,45669,1,0
316,284,45762,1,0
256,204,45948,1,8
128,212,46135,6,0,B|86:209|46:157,1,100,2|8
175,30,46507,2,0,B|216:32|256:84,1,100,2|8
384,212,46880,2,0,B|425:209|465:157,1,100,2|8
336,30,47252,2,0,B|295:32|256:84,1,100,2|8
128,212,47625,2,0,B|132:268|180:308,1,100,2|8
341,299,47998,2,0,B|380:268|384:212,1,100,2|8
256,72,48371,5,0
256,92,48464,1,0
256,112,48557,1,0
256,132,48650,1,0
256,152,48743,1,0
256,252,48930,2,0,B|256:324,4,50,8|0|2|0|8
156,236,49489,1,2
116,204,49582,1,0
76,176,49675,1,8
256,72,49861,5,6
332,136,50048,1,0
376,156,50141,1,0
424,156,50234,1,8
480,240,50420,1,0
360,324,50607,2,0,B|312:300|296:220,1,100
152,324,50979,2,0,B|200:300|216:220,1,100,8|0
32,240,51352,5,0
36,192,51445,1,0
40,144,51538,1,0
44,92,51632,1,0
49,44,51725,1,8
256,192,51911,1,0
463,44,52097,1,0
468,92,52190,1,0
472,144,52284,1,0
476,192,52377,1,0
480,240,52470,1,8
444,332,52656,1,0
348,316,52843,5,0
304,336,52936,1,0
256,344,53029,1,0
208,336,53122,1,0
164,316,53215,1,8
256,192,53402,1,0
208,52,53588,1,0
256,40,53681,1,0
304,52,53774,1,0
432,192,53961,1,8
80,192,54147,1,0
256,40,54333,5,0
256,92,54427,1,0
256,140,54520,1,0
256,188,54613,1,0
256,236,54706,1,8
256,336,54892,1,0
168,288,55079,2,0,B|108:324,2,50
344,288,55451,2,0,B|456:256|448:112,1,200,8|2
368,76,56010,5,8
368,76,56104,1,0
368,76,56197,1,2
296,144,56383,1,8
256,52,56569,1,2
256,52,56663,1,0
256,52,56756,1,8
216,144,56942,1,2
216,144,57035,1,0
216,144,57128,1,8
144,76,57315,5,2
128,100,57408,1,0
120,128,57501,1,8
120,156,57594,1,0
128,184,57687,1,2
96,268,57874,1,8
200,240,58060,1,2
200,240,58153,1,0
200,240,58246,1,8
304,240,58433,2,0,B|325:226,8,25,0|0|0|0|0|0|0|0|0
436,272,58992,5,8
356,332,59178,1,2
256,340,59364,1,8
156,332,59551,1,2
156,332,59644,1,0
156,332,59737,1,8
76,272,59923,1,2
76,272,60017,1,0
76,272,60110,1,8
160,199,60296,5,2
208,195,60389,1,0
256,192,60482,1,8
307,186,60576,1,0
359,182,60669,2,0,B|395:179,6,25
93,81,61228,5,8
88,128,61321,1,8
84,176,61414,1,8
80,224,61507,1,8
76,272,61600,1,8
164,320,61787,5,2
256,352,61973,2,0,B|256:296,2,50,0|0|0
348,320,62346,1,0
436,272,62532,1,2
256,40,62905,1,2
76,272,63278,2,0,B|36:312,4,50
336,56,64023,5,0
256,116,64209,1,0
176,56,64396,1,0
28,188,64768,5,2
72,280,64955,2,0,B|168:356|268:288,1,200,0|2
352,324,65514,1,0
444,288,65700,1,0
472,192,65886,1,2
444,96,66073,1,0
352,60,66259,5,0
324,64,66352,1,0
296,72,66445,1,0
268,76,66538,1,0
240,84,66632,1,0
140,76,66818,2,0,B|100:196|211:268,1,200,2|2
236,176,67377,2,0,B|116:136|43:247,1,200,2|2
120,340,67936,5,0
140,332,68029,1,0
160,324,68122,1,0
256,348,68309,1,0
352,324,68495,1,2
412,96,68868,1,2
100,96,69240,2,0,B|40:136|40:136|56:208|24:268,1,200,2|0
92,336,69799,2,0,B|152:296|152:296|136:224|168:164,1,200,2|0
256,132,70358,1,0
340,188,70545,1,0
256,252,70731,6,0,B|256:352,1,100,2|0
340,188,71104,2,0,B|448:188,1,100,0|2
256,132,71476,2,0,B|256:32,1,100,2|0
172,188,71849,2,0,B|64:188,1,100,2|0
90,277,72222,5,0
90,306,72315,1,0
108,332,72408,1,0
132,348,72501,1,0
161,348,72594,1,0
404,52,72967,2,0,B|428:28,4,25,0|0|0|0|8
336,124,73340,1,8
308,156,73433,1,8
276,192,73526,1,8
90,277,73712,5,2
161,348,73899,1,8
208,336,73992,1,0
256,320,74085,1,2
351,348,74271,1,8
428,284,74458,1,2
416,237,74551,1,0
400,189,74644,1,8
296,33,74830,1,2
308,80,74923,1,0
324,128,75016,1,8
188,128,75203,6,0,B|208:72,4,50
100,76,75762,1,8
96,176,75948,1,2
180,228,76135,1,8
272,184,76321,2,0,B|308:204,7,25
316,208,76694,6,8,B|408:256,1,100,2|8
256,260,77066,2,8,B|256:364,1,100,2|8
196,208,77439,2,8,B|104:256,1,100,2|8
68,160,77812,5,2
308,80,77998,1,8
256,260,78184,1,2
204,80,78371,1,8
444,160,78557,1,2
305,344,78743,2,0,B|256:364|208:344,2,100,8|2|8
256,192,79302,1,0
256,192,79396,1,0
256,192,79489,1,0
256,192,79582,1,0
256,192,79675,1,2
256,72,79861,6,0,B|256:16,2,50,8|0|2
256,192,80234,1,8
136,120,80420,5,2
136,120,80514,1,0
136,120,80607,1,8
384,296,80793,1,2
384,296,80886,1,0
384,296,80979,1,8
376,120,81166,5,2
376,120,81259,1,0
376,120,81352,1,8
125,299,81538,1,2
125,299,81632,1,0
125,299,81725,1,8
456,204,81911,5,2
456,204,82004,1,0
456,204,82097,1,8
56,204,82284,1,2
56,204,82377,1,0
56,204,82470,1,8
256,24,82656,6,0,B|256:88,3,50,2|0|8|0
256,124,83029,1,2
256,172,83122,1,0
256,220,83215,1,8
256,272,83309,1,0
256,320,83402,2,0,B|256:372,4,50,2|0|8|0|2
356,304,83961,5,8
464,192,84147,2,2,B|324:192,1,100,6|2
356,80,84520,1,2
156,80,84706,1,2
48,192,84892,2,2,B|188:192,1,100
156,304,85265,1,2
256,344,85451,1,2
256,244,85638,6,0,B|256:128,1,100,6|0
256,116,85917,1,0
256,88,86010,1,2
160,116,86197,1,0
148,144,86290,1,0
136,172,86383,2,0,B|120:216|128:284,1,100,2|0
256,344,86756,2,0,B|256:228,1,100,2|0
384,272,87128,5,2
392,244,87222,1,0
400,216,87315,1,2
392,188,87408,1,0
384,160,87502,1,2
256,136,87687,1,0
172,80,87874,2,0,B|176:28,2,50,2|0|0
156,180,88246,1,2
80,116,88433,1,2
300,248,88619,5,2
320,268,88712,1,0
344,288,88805,1,2
372,304,88899,1,0
400,316,88992,1,2
468,192,89178,1,0
212,248,89364,5,2
192,268,89457,1,0
168,288,89550,1,2
140,304,89644,1,0
112,316,89737,1,2
44,192,89923,1,0
128,104,90110,6,0,B|168:56,1,50,2|0
216,192,90389,2,2,B|156:208,1,50
384,104,90669,2,0,B|351:65,1,50,2|0
296,192,90948,2,0,B|344:204,1,50,0|2
256,60,91228,1,0
256,88,91321,1,0
256,116,91414,1,2
256,260,91600,5,2
172,312,91787,2,0,B|116:316,2,50,0|0|2
156,212,92159,1,0
112,120,92346,1,2
128,96,92439,1,0
144,72,92532,1,0
256,116,92719,1,2
256,144,92812,1,0
256,172,92905,1,0
368,76,93091,6,0,B|400:114,1,50,2|0
336,248,93370,2,2,B|384:235,1,50
176,248,93650,2,0,B|120:232,1,50,2|0
144,76,93929,2,0,B|108:120,1,50,0|2
256,60,94209,1,0
256,88,94302,1,0
256,116,94395,1,2
336,248,94582,6,0,B|360:292|436:300,1,100,2|0
420,124,94955,2,0,B|372:80|312:80,1,100,2|2
180,81,95327,2,0,B|140:80|92:124,1,100,2|0
93,297,95700,2,0,B|152:292|176:248,1,100,2|2
260,44,96073,5,2
252,72,96166,1,0
260,100,96259,1,2
248,128,96352,1,2
260,156,96445,1,0
252,184,96538,1,0
260,216,96632,1,2
252,244,96725,1,0
260,272,96818,2,0,B|264:296|252:320,3,50,2|0|0|0
248,352,97191,2,0,B|272:376,8,25
68,284,97750,5,2
64,236,97843,1,0
60,188,97936,1,4
120,108,98122,1,0
205,35,98309,1,0
251,55,98402,1,0
298,75,98495,1,0
345,91,98588,1,0
391,111,98681,2,0,B|484:147,1,100,0|2
444,240,99054,1,4
392,324,99240,2,2,B|352:284,1,50,0|4
256,192,99520,2,0,B|256:256,1,50,0|4
120,324,99799,2,0,B|160:284,2,50,0|0|2
64,192,100172,5,2
124,112,100358,1,2
224,128,100545,2,0,B|260:100|300:128|332:96,1,100
466,170,100917,2,0,B|431:197|391:169|372:192,1,100,4|0
412,224,101197,2,0,B|377:251|337:223|317:245,1,100,4|0
300,268,101476,1,0
276,288,101569,1,0
248,300,101663,1,2
256,40,102035,5,4
128,104,102222,2,0,B|96:160,1,50,0|4
384,280,102501,2,0,B|416:224,1,50,0|0
148,336,102781,2,0,B|124:284,1,50,4|0
364,48,103060,2,2,B|388:100,1,50,4|0
256,192,103340,1,0
256,192,103433,1,0
256,192,103526,1,2
128,104,103712,6,0,B|92:68,2,50,0|0|4
80,192,104085,1,2
128,280,104271,2,0,B|92:316,2,50,2|0|0
196,352,104644,1,0
224,308,104737,1,0
256,268,104830,1,0
288,308,104923,1,0
316,352,105016,1,4
384,280,105203,6,0,B|420:316,2,50,0|4|0
432,192,105576,1,4
384,104,105762,2,0,B|420:68,2,50,0|0|2
256,116,106135,1,2
256,116,106228,1,0
256,116,106321,1,0
103,40,106507,5,4
107,88,106600,1,0
112,140,106694,1,0
116,187,106787,1,0
120,235,106880,1,2
256,268,107066,1,2
409,344,107253,5,4
405,296,107346,1,0
400,244,107440,1,0
396,197,107533,1,0
392,149,107626,1,2
256,116,107812,1,2
169,229,107998,6,0,B|120:235,1,50,4|0
308,312,108278,2,0,B|357:317,1,50,4|0
342,154,108557,2,0,B|392:149,1,50,4|0
412,136,108743,2,0,B|444:128,7,25
460,120,109116,2,8,B|484:76,4,50,8|8|8|8|4
208,228,115638,5,0
256,228,115731,1,0
304,228,115824,1,2
356,140,116010,1,0
300,56,116197,1,2
260,84,116290,1,0
212,56,116383,1,2
156,140,116569,1,2
156,140,116663,1,0
156,140,116756,1,2
100,224,116942,6,0,B|88:292|128:336|180:344,2,150,4|4|4
196,252,117687,1,2
236,284,117781,1,0
256,332,117874,1,2
356,340,118060,6,0,B|400:312|416:248,1,100
400,108,118433,2,0,B|356:136|344:188,1,100,2|0
256,152,118805,2,0,B|256:0,2,150,4|4|2
111,108,119551,2,0,B|155:136|167:187,1,100,2|0
155,339,119923,1,4
256,228,120203,1,4
356,339,120482,1,4
392,248,120669,5,0
376,200,120762,1,0
344,160,120855,1,0
304,128,120948,1,0
256,108,121041,1,0
208,128,121135,1,0
168,160,121228,1,0
136,200,121321,1,0
120,248,121414,1,0
256,228,121600,5,0
256,228,121694,1,0
256,228,121787,2,0,B|216:296|296:296|256:368,2,150,4|4|2
256,180,122439,1,0
256,132,122532,1,0
256,32,122719,1,0
351,55,122905,6,0,B|389:78|353:154|400:192,2,150,4|4|4
256,32,123650,1,0
160,60,123837,1,2
112,148,124023,2,0,B|52:116|56:40,2,100,2|2|0
156,176,124489,5,0
204,192,124582,1,0
252,192,124675,1,0
300,176,124768,2,0,B|375:172|379:243|471:239,1,150,4|4
484,236,125141,1,0
496,188,125234,1,0
492,140,125327,1,0
464,100,125420,1,0
424,68,125514,1,0
116,72,125886,6,0,B|96:128,1,50,4|0
156,280,126166,2,0,B|168:220,1,50,4|0
346,230,126445,2,0,B|356:280,2,50
396,72,126818,1,0
256,192,127004,1,4
256,92,127191,2,0,B|256:32,2,50
164,56,127563,5,0
136,96,127656,1,0
108,136,127750,1,4
12,168,127936,2,0,B|40:228|100:232,1,100
136,224,128215,1,0
172,260,128309,1,0
196,304,128402,1,0
232,340,128495,1,0
280,340,128588,1,0
316,304,128681,1,0
340,260,128774,1,0
376,224,128868,5,4
256,144,129147,1,4
136,224,129427,1,4
48,186,129613,2,0,B|80:132|128:136,1,100,0|2
219,281,129986,2,0,B|196:332|140:332,1,100,2|2
50,282,130358,5,0
91,258,130451,1,0
136,232,130545,1,0
178,208,130638,1,0
219,184,130731,1,0
256,92,130917,1,0
462,282,131104,5,0
421,258,131197,1,0
376,232,131291,1,0
334,208,131384,1,0
293,184,131477,1,0
256,92,131663,1,0
128,40,131849,5,4
28,188,132128,1,4
128,344,132408,1,4
204,252,132594,2,0,B|244:272,7,25
252,280,132967,2,8,B|296:304,4,50,8|8|8|8|12
