osu file format v9

[General]
AudioFilename: f_00016a.mp3
AudioLeadIn: 0
PreviewTime: 14271
Countdown: 0
SampleSet: Soft
StackLeniency: 0.8
Mode: 0
LetterboxInBreaks: 1

[Editor]
DistanceSpacing: 1.3
BeatDivisor: 4
GridSize: 4

[Metadata]
Title:Futatsuiwa From Sado
Artist:ZUN
Creator:rockleejkooo
Version:Extra
Source:Touhou
Tags:th13 ten desires tanuki mamizou stage boss hellzero

[Difficulty]
HPDrainRate:7
CircleSize:4
OverallDifficulty:8
ApproachRate:9
SliderMultiplier:1.4
SliderTickRate:1

[Events]
//Background and Video events
0,0,"futatsuiwa800x600.JPG"
//Break Periods
2,109689,114851
//Storyboard Layer 0 (Background)
//Storyboard Layer 1 (Fail)
//Storyboard Layer 2 (Pass)
//Storyboard Layer 3 (Foreground)
//Storyboard Sound Samples
//Background Colour Transformations
3,100,163,162,255

[TimingPoints]
2160,372.670807453416,4,2,0,65,1,0
26010,-200,4,2,0,65,0,0
27501,-100,4,2,0,65,0,0
28433,-200,4,2,0,65,0,0
37377,-100,4,2,0,65,0,0
43153,-200,4,2,0,65,0,0
43899,-50,4,2,0,65,0,0
45203,-100,4,2,0,65,0,0
59551,-50,4,2,0,65,0,0
60110,-100,4,2,0,65,0,0
92719,-200,4,2,0,65,0,0
96259,-100,4,2,0,65,0,0

[Colours]
Combo1 : 255,255,0
Combo2 : 46,162,224

[HitObjects]
128,336,2160,1,0
208,240,2346,1,8
40,144,2532,1,0
256,40,2719,1,8
472,144,2905,1,0
304,240,3091,1,8
384,336,3278,1,0
128,336,3464,1,8
72,168,3650,5,0
256,40,3837,1,8
192,288,4023,1,0
320,288,4209,1,8
440,168,4396,1,0
104,72,4582,1,8
256,312,4768,1,0
408,72,4955,1,8
256,312,5141,5,0
160,204,5327,1,8
356,132,5514,1,0
104,72,5700,1,8
408,72,5886,5,0
156,132,6073,1,8
352,204,6259,1,0
256,312,6445,1,8
400,72,6632,5,0
192,272,6818,1,8
104,72,7004,1,0
320,272,7191,1,8
104,312,7377,5,0
160,140,7563,1,8
352,140,7750,1,0
408,312,7936,1,8
368,104,8122,6,0,B|368:48|424:48,1,70,0|8
368,280,8495,2,0,B|368:336|424:336,1,70,0|8
144,280,8868,2,0,B|144:336|88:336,1,70,0|8
144,104,9240,2,0,B|144:48|88:48,1,70,0|8
464,48,9613,6,0,B|400:48|400:104,1,70,0|8
48,336,9986,2,0,B|112:336|112:280,1,70,0|8
48,48,10358,2,0,B|112:48|112:104,1,70,0|8
464,336,10731,2,0,B|400:336|400:280,1,70,0|8
337,140,11104,5,0
194,117,11290,1,8
174,243,11476,1,0
317,266,11663,1,8
123,107,11849,5,0
355,70,12035,1,8
387,275,12222,1,0
156,312,12408,1,8
429,108,12594,5,0
152,29,12781,1,6
82,275,12967,1,0
359,354,13153,1,6
256,192,13526,5,6
256,192,13619,1,0
256,192,13712,1,6
256,192,13805,1,0
256,192,13899,1,6
88,120,14085,1,6
88,120,14271,5,4
136,96,14364,1,0
184,80,14458,1,4
345,91,14644,1,0
415,235,14830,1,4
256,312,15017,1,0
186,169,15203,1,4
345,91,15389,1,0
64,192,15576,1,4
64,192,15762,5,4
64,256,15855,1,0
64,320,15948,1,4
408,168,16135,1,0
245,99,16321,1,4
183,246,16507,1,0
345,315,16694,1,4
104,240,17066,1,4
104,240,17253,5,4
104,240,17346,1,0
104,240,17439,1,4
256,40,17625,5,0
256,136,17812,1,4
256,248,17998,1,0
256,336,18184,1,4
256,336,18371,5,4
256,40,18557,1,0
256,336,18743,1,4
256,296,18836,1,0
256,248,18930,1,4
256,40,19116,1,0
152,192,19302,1,4
352,192,19489,1,0
256,40,19675,1,4
232,112,20048,6,0,B|176:112|192:176,1,70,0|8
280,272,20421,2,0,B|336:272|320:208,1,70,0|8
136,32,20794,6,0,B|80:32|96:96,1,70,0|8
376,352,21166,2,0,B|432:352|416:288,1,70,0|8
419,310,21538,1,0
419,310,21725,5,8
419,310,21818,1,8
419,310,21911,1,8
419,310,22097,5,0
192,192,22284,1,8
419,310,22470,1,0
192,192,22656,1,8
192,192,23029,5,0
320,192,23215,1,8
88,192,23402,1,0
416,192,23588,1,8
256,192,23774,5,0
88,192,23961,1,8
416,192,24147,1,0
256,192,24333,1,8
88,192,24520,1,0
416,192,24706,5,8
376,192,24799,1,8
336,192,24892,1,8
296,192,24986,1,8
256,192,25079,1,8
256,192,25451,5,6
256,192,25637,1,6
256,192,25824,1,6
134,111,26010,5,2
197,111,26197,1,2
259,111,26383,1,2
321,111,26569,1,2
321,111,26756,2,0,B|359:137|358:132,1,35,6|0
440,112,27128,2,0,B|432:152,1,35,6|0
360,240,27501,2,0,B|302:261,10,35,6|2|2|2|2|2|2|2|2|2|2
120,152,28619,5,2
136,256,28805,1,2
240,304,28992,1,2
352,288,29178,1,2
480,128,29551,2,0,B|432:80|384:128|384:128,1,105,2|2
389,123,30296,5,2
304,56,30482,1,2
152,48,30669,1,2
40,160,30855,1,2
96,304,31041,1,6
232,344,31228,1,6
336,312,31414,1,6
392,248,31600,1,6
400,184,31787,1,6
112,184,31973,5,2
400,184,32159,1,2
112,184,32346,1,2
400,184,32532,1,2
112,184,32719,5,6
256,184,33091,1,6
400,184,33464,1,6
400,184,33650,1,6
400,184,34023,6,2,B|400:256,1,70,2|2
400,256,34582,1,2
112,256,34768,1,2
112,128,34955,5,6
400,128,35234,1,6
400,320,35514,1,6
400,224,35700,1,2
400,128,35886,1,2
120,192,36073,1,4
392,192,36259,1,0
184,80,36445,1,4
328,304,36632,1,0
328,80,36818,1,4
184,304,37004,1,0
392,192,37191,1,4
120,192,37377,1,8
256,192,37563,5,8
256,192,37656,1,8
256,192,37750,1,8
64,64,37936,5,0
168,136,38122,1,8
448,64,38309,5,0
344,136,38495,1,8
64,320,38681,5,0
96,256,38774,1,0
168,248,38867,1,8
256,352,39054,1,0
256,280,39147,1,0
256,208,39240,1,8
448,320,39427,1,0
416,256,39520,1,0
344,248,39613,1,8
80,72,39799,6,0,B|104:96|160:112,1,70,0|8
256,352,40172,2,0,B|256:256|256:256,1,70,0|8
432,72,40545,2,0,B|408:96|352:112,1,70,0|8
256,32,40917,2,0,B|256:112,1,70,0|8
256,102,41290,1,0
256,102,41476,5,10
256,102,41569,1,2
256,102,41663,1,2
256,102,41756,1,2
256,102,41849,1,10
256,216,42035,1,0
256,336,42222,1,8
256,216,42408,5,0
160,168,42594,1,8
352,216,42781,1,0
88,248,42967,1,8
424,136,43153,5,2
392,152,43246,1,2
370,177,43340,1,10
356,206,43433,1,2
328,227,43526,1,2
289,235,43619,1,2
256,228,43712,1,10
176,40,43899,6,0,B|128:64|128:64|80:80|80:136,1,140,4|8
424,264,44271,2,0,B|384:280|360:320|360:320|296:336,1,140,0|8
360,56,44644,2,0,B|400:88|400:88|408:72|440:112|440:112|464:160,1,140,0|8
80,240,45017,2,0,B|93:283|93:283|107:290|107:290|142:327|196:310,1,140,0|8
328,104,45389,5,2
304,152,45482,1,2
256,168,45576,1,10
208,152,45669,1,2
184,104,45762,1,2
184,104,45948,5,8
72,264,46135,1,0
328,280,46321,1,8
424,80,46507,1,0
72,264,46694,5,8
424,80,46880,1,0
64,144,47066,1,8
448,240,47252,1,0
144,56,47438,1,8
368,328,47625,1,0
144,160,47812,1,8
368,224,47998,1,0
72,288,48184,1,8
440,96,48371,5,2
392,88,48464,1,2
344,96,48557,1,10
320,136,48650,1,2
312,184,48743,1,2
288,224,48837,1,2
256,256,48930,1,10
224,224,49023,1,2
200,184,49116,1,2
192,136,49209,1,2
168,96,49302,1,10
120,88,49396,1,2
72,96,49489,1,2
440,96,49675,5,4
308,244,49861,1,0
232,64,50048,1,4
400,192,50234,5,0
204,244,50420,1,4
280,64,50607,1,0
308,244,50793,5,4
112,192,50979,1,0
400,192,51166,1,4
256,124,51352,5,2
256,124,51445,1,2
256,124,51538,1,2
256,124,51632,1,2
256,124,51725,1,2
256,336,51911,5,4
124,88,52097,1,4
256,28,52284,1,4
388,88,52470,1,4
288,152,52843,5,0
240,232,53029,1,6
240,280,53122,1,0
272,320,53215,1,6
360,360,53402,1,0
448,320,53588,1,6
480,280,53681,1,0
480,232,53774,1,6
464,136,53961,1,6
424,104,54054,1,0
376,104,54147,1,6
256,115,54333,5,0
168,264,54520,1,4
344,264,54706,1,0
256,40,54892,5,4
80,336,55079,1,4
432,336,55265,1,4
256,192,55451,1,4
256,352,55824,5,0
256,352,55917,1,0
256,352,56010,1,8
40,192,56197,5,0
40,192,56290,1,0
40,192,56383,1,8
256,40,56569,5,0
256,40,56663,1,0
256,40,56756,1,8
464,192,56942,5,0
464,192,57035,1,0
464,192,57128,1,8
432,64,57315,5,2
410,121,57408,1,2
352,124,57501,1,2
333,179,57594,1,2
276,182,57687,1,2
432,64,57874,5,0
80,320,58060,1,12
432,64,58246,1,0
80,320,58433,1,12
208,96,58805,6,0,B|160:96|136:144,1,70,0|8
304,288,59178,2,0,B|352:288|376:240,1,70,0|8
144,344,59551,6,0,B|72:328|32:256,1,140,0|8
400,24,59923,2,0,B|472:40|504:120,1,140,0|8
256,256,60296,5,2
200,224,60389,1,2
200,160,60482,1,2
256,128,60576,1,2
312,160,60669,1,2
312,224,60762,1,2
256,192,60855,1,2
256,192,61228,5,4
256,192,61415,1,4
256,192,61600,1,4
80,80,61787,5,2
184,80,61973,1,2
432,304,62159,5,2
328,304,62345,1,2
104,304,62532,5,6
256,192,62905,1,6
408,80,63278,1,6
256,192,63371,12,0,64209
121,178,64396,1,2
365,128,64582,1,6
315,319,64768,1,2
288,72,64955,1,2
256,192,65327,1,6
112,171,65886,5,2
400,171,66073,1,2
168,319,66259,1,6
256,52,66445,1,2
344,319,66632,1,6
112,171,66818,1,2
400,171,67005,5,4
256,52,67191,1,0
112,171,67377,1,4
168,319,67563,1,0
344,319,67750,1,6
448,192,67936,5,2
360,192,68122,1,2
272,192,68309,1,2
184,192,68495,2,0,B|168:160,3,35,6|0|0|0
96,264,68868,2,0,B|56:272|56:272,3,35,6|0|0|0
256,192,69240,12,0,70358
256,192,70545,5,6
256,192,70731,1,6
376,72,71010,1,6
136,72,71290,1,6
32,192,71663,5,6
96,184,71849,1,6
160,192,72035,1,6
224,200,72222,1,6
288,192,72408,1,6
352,184,72594,1,6
416,192,72781,1,6
480,192,72967,1,6
480,192,73153,5,10
424,192,73246,1,10
368,192,73340,1,10
312,192,73433,1,10
256,192,73526,1,10
311,68,73712,5,4
132,134,73899,1,8
198,313,74085,1,0
377,247,74271,1,8
242,57,74458,5,0
120,203,74645,1,8
267,324,74831,1,0
388,179,75017,1,8
177,82,75203,5,0
145,268,75390,1,8
331,302,75576,1,0
365,115,75762,1,8
134,136,75948,5,0
200,315,76135,1,8
379,249,76321,1,0
311,68,76507,1,8
121,203,76694,5,0
268,324,76881,1,8
390,179,77067,1,0
243,57,77253,1,8
144,267,77439,5,0
331,299,77626,1,8
365,113,77812,1,0
177,80,77998,1,8
197,313,78184,5,0
377,247,78371,1,8
310,68,78557,1,0
132,134,78743,1,8
256,192,78930,1,8
256,192,79116,5,10
256,192,79209,1,2
256,192,79302,1,2
256,192,79396,1,2
256,192,79489,1,10
256,192,79582,1,2
256,192,79675,1,2
464,120,79861,5,8
328,56,80048,1,0
176,56,80234,1,8
56,128,80420,1,2
40,168,80514,1,2
56,208,80607,1,10
144,296,80793,1,2
192,296,80886,1,2
224,332,80979,1,10
352,256,81166,5,2
376,216,81259,1,2
384,168,81352,1,10
376,120,81445,1,2
360,72,81538,1,2
320,40,81632,1,2
272,24,81725,1,10
224,24,81818,1,2
176,32,81911,1,2
64,88,82097,5,8
32,208,82284,1,0
104,320,82470,1,8
264,344,82656,1,0
400,264,82843,1,8
416,120,83029,1,0
272,32,83215,1,8
272,32,83402,5,0
272,32,83588,1,8
272,32,83774,1,0
272,32,83961,1,10
248,80,84054,1,2
240,136,84147,1,6
264,184,84240,1,2
280,240,84333,1,10
264,296,84427,1,2
232,344,84520,1,2
232,344,84613,5,2
232,344,84706,1,8
232,344,84799,1,8
232,344,84892,1,8
232,344,84986,1,8
232,344,85079,1,8
176,336,85172,5,8
144,288,85265,1,8
152,232,85358,1,8
184,184,85451,1,8
192,128,85545,1,8
160,80,85638,1,12
40,56,85824,5,2
160,80,86010,1,2
232,176,86196,1,2
280,288,86382,1,2
392,336,86569,1,2
480,256,86755,1,2
448,144,86941,1,2
328,136,87128,2,0,B|328:240,2,105
208,144,87874,1,2
112,216,88060,1,2
96,336,88246,1,2
200,280,88433,1,2
304,224,88619,1,2
280,112,88805,1,2
168,80,88992,5,2
280,112,89178,1,2
392,160,89364,1,2
424,272,89551,1,2
312,320,89737,1,2
192,296,89923,1,2
80,328,90110,1,6
80,328,90482,5,6
80,328,90855,1,6
184,136,91041,1,6
248,328,91228,1,6
136,136,91414,1,6
160,32,91600,5,6
224,152,91787,1,2
232,176,91880,1,2
256,192,91973,1,2
336,232,92159,1,6
432,248,92346,1,6
80,56,92719,6,0,B|32:56|32:56,1,35,6|0
496,344,93091,2,0,B|500:344|356:344,1,140,6|6
356,344,94023,5,6
432,280,94209,1,6
352,160,94396,1,6
176,104,94582,6,0,B|96:104,1,70,6|2
106,104,95141,1,6
240,312,95327,2,0,B|160:312,1,70,6|2
170,312,95886,1,6
440,80,96073,6,0,B|392:80,1,35,6|0
405,80,96352,1,6
405,80,96445,1,6
320,80,96632,1,6
232,80,96818,1,6
405,80,97191,5,6
408,80,97563,1,2
384,96,97656,1,2
360,112,97749,1,2
328,120,97842,1,2
296,128,97935,1,2
264,128,98028,1,2
232,120,98122,1,2
200,120,98215,1,2
160,120,98309,2,0,B|120:120,3,35,6|0|0|0
125,118,98681,6,0,B|96:144|88:152,3,35,6|0|0|0
112,168,99054,1,6
136,192,99147,1,2
160,208,99240,1,2
176,240,99333,1,6
192,264,99427,1,2
216,280,99520,1,2
248,288,99613,1,6
280,280,99706,1,2
296,248,99799,1,2
288,216,99892,1,2
256,192,99986,5,2
256,40,100172,1,2
256,192,100359,1,2
256,344,100545,1,2
256,192,100731,1,2
256,40,100918,1,2
256,192,101104,1,2
256,344,101290,5,2
104,192,101476,1,2
256,40,101663,1,2
408,192,101849,1,2
256,344,102035,1,4
256,344,102128,1,4
256,40,102315,5,4
256,40,102408,1,4
104,192,102594,1,2
408,192,102781,1,2
104,192,102967,1,2
408,192,103153,1,2
104,192,103340,1,2
216,24,103712,5,2
200,144,103898,1,6
96,72,104085,2,0,B|64:56|40:96,1,35,6|0
32,168,104364,2,0,B|56:192|88:176,1,35,2|0
72,272,104645,1,2
160,336,104831,1,2
256,344,105017,1,6
256,344,105296,5,6
256,344,105576,1,6
352,336,105762,1,2
440,272,105948,1,2
488,160,106135,1,2
488,32,106322,1,2
424,120,106507,6,0,B|384:136|384:136,7,35,6|0|0|0|0|0|0|0
312,144,107253,2,0,B|304:80|304:80,6,35,6|0|0|0|0|0|0
296,24,107998,2,0,B|240:72,1,70,6|0
216,88,108278,1,6
192,112,108371,1,6
72,192,108557,1,6
440,192,108743,1,6
440,192,109116,5,6
440,208,109209,1,6
440,224,109302,1,6
440,240,109396,1,6
440,256,109489,1,6
440,120,115451,5,2
440,256,115638,1,2
328,344,115824,1,2
184,344,116011,1,2
72,256,116197,1,2
72,120,116383,1,2
184,32,116570,1,2
320,32,116756,1,2
56,144,116942,5,6
256,64,117222,1,6
456,144,117501,1,6
448,272,117688,5,2
408,304,117781,1,2
360,296,117874,1,2
320,264,117967,1,2
296,224,118060,1,2
272,184,118154,1,2
232,152,118247,1,2
184,144,118340,1,2
144,168,118433,1,2
80,256,118619,5,2
208,336,118806,1,2
368,304,118992,1,2
456,176,119178,1,2
392,48,119365,1,2
272,24,119551,1,2
152,48,119737,1,2
128,136,119924,5,2
120,184,120017,1,2
104,224,120110,1,2
80,264,120203,1,2
32,264,120296,1,2
24,312,120390,1,2
64,336,120483,1,2
112,336,120576,1,2
152,320,120669,1,2
192,304,120762,1,2
240,312,120855,5,6
344,256,121042,1,6
400,152,121228,1,6
424,48,121414,1,6
200,112,121600,5,2
240,120,121694,1,2
272,96,121787,1,6
288,56,121880,1,2
320,32,121973,1,2
368,32,122066,1,6
416,48,122159,1,2
432,96,122253,5,2
408,136,122346,1,2
384,176,122439,1,2
384,224,122532,1,6
416,264,122625,1,2
464,264,122719,1,2
496,296,122812,1,2
480,320,122905,2,0,B|440:344,8,35,6|0|0|6|0|0|6|0|0
416,344,123744,5,2
376,336,123837,1,2
352,296,123930,1,2
352,256,124023,1,6
320,232,124116,1,2
336,192,124209,1,2
304,168,124303,1,2
264,168,124396,1,2
232,192,124489,1,2
216,232,124582,1,2
184,264,124675,1,2
144,248,124768,5,6
120,208,124862,1,2
112,168,124955,1,2
128,128,125048,1,6
160,104,125141,1,2
200,88,125234,1,2
240,80,125327,1,2
280,80,125421,1,2
320,88,125514,1,6
360,104,125607,1,2
392,128,125700,1,2
464,192,125886,1,6
464,192,126166,5,6
464,192,126445,1,6
56,192,126632,5,2
88,224,126725,1,2
128,240,126818,1,2
168,248,126911,1,2
208,240,127004,1,6
248,224,127097,1,2
280,200,127191,1,2
296,160,127284,1,2
312,120,127377,1,2
456,40,127563,5,2
480,80,127656,1,2
480,120,127750,1,6
488,160,127843,1,2
472,200,127936,1,2
440,224,128029,1,6
400,248,128122,1,2
392,288,128215,1,2
408,328,128309,1,2
448,344,128402,1,2
408,360,128495,5,6
368,360,128588,1,2
328,352,128681,1,2
288,336,128774,1,2
256,304,128868,1,6
232,272,128961,1,2
216,232,129054,1,2
208,192,129147,1,6
208,152,129240,1,2
208,112,129333,1,2
168,128,129427,5,6
136,152,129520,1,2
112,184,129613,1,2
96,216,129706,1,2
104,256,129799,1,2
128,280,129892,1,2
152,304,129986,1,6
184,288,130079,1,2
216,272,130172,1,2
240,248,130265,1,2
264,224,130358,5,6
288,200,130451,1,6
304,168,130545,1,6
320,136,130638,1,6
352,120,130731,1,6
376,96,130824,1,6
400,72,130917,1,6
264,224,131104,5,6
288,200,131197,1,6
304,168,131291,1,6
320,136,131384,1,6
352,120,131477,1,6
376,96,131570,1,6
400,72,131663,1,6
256,32,131849,1,6
256,32,132128,5,6
256,32,132408,1,6
256,32,132594,5,6
240,72,132687,1,6
232,120,132781,1,6
240,168,132874,1,6
256,208,132967,1,6
272,248,133060,1,6
272,296,133153,1,6
256,336,133246,1,6
240,368,133340,1,6
