osu file format v8

[General]
AudioFilename: th_10_11.mp3
AudioLeadIn: 1511
PreviewTime: 13085
Countdown: 0
SampleSet: Normal
StackLeniency: 0.7
Mode: 0
LetterboxInBreaks: 1

[Editor]
Bookmarks: 1449,13085,24721,36358,47994,59631,71267,82903,94540,106176,117812,129449,141085,152721,164358
DistanceSpacing: 1.20000004768372
BeatDivisor: 4
GridSize: 8

[Metadata]
Title:Faith is for the Transient People
Artist:ZUN
Creator:thepianist
Version:Hard
Source:Touhou
Tags:Soundtrack Sanae Kochiya Bitzeralisis Impossiblexu dksslqj Mountain of Faith

[Difficulty]
HPDrainRate:4
CircleSize:4
OverallDifficulty:6
ApproachRate:6
SliderMultiplier:1.4
SliderTickRate:1

[Events]
//Background and Video events
0,0,"hard.jpg"
//Break Periods
2,71545,80477
2,129727,139387
//Storyboard Layer 0 (Background)
//Storyboard Layer 1 (Fail)
//Storyboard Layer 2 (Pass)
//Storyboard Layer 3 (Foreground)
Sprite,Foreground,Centre,"konachan-com-64065-kochiya_sanae-nature-tagme-touhou.jpg",320,240 F,0,24716,24806,0,1 F,0,24806,25170,1,0 S,0,24807,25170,1,2
Sprite,Foreground,Centre,"konachan-com-64065-kochiya_sanae-nature-tagme-touhou.jpg",320,240 F,0,47897,48079,0,1 F,0,48079,48443,1,0 S,0,48079,48443,1,2
Sprite,Foreground,Centre,"konachan-com-64065-kochiya_sanae-nature-tagme-touhou.jpg",320,240 F,0,53716,53897,0,1 F,0,53897,54261,1,0 S,0,53897,54261,1,2
Sprite,Foreground,Centre,"konachan-com-64065-kochiya_sanae-nature-tagme-touhou.jpg",320,240 F,0,59534,59716,0,1 F,0,59716,60079,1,0 S,0,59716,60079,1,2
Sprite,Foreground,Centre,"konachan-com-64065-kochiya_sanae-nature-tagme-touhou.jpg",320,240 F,0,65352,65534,0,1 F,0,65534,65897,1,0 S,0,65534,65897,1,2
Sprite,Foreground,Centre,"konachan-com-64065-kochiya_sanae-nature-tagme-touhou.jpg",320,240 F,0,94443,94625,0,1 F,0,94625,94988,1,0 S,0,94625,94988,1,2
Sprite,Foreground,Centre,"konachan-com-64065-kochiya_sanae-nature-tagme-touhou.jpg",320,240 F,0,117716,117897,0,1 F,0,117897,118261,1,0 S,0,117897,118261,1,2
Sprite,Foreground,Centre,"konachan-com-64065-kochiya_sanae-nature-tagme-touhou.jpg",320,240 F,0,123534,123716,0,1 F,0,123716,124079,1,0 S,0,123716,124079,1,2
Sprite,Foreground,Centre,"konachan-com-64065-kochiya_sanae-nature-tagme-touhou.jpg",320,240 F,0,129352,129534,0,1 F,0,129534,129897,1,0 S,0,129534,129897,1,2
Sprite,Foreground,Centre,"konachan-com-64065-kochiya_sanae-nature-tagme-touhou.jpg",320,240 F,0,152625,152806,0,1 F,0,152806,153170,1,0 S,0,152806,153170,1,2
Sprite,Foreground,Centre,"konachan-com-64065-kochiya_sanae-nature-tagme-touhou.jpg",320,240 F,0,158443,158625,0,1 F,0,158625,158988,1,0 S,0,158625,158988,1,2
Sprite,Foreground,Centre,"white.png",320,240 F,0,36261,36443,0.2159999,1 S,0,36443,,1 F,0,36443,36806,1,0
Sprite,Foreground,Centre,"Spotlight.png",320,240 F,0,69897,71352,0,1
Sprite,Foreground,Centre,"white.png",320,240 F,0,70988,71352,0,1 F,0,71352,71534,1,0
Sprite,Foreground,Centre,"Spotlight.png",320,240 F,0,81534,82988,0,1
Sprite,Foreground,Centre,"white.png",320,240 F,0,82806,82988,0,1 F,0,82988,83170,1,0
Sprite,Foreground,Centre,"Spotlight.png",320,240 S,0,104806,,1 F,0,104806,106261,0,1
Sprite,Foreground,Centre,"white.png",320,240 F,0,106079,106261,0,1 F,0,106261,106443,1,0
Sprite,Foreground,Centre,"Spotlight.png",320,240 F,0,139716,141170,0,1
Sprite,Foreground,Centre,"white.png",320,240 F,0,140988,141170,0,0.9960001 F,0,141170,141352,0.9960001,0
Sprite,Foreground,Centre,"Spotlight.png",320,240 F,0,162988,164443,0,1
Sprite,Foreground,Centre,"white.png",320,240 F,0,164261,164443,0,1 S,0,164443,,1.2 F,0,164443,164625,1,0
Sprite,Foreground,Centre,"Spotlight.png",320,240 M,0,11716,,320,240 F,0,11716,13170,0,1
Sprite,Foreground,Centre,"white.png",320,240 S,0,12806,,1.096 F,0,12806,13079,0,0.352 F,0,13079,13170,0.352,1 F,0,13170,13352,1,0
Sprite,Foreground,Centre,"Spotlight.png",320,240 F,0,34988,36352,0,1 S,0,34988,36352,1,1.472 M,0,36352,,320,240 F,0,36352,36443,1
Sprite,Foreground,Centre,"face07mct.png",320,240 F,0,11717,11989,0,1 M,0,11717,12988,488,194,488,266 F,0,11989,12716,1 S,0,12080,,0.92 F,0,12716,12989,1,0
Sprite,Foreground,Centre,"face07mct.png",320,240 S,0,81535,,0.9280005 F,0,81535,81807,0,1 M,0,81535,82989,488,194,488,266 F,0,81807,82716,1 F,0,82716,82989,1,0
Sprite,Foreground,Centre,"face07mct.png",320,240 S,0,140444,,0.9200003 F,0,140444,140625,0.08,1 M,0,140444,141171,488,194,488,266 F,0,140625,140989,1 F,0,140989,141171,1,0
Sprite,Foreground,Centre,"cardbg.png",320,240 M,0,11717,,450,331 F,0,11717,11989,0,1 S,0,11717,11989,3,1 M,0,11989,13171,450,331,450,112 F,0,12353,36444,1 F,0,36444,36807,1,0
Sprite,Foreground,Centre,"cardbg.png",320,240 F,0,81525,81897,0,1 S,0,81534,81897,3,1 M,0,81897,,450,330 M,0,81897,82979,450,330,450,112 F,0,81897,106261,1 F,0,106261,106625,1,0
Sprite,Foreground,Centre,"cardbg.png",320,240 F,0,140434,140806,0,1 S,0,140443,140806,3,1 M,0,140806,141161,450,355,450,112 F,0,140806,164434,1 F,0,164434,164734,1,0
Sprite,Foreground,Centre,"Takeminakata Invocation.png",320,240 F,0,81525,81897,0,1 S,0,81534,81897,3,1 M,0,81897,,475,326 F,0,81897,82825,1 M,0,81897,82989,475,326,479,110 F,0,82825,106262,1 F,0,106262,106625,1,0
Sprite,Foreground,Centre,"Forgotten Ritual.png",320,240 F,0,11717,11989,0,1 S,0,11717,11989,3,1 M,0,11989,13171,492,327,492,110 F,0,12353,36444,1 F,0,36444,36807,1,0
Sprite,Foreground,Centre,"Divine.png",320,240 F,0,140434,140806,0,1 S,0,140443,140806,3,1 M,0,140806,141161,482,356,486,111 F,0,140806,164434,1 F,0,164434,164734,1,0
//Storyboard Sound Samples
//Background Colour Transformations
3,100,0,0,70

[TimingPoints]
1528,363.636363636364,4,1,0,80,1,0
11709,-100,4,1,0,80,0,1
11800,-100,4,1,0,80,0,0
17346,-100,4,1,0,48,0,0
18800,-100,4,1,0,80,0,0
23255,-100,4,1,0,57,0,0
24618,-100,4,1,0,80,0,0
28982,-100,4,1,0,48,0,0
30437,-100,4,1,0,80,0,0
36427,-100,4,1,0,80,0,1
36527,-100,4,2,0,80,0,0
47855,-100,4,1,0,80,0,0
81518,-100,4,1,0,80,0,1
81618,-100,4,1,0,80,0,0
87164,-100,4,1,0,58,0,0
88618,-100,4,1,0,80,0,0
98800,-100,4,1,0,58,0,0
100255,-100,4,1,0,80,0,0
106164,-100,4,2,0,80,0,0
106245,-100,4,2,0,80,0,1
106345,-100,4,2,0,80,0,0
117492,-100,4,1,0,80,0,0
140427,-100,4,1,0,80,0,1
140527,-100,4,1,0,80,0,0
141128,-200,4,2,0,80,0,0
152800,-100,4,1,0,80,0,0
164437,-100,4,1,0,80,0,1
164527,-100,4,1,0,80,0,0
172800,-100,4,2,0,100,0,0
173528,-100,4,2,0,80,0,0
173891,-100,4,2,0,60,0,0
174255,-100,4,2,0,40,0,0
174619,-100,4,2,0,30,0,0
174982,-100,4,2,0,20,0,0
175346,-100,4,2,0,10,0,0
175709,-100,4,2,0,0,0,0

[Colours]
Combo1 : 71,197,207
Combo2 : 3,146,3
Combo3 : 2,2,125
Combo4 : 89,215,57

[HitObjects]
168,192,1528,1,0
344,192,1891,1,0
256,336,2255,2,0,B|256:168,1,140,0|4
256,24,2982,1,0
432,24,3346,1,0
344,168,3709,2,0,B|344:24,1,140,0|4
176,24,4437,5,0
176,184,4800,1,0
32,104,5164,2,0,B|192:104,1,140,0|4
320,192,5891,1,0
320,352,6255,1,0
464,272,6618,2,4,B|376:272,2,70
464,104,7346,6,0,B|304:104,1,140
152,104,8073,2,0,B|240:104,2,70,0|0|4
152,272,8800,2,0,B|312:272,1,140
464,272,9527,2,0,B|392:272,2,70,0|0|4
256,192,10255,12,4,11709
256,192,12073,5,0
256,192,12437,1,0
256,192,12800,1,4
88,192,13164,5,0
256,192,13527,1,8
424,192,13891,2,0,B|480:192|480:288,2,105
336,192,14618,1,0
168,192,14982,1,8
256,48,15346,6,0,B|336:48|352:120,2,105
168,48,16073,1,0
168,216,16437,2,0,B|168:312,1,70
320,216,16982,2,0,B|320:144,1,70
480,192,17527,5,0
256,40,17891,1,0
32,192,18255,1,0
256,344,18618,1,4
256,192,18982,5,0
128,80,19346,1,8
256,192,19709,2,0,B|336:272,2,105
192,136,20437,1,0
64,24,20800,1,8
192,136,21164,6,0,B|272:208,2,105
128,80,21891,1,0
128,248,22255,1,8
296,248,22618,2,0,B|408:248,2,105
296,160,23346,5,0
128,160,23709,1,0
128,328,24073,1,0
296,328,24437,1,4
296,160,24800,6,0,B|296:64|192:64,1,140,0|8
48,64,25528,1,0
48,192,25800,1,0
48,320,26073,1,0
136,320,26255,1,0
304,320,26618,1,8
472,320,26982,5,0
472,192,27255,1,0
472,64,27528,1,0
384,64,27709,1,0
216,64,28073,1,0
128,64,28255,1,0
216,208,28618,1,0
296,208,28800,1,0
424,320,29164,5,0
424,64,29528,1,0
88,64,29891,1,0
88,320,30255,1,4
256,320,30618,6,0,B|344:256|256:192,1,140,0|8
160,80,31346,1,0
160,208,31618,1,0
160,336,31891,1,0
248,336,32073,2,0,B|248:192,1,140,0|8
248,24,32800,6,0,B|344:16|360:48,1,105
448,120,33346,1,0
472,200,33528,1,0
472,368,33891,1,0
304,368,34255,2,0,B|224:368|200:328,2,105
392,368,34982,6,0,B|392:320,3,35
392,288,35346,2,0,B|392:240,3,35
392,208,35709,2,0,B|392:152,3,35
392,128,36073,2,0,B|392:72,3,35
392,48,36437,5,4
224,48,36800,1,2
56,48,37164,1,0
136,144,37437,1,0
136,272,37709,1,0
136,360,37891,1,0
280,272,38255,2,0,B|360:272,1,70,2|0
352,104,38800,1,0
352,104,38982,1,2
184,104,39346,5,0
248,256,39709,1,2
96,224,40073,1,0
24,120,40346,1,0
112,32,40618,1,0
200,32,40800,2,0,B|296:32,1,70
272,120,41164,2,0,B|376:120,1,70,2|0
344,208,41527,2,0,B|264:208,1,70
272,296,41891,1,2
184,296,42073,1,0
96,296,42255,6,2,B|8:256|64:96,1,210
144,120,42982,2,2,B|240:24|336:144,1,210
408,128,43709,1,0
408,296,44073,1,2
240,296,44437,2,0,B|104:296,2,105
240,208,45164,5,0
240,40,45527,1,2
392,120,45891,1,0
392,288,46255,1,2
256,192,46618,12,4,47709
88,56,48073,6,0,B|392:56,1,280,4|0
368,224,49164,1,8
200,224,49527,2,0,B|64:208|24:344|224:328,1,280
368,328,50618,2,0,C|448:328,2,70,8|0|0
216,248,51346,5,8
64,328,51709,2,0,B|64:176,1,140,0|8
64,104,52255,2,0,B|112:104,2,35,0|0|0
232,104,52800,1,8
400,104,53164,2,0,B|400:264,1,140,0|12
312,104,53891,6,0,B|312:264,1,140,0|8
224,104,54618,2,0,B|224:272,1,140,0|8
136,104,55346,1,0
304,104,55709,1,8
472,104,56073,1,0
432,264,56437,1,8
352,264,56618,1,0
96,272,57164,5,8
248,344,57527,1,0
384,264,57891,1,8
320,112,58255,2,0,B|128:120|120:304,1,280
272,360,59346,1,0
256,192,59709,6,0,B|336:192|336:80,1,140,4|8
256,192,60437,2,0,B|216:122|119:178,1,140,0|8
256,192,60982,1,0
256,192,61164,2,0,B|216:261|312:317,1,140,0|8
384,304,61709,2,0,B|432:304,2,35
504,192,62255,1,12
424,40,62618,6,0,B|392:0|368:32|368:32|328:-8|296:64,1,140,0|8
312,208,63346,2,0,B|331:256|371:216|371:216|395:248|427:208,1,140,0|8
424,128,63891,1,0
336,128,64073,2,0,B|184:128,2,140,0|8|0
168,128,65164,1,12
8,192,65527,6,0,B|168:192,1,140,0|8
96,32,66255,2,0,B|248:32,1,140,0|8
176,192,66982,2,0,B|328:192,1,140,0|8
488,192,67709,1,0
488,24,68073,2,0,B|384:24,1,70,8|0
168,24,68800,2,0,B|328:24,1,140,8|0
232,176,69527,1,8
232,344,69891,5,0
336,272,70164,2,0,B|384:240|408:160,1,105,8|0
416,104,70618,2,0,B|416:40,3,35
416,24,70982,2,0,B|352:24,4,35,8|0|0|0|4
256,40,81527,6,0,B|200:48|144:152,1,140
136,296,82255,2,0,B|144:344|224:320,1,70
272,312,82618,2,0,B|320:272,4,35,0|0|0|0|4
64,48,83709,6,0,B|200:48,2,105
64,136,84437,1,0
64,304,84800,1,8
208,216,85164,6,0,B|72:216,2,105
296,216,85891,1,0
464,216,86255,2,0,B|392:216,1,70,8|0
392,48,86800,2,0,B|392:136,1,70
256,40,87346,5,0
64,192,87709,1,0
256,344,88073,1,0
448,192,88437,1,4
448,24,88800,5,0
448,192,89164,1,8
448,24,89527,2,0,B|328:24,1,105
216,24,90073,1,0
128,24,90255,5,0
128,192,90618,1,8
128,24,90982,2,0,B|8:24,2,105
216,24,91709,5,0
216,192,92073,1,8
360,104,92437,1,0
488,104,92709,1,0
360,104,92982,1,0
360,192,93164,1,0
192,192,93527,6,0,B|128:192,2,35
192,280,93891,2,0,B|248:280,2,35
184,368,94255,2,0,B|136:368,4,35,0|0|0|0|4
352,368,94982,5,8
392,208,95346,2,0,B|456:208|456:136|384:104|320:128|352:208,1,210
327,275,96073,2,0,B|183:275,1,140,0|8
96,128,96800,6,0,B|32:128|32:56|104:24|168:48|136:128,1,210
176,192,97527,1,0
320,280,97891,1,8
320,280,98073,1,0
264,120,98437,1,0
264,120,98618,1,0
216,280,98982,5,0
352,184,99346,1,0
184,184,99709,1,0
320,280,100073,1,4
264,120,100437,5,8
96,120,100800,1,0
176,272,101164,2,0,B|176:400,2,105
264,272,101891,5,0
264,120,102255,1,8
96,120,102618,2,0,B|96:24|32:16,2,105
96,120,103346,5,0
264,152,103709,1,8
424,192,104073,2,0,B|424:64,2,105
336,192,104800,6,0,C|336:248,3,35
296,224,105164,2,0,C|296:184,3,35
256,192,105527,2,0,C|256:240,3,35
216,224,105891,2,0,C|144:224,1,70,4|0
168,144,106255,6,0,B|240:104|312:152,1,140,0|2
304,312,106982,2,0,B|216:312|248:360|272:312|232:312|176:312,2,105,0|0|2
384,288,107709,1,0
384,120,108073,2,0,B|296:120,1,70,2|0
248,272,108618,2,0,B|336:272,1,70,0|2
248,120,109164,6,0,B|248:72|104:96|128:248,1,210
128,304,109891,2,0,B|208:304|240:240,2,105
128,216,110618,1,0
128,48,110982,1,2
296,48,111346,1,0
208,136,111618,1,0
120,224,111891,1,4
488,48,112800,6,0,B|488:136|464:176,1,105
416,264,113346,1,0
352,320,113527,1,4
24,48,114255,6,0,B|24:136|48:176,1,105
96,264,114800,1,0
160,320,114982,1,4
256,184,115346,1,0
184,32,115709,2,0,B|352:32,1,140
256,184,116437,1,0
256,192,116527,12,4,117527
256,192,117891,6,0,B|304:152|184:64,1,140
256,192,118618,2,0,B|296:240|384:120,1,140
256,192,119346,2,0,B|264:248|216:256,1,70
256,192,119709,2,0,B|200:200|192:152,1,70
256,192,120073,1,0
424,192,120437,1,12
336,48,120800,6,0,B|336:208,1,140,0|8
336,360,121527,2,0,B|336:200,1,140,0|8
336,136,122073,2,0,B|384:136,2,35
168,136,122618,1,8
0,136,122982,2,0,B|0:312|216:296,1,280
352,304,124073,6,0,B|352:216,1,70,8|0
352,234,124437,1,0
368,96,124800,6,0,B|280:96,1,70,8|0
298,96,125164,1,0
160,80,125527,6,0,B|160:168,1,70,8|0
160,150,125891,1,0
144,288,126255,6,0,B|232:288,1,70,8|0
296,288,126618,5,0
352,152,126982,1,8
216,96,127346,1,0
160,232,127709,1,8
80,88,128073,2,0,B|80:152,3,35
80,168,128437,2,0,B|80:232,3,35,8|0|0|0
80,248,128800,2,0,B|80:312,3,35
80,328,129164,2,0,B|80:392,4,35,8|0|0|0|4
256,336,140437,6,0,B|328:336,1,70
296,256,140800,2,0,B|200:256,1,70
226,256,141164,5,0
152,112,141800,2,0,B|184:112,1,17.5,0|0
256,112,142255,1,2
256,24,142618,2,0,B|184:24,2,70,0|2|0
344,24,143709,1,2
424,24,144073,5,0
424,168,144800,2,0,B|392:168,1,17.5
424,296,145346,2,0,B|392:296,2,17.5
336,296,145891,2,0,B|248:296,1,70
96,296,146982,6,0,B|96:144,1,140
264,152,148437,2,0,B|416:152,1,140
400,240,149527,1,0
400,280,149709,1,0
272,280,150255,5,0
184,280,150618,2,0,B|152:256|112:280,1,70
32,288,151346,2,0,B|32:224,8,35,0|0|0|0|0|0|0|0|4
32,120,153164,6,0,B|72:120,4,35
200,120,153891,1,0
200,120,154073,1,0
288,120,154255,2,0,B|432:120,2,140
288,288,155346,2,0,B|336:288,4,35,0|0|0|0|4
120,288,156073,6,0,B|72:288,4,35
120,120,156800,1,0
120,120,156982,1,0
208,120,157164,2,0,B|360:120,2,140
200,288,158255,1,4
200,288,158437,1,0
200,288,158618,6,0,B|104:208|160:80|232:32,1,280
336,168,159709,1,0
448,296,160073,2,0,B|544:200|488:88|416:40,1,280
264,48,161164,2,0,B|176:48,1,70
256,296,161891,5,0
424,296,162255,1,0
424,128,162618,1,0
256,128,162982,1,0
128,128,163255,1,0
0,128,163527,1,0
0,216,163709,2,4,B|48:216,8,35
488,88,165527,5,0
440,16,165709,1,0
400,88,165891,1,4
400,256,166255,2,0,B|240:168|144:304,1,280
274,368,167346,5,4
272,32,168073,1,0
232,192,168437,2,0,B|168:192,4,35,0|0|0|0|4
400,192,169164,5,0
480,336,169527,1,0
400,336,169709,1,0
312,336,169891,2,0,B|312:256,1,70
264,336,170255,2,0,B|160:240,1,140
240,224,170800,1,0
320,208,170982,2,0,B|216:112,1,140
248,32,171527,1,0
288,32,171618,1,0
328,32,171709,5,0
416,32,171891,1,0
376,104,172073,1,0
464,104,172255,1,0
432,176,172437,2,0,B|376:240,1,70
464,248,172800,2,0,B|520:304,1,70,4|0
256,192,173164,12,0,176073
