osu file format v9

[General]
AudioFilename: [17] Extend Ash ~ Houraijin.mp3
AudioLeadIn: 0
PreviewTime: 55437
Countdown: 0
SampleSet: Soft
StackLeniency: 0.7
Mode: 0
LetterboxInBreaks: 1

[Editor]
Bookmarks: 98547,98687
DistanceSpacing: 0.8
BeatDivisor: 4
GridSize: 8

[Metadata]
Title:Extend Ash ~ Hourai Victim
Artist:ZUN
Creator:Tenshi-nyan
Version:Normal
Source:Touhou
Tags:Fujiwara no Mokou Keine Kamishirasawa Phoenix extra stage 0989596108 Imperishable Night

[Difficulty]
HPDrainRate:2
CircleSize:4
OverallDifficulty:2
ApproachRate:5
SliderMultiplier:1.4
SliderTickRate:1

[Events]
//Background and Video events
0,0,"konachancom90082bootsdr.jpg"
//Break Periods
2,49489,54243
2,80258,85012
2,129489,140397
//Storyboard Layer 0 (Background)
//Storyboard Layer 1 (Fail)
//Storyboard Layer 2 (Pass)
//Storyboard Layer 3 (Foreground)
//Storyboard Sound Samples
//Background Colour Transformations
3,100,163,162,255

[TimingPoints]
59,384.615384615385,4,2,2,47,1,0
17727,-100,4,1,1,41,0,0
30828,-100,4,1,1,45,0,1
43135,-100,4,1,1,42,0,0
49159,-100,4,1,1,0,0,0
49351,-100,4,1,1,43,0,0
67751,-100,4,1,1,49,0,1
80059,-100,4,1,2,39,0,0
86167,-100,4,2,2,44,0,0
87611,-100,4,2,2,27,0,0
87804,-100,4,2,2,41,0,0
89150,-100,4,2,2,23,0,0
89342,-100,4,2,2,38,0,0
90688,-100,4,2,2,20,0,0
90880,-100,4,2,2,39,0,0
94052,-100,4,2,2,31,0,0
94341,-100,4,2,2,24,0,0
94821,-100,4,2,2,18,0,0
95206,-100,4,2,2,44,0,0
97128,-100,4,2,2,31,0,0
97513,-100,4,2,2,21,0,0
97801,-100,4,2,2,13,0,0
98282,-100,4,2,2,43,0,0
100109,-100,4,2,2,32,0,0
100589,-100,4,2,2,21,0,0
100974,-100,4,2,2,16,0,0
101454,-100,4,2,2,42,0,0
103086,-100,4,1,2,35,0,0
104624,-100,4,2,2,45,0,0
110392,-100,4,1,2,39,0,0
110872,-100,4,2,2,38,0,0
116159,-100,4,1,2,34,0,0
116982,-100,4,1,1,44,0,1
129289,-100,4,1,2,38,0,0
141597,-100,4,1,1,43,0,1
151058,-100,4,1,1,34,0,1
151731,-100,4,1,1,45,0,1
152404,-100,4,1,1,55,0,1
153905,-100,4,1,2,41,0,0

[Colours]
Combo1 : 221,143,28
Combo2 : 91,96,130
Combo3 : 251,217,113
Combo4 : 190,16,12

[HitObjects]
160,80,6212,2,2,B|160:160,2,70,2|0|2
272,80,6982,1,0
360,152,7366,1,2
360,264,7751,1,0
264,328,8135,2,0,B|176:328,4,70,0|2|2|0|2
264,216,9289,6,2,B|264:144,2,70,2|0|2
168,160,10058,1,0
168,272,10443,1,2
256,344,10828,1,0
368,312,11212,2,0,B|440:312,4,70,0|2|2|0|2
256,344,12366,6,0,B|184:368|104:336,1,140,2|2
64,240,13135,1,0
112,136,13520,1,2
224,136,13905,1,0
320,192,14289,2,0,B|368:192|408:192,4,70,0|2|2|0|2
248,280,15443,6,0,B|248:376|160:376,1,140,2|2
72,320,16212,1,0
144,232,16597,1,2
48,168,16982,2,0,B|24:88,2,70,2|0|2
144,232,17751,2,0,B|176:160,4,70,0|0|0|0|4
256,232,18905,5,8
360,192,19289,1,2
416,192,19482,1,2
408,80,19866,2,0,B|368:56|320:56|296:104|296:136,1,140
296,120,20443,1,8
296,232,20828,2,2,B|296:328,1,70
184,304,21405,6,0,B|184:232,2,70,0|0|0
184,360,21982,1,8
80,328,22366,1,2
80,272,22559,1,2
168,128,23135,5,0
264,72,23520,1,8
360,128,23905,1,2
360,128,24097,1,2
360,128,24289,1,10
424,216,24674,6,0,B|368:296|272:264,1,140,0|8
368,176,25443,2,0,B|344:208|280:200,1,70,2|2
224,288,26020,6,0,B|136:288|72:248|72:248|48:192,1,210,0|8
48,144,26789,2,2,B|80:56|192:56|192:56|256:104|352:104,1,350,2|0
384,208,28135,6,0,B|408:256|376:296,1,70,2|8
344,312,28520,2,0,B|264:336|192:304|192:304|120:200,2,280,0|4|8
448,280,30443,1,8
448,168,30828,5,4
448,112,31020,1,8
448,56,31212,1,0
336,48,31597,2,2,B|240:48,1,70,2|10
208,144,32174,1,8
255,173,32366,2,0,B|351:189|335:277,2,140,0|8|2
208,200,33328,1,10
104,240,33712,6,0,B|128:168,2,70,8|0|8
88,296,34289,1,0
16,208,34674,2,0,B|8:120|64:64,1,140,0|8
96,48,35251,1,0
152,24,35443,1,0
264,24,35828,1,8
368,72,36212,1,2
416,104,36405,1,10
440,152,36597,1,2
376,248,36982,5,0
320,248,37174,2,0,B|248:248,4,70,8|0|8|2|10
312,128,38328,6,0,B|400:112|496:152|512:216,1,210
488,248,39097,2,0,B|460:367|264:384|168:352|168:352,1,350,10|0
144,248,40443,1,8
208,160,40828,2,0,B|320:160|360:88|360:88|472:144,2,280,0|8|0
152,160,42558,5,8
96,160,42751,2,0,B|24:160,2,70,0|8|4
256,192,43328,12,0,49289
72,40,55443,6,0,B|37:101|64:184,1,140,0|8
120,272,56212,2,2,B|200:272,1,70,2|2
296,304,56789,2,0,B|392:296,1,70
408,264,57174,2,0,B|432:192,1,70,0|8
336,144,57751,1,2
336,88,57943,1,2
232,48,58328,6,0,B|144:48,1,70,0|8
80,120,58905,1,0
80,176,59097,1,0
80,232,59289,1,10
80,288,59482,1,2
232,296,59866,6,8,B|328:296,1,70,0|8
416,288,60443,2,0,B|416:216,4,70,0|0|2|2|10
304,296,61597,6,0,B|208:304|176:248,1,140,0|8
136,144,62366,1,2
136,88,62558,1,2
240,48,62943,2,0,B|424:48|456:176|424:328|224:328,1,490,0|8
168,192,64866,6,0,B|112:248,2,70,0|8|0
224,184,65443,2,0,B|328:160|424:168|488:248,2,280,0|4|8
264,296,67366,1,8
376,296,67751,5,4
416,256,67943,1,8
432,200,68135,1,0
432,144,68328,1,8
416,88,68520,2,2,B|401:31|341:26,1,70,2|10
264,36,69097,1,8
264,148,69482,6,0,B|200:100,2,70,8|0|8
264,204,70058,1,2
264,260,70251,1,10
152,216,70635,6,0,B|96:160,5,70,8|0|8|0|8|2
64,128,71789,1,10
144,48,72174,6,0,B|216:48,1,70,8|0
272,48,72558,1,8
328,48,72751,2,0,B|408:48,1,70,0|8
456,48,73135,2,2,B|456:120,2,70,2|10|2
376,128,73905,6,0,B|264:200,2,70,0|8|0
376,184,74482,1,8
376,240,74674,1,2
376,296,74866,1,10
256,192,75251,12,0,76982
344,192,77558,2,0,B|440:192|440:112,2,140,8|8|8
288,192,78520,1,0
288,192,78712,2,0,B|208:192,1,70,8|0
160,192,79097,1,8
104,192,79289,2,0,B|32:192,4,70,0|8|0|8|4
48,296,86212,5,0
192,296,86597,1,8
336,296,86982,1,0
424,192,87366,2,0,B|424:112,2,70,8|0|4
296,144,88135,5,8
152,144,88520,1,0
48,232,88905,2,0,B|104:288,2,70,8|0|4
152,144,89674,5,8
296,144,90058,1,0
424,192,90443,1,8
424,192,90635,1,0
424,192,90828,1,4
384,328,91212,5,8
384,328,91405,1,0
248,328,91789,1,0
248,328,91982,1,8
136,224,92366,6,2,B|136:144,2,70,2|0|2
264,176,93135,1,8
408,176,93520,1,8
344,296,93905,5,4
216,232,94289,1,4
336,160,94674,1,4
344,296,95058,1,4
336,160,95443,6,2,B|336:88,2,70,2|0|2
192,160,96212,1,8
72,88,96597,1,8
72,224,96982,6,4,B|80:312|208:344,3,140
200,200,98520,6,2,B|200:128,2,70,2|0|2
344,200,99289,1,8
448,304,99674,1,8
472,168,100058,6,4,B|464:80|336:48,3,140
304,184,101597,6,2,B|304:272|304:280,2,70,2|0|2
160,184,102366,1,8
56,88,102751,1,8
184,48,103135,6,0,B|216:24,8,35,0|0|0|0|0|0|0|0|4
104,160,104674,5,0
128,208,104866,1,2
160,256,105058,1,0
192,304,105251,1,2
304,304,105635,1,8
304,304,105828,1,8
416,328,106212,6,0,B|416:240,1,70,0|2
416,200,106597,2,0,B|416:128,1,70,0|2
416,16,107174,1,8
416,16,107366,1,8
320,72,107751,6,2,B|256:104,3,70,2|0|2|0
160,152,108712,1,8
160,152,108905,1,8
160,264,109289,5,0
212,284,109482,1,2
264,304,109674,1,0
316,324,109866,1,2
432,320,110251,1,8
432,264,110443,2,0,B|352:264,1,70
360,208,110828,6,0,B|440:208,3,70,0|2|0|2
424,96,111789,1,8
424,96,111982,1,8
320,48,112366,5,0
264,56,112558,1,2
208,64,112751,1,0
152,72,112943,1,2
72,152,113328,2,8,B|72:240,1,70
144,304,113905,6,2,B|240:304|240:304,3,70,2|0|2|0
328,304,114866,1,8
328,304,115058,1,8
440,304,115443,6,0,B|440:232,1,70,0|2
440,176,115828,2,0,B|440:104,1,70,0|2
440,48,116212,2,0,B|336:48,1,70
312,48,116597,2,0,B|272:48,4,35,0|0|0|0|4
200,72,117366,5,8
96,112,117751,2,0,B|144:248|144:248|272:296,1,280,0|4
384,320,118905,1,8
456,232,119289,2,0,B|408:96|408:96|280:48,1,280,0|4
168,64,120443,1,0
128,104,120635,2,0,B|96:168|120:232|232:240,1,210,8|0
304,320,121597,6,0,B|400:360|480:320|488:240,1,210,4|8
480,208,122366,2,0,B|384:168|304:208|296:288,1,210,0|8
256,296,123135,6,0,B|144:328|72:304|48:168,3,280,4|8|4|8
160,168,125828,1,8
160,56,126212,2,0,B|276:45|342:83|339:221,1,280,4|8
416,296,127366,5,0
360,296,127558,1,0
304,296,127751,2,0,B|184:296|128:192,2,210,8|8|8
416,296,129289,1,4
64,168,141597,6,0,B|120:32|304:32,2,280,4|8|4
288,176,143905,2,0,B|232:312|48:312,2,280,8|4|8
392,128,145828,1,0
304,64,146212,1,0
192,64,146597,2,0,B|128:8|63:62,2,140,8|0|8
128,160,147751,6,0,B|80:328|304:344,1,280,4|8
456,208,149289,2,0,B|504:40|280:24,2,280,4|4|4
360,264,151212,5,8
304,264,151405,1,0
248,264,151597,1,0
168,192,151982,1,8
168,80,152366,1,0
280,80,152751,2,0,B|368:80|368:192,2,140,8|0|8
280,80,153905,1,4
