osu file format v9

[General]
AudioFilename: [17] Extend Ash ~ Houraijin.mp3
AudioLeadIn: 0
PreviewTime: 55437
Countdown: 0
SampleSet: Soft
StackLeniency: 0.4
Mode: 0
LetterboxInBreaks: 1

[Editor]
DistanceSpacing: 1.5
BeatDivisor: 4
GridSize: 8

[Metadata]
Title:Extend Ash ~ Hourai Victim
Artist:ZUN
Creator:Tenshi-nyan
Version:Lunatic
Source:Touhou
Tags:Fujiwara no Mokou Keine Kamishirasawa Phoenix extra stage 0989596108 Imperishable Night

[Difficulty]
HPDrainRate:7
CircleSize:4
OverallDifficulty:8
ApproachRate:8
SliderMultiplier:1.6
SliderTickRate:1

[Events]
//Background and Video events
0,0,"konachancom90082bootsdr.jpg"
//Break Periods
2,49489,53155
2,80258,85462
2,129489,140847
//Storyboard Layer 0 (Background)
//Storyboard Layer 1 (Fail)
//Storyboard Layer 2 (Pass)
//Storyboard Layer 3 (Foreground)
//Storyboard Sound Samples
//Background Colour Transformations
3,100,163,162,255

[TimingPoints]
59,384.615384615385,4,2,1,49,1,0
6861,-100,4,2,1,34,0,0
7438,-100,4,2,1,41,0,0
7943,-100,4,2,1,57,0,0
9937,-100,4,2,1,41,0,0
10562,-100,4,2,1,50,0,0
11169,-100,4,2,1,60,0,0
13013,-100,4,2,1,45,0,0
13520,-100,4,2,1,41,0,0
14001,-100,4,2,1,61,0,0
16089,-100,4,2,1,44,0,0
16762,-100,4,2,1,58,0,0
17727,-100,4,1,1,41,0,0
18589,-100,4,1,1,43,0,0
30828,-100,4,1,1,45,0,1
42381,-100,4,1,1,41,0,1
43135,-100,4,1,1,42,0,0
49207,-100,4,1,1,0,0,0
53773,-100,4,1,1,30,0,0
54254,-100,4,1,1,36,0,0
54638,-100,4,1,1,45,0,0
55155,-100,4,1,1,51,0,0
67751,-100,4,1,1,49,0,1
80059,-100,4,1,1,42,0,0
86167,-100,4,2,2,41,0,0
87611,-100,4,2,2,21,0,0
87804,-100,4,2,2,40,0,0
89150,-100,4,2,2,23,0,0
89342,-100,4,2,2,40,0,0
90688,-100,4,2,2,22,0,0
90880,-100,4,2,2,39,0,0
94052,-100,4,2,2,32,0,0
94437,-100,4,2,2,22,0,0
94821,-100,4,2,2,15,0,0
95206,-100,4,2,2,41,0,0
100205,-100,4,2,2,29,0,0
100589,-100,4,2,2,21,0,0
100974,-100,4,2,2,13,0,0
101358,-100,4,2,2,40,0,0
103086,-100,4,1,1,25,0,0
103281,-100,4,1,1,31,0,0
103473,-100,4,1,1,35,0,0
103712,-100,4,1,1,41,0,0
103954,-100,4,1,1,46,0,0
104624,-100,4,2,2,49,0,0
110392,-100,4,1,1,42,0,0
110872,-100,4,2,2,49,0,0
116159,-100,4,1,1,42,0,0
116982,-100,4,1,1,44,0,1
129289,-100,4,1,1,42,0,0
141597,-100,4,1,1,56,0,1
151116,-100,4,1,1,31,0,1
151631,-100,4,1,1,39,0,1
152015,-100,4,1,1,46,0,1
152688,-100,4,1,1,52,0,1
153905,-100,4,1,0,42,0,0

[Colours]
Combo1 : 221,143,28
Combo2 : 91,96,130
Combo3 : 251,217,113
Combo4 : 190,16,12

[HitObjects]
40,120,6212,2,2,B|40:168,2,40
104,64,6597,1,0
168,120,6789,1,2
232,64,6982,5,2
256,80,7078,1,0
272,104,7174,1,0
272,136,7270,1,0
256,160,7366,1,2
232,184,7462,1,0
216,208,7558,1,0
224,240,7655,1,0
240,272,7751,5,2
264,296,7847,1,0
296,312,7943,1,0
328,312,8039,1,0
360,304,8135,1,2
424,264,8328,1,0
424,184,8520,5,2
416,144,8616,1,0
384,120,8712,1,2
344,112,8808,1,0
304,120,8905,1,2
224,152,9097,1,0
144,112,9289,6,2,B|144:64,2,40
112,184,9674,1,0
32,184,9866,1,2
32,104,10058,6,0,B|32:48,3,40,2|0|0|0
72,104,10443,2,0,B|96:72,3,40,2|0|0|0
72,144,10828,2,0,B|128:144,3,40,2|0|0|0
152,144,11212,1,2
192,216,11405,5,0
232,144,11597,1,2
256,112,11693,1,0
288,88,11789,1,2
328,80,11885,1,0
368,88,11982,1,2
448,104,12174,1,0
464,184,12366,5,2
472,224,12462,1,2
464,264,12558,1,2
392,296,12751,2,0,B|320:336,1,80,0|2
240,328,13135,5,2
200,320,13232,1,0
168,296,13328,1,0
152,264,13424,1,0
144,224,13520,1,2
136,184,13616,1,0
144,144,13712,1,0
160,104,13808,1,0
184,72,13905,5,2
216,56,14001,1,0
256,40,14097,1,0
296,40,14193,1,0
336,48,14289,1,2
384,112,14482,1,0
344,184,14674,2,0,B|384:240,4,40,2|0|2|0|2
264,192,15251,1,0
192,256,15443,5,2
192,256,15539,1,2
192,256,15635,1,2
112,256,15828,1,0
32,240,16020,1,2
64,168,16212,6,0,B|120:120|96:128,3,40,2|0|0|0
40,144,16597,2,0,B|8:112,8,40,2|0|0|0|2|0|0|0|2
80,72,17558,1,0
184,88,17751,5,0
184,88,17847,1,0
184,88,17943,1,0
184,88,18039,1,0
184,88,18135,1,0
184,88,18232,1,0
184,88,18328,1,0
184,88,18424,1,0
184,88,18520,1,4
288,72,18712,6,0,B|368:72,1,80,0|8
432,176,19097,1,0
368,280,19289,2,2,B|272:280,1,80
288,160,19674,1,8
184,96,19866,6,0,B|184:184,1,80
184,296,20251,1,0
184,296,20347,1,0
184,296,20443,1,8
80,232,20635,1,0
184,176,20828,1,2
184,296,21020,1,2
288,232,21212,1,8
400,288,21405,5,0
448,176,21597,1,0
384,80,21789,1,0
384,80,21885,1,0
384,80,21982,1,8
264,80,22174,1,0
144,80,22366,1,2
144,80,22559,1,2
96,192,22751,1,8
144,304,22943,5,0
264,320,23135,1,0
376,280,23328,2,0,B|408:320,2,40,0|0|8
368,160,23712,5,0
256,208,23905,1,2
368,160,24097,1,2
256,208,24289,1,10
136,208,24482,5,0
136,208,24578,1,0
136,208,24674,2,0,B|104:128,1,80,0|0
200,56,25059,1,8
320,56,25251,1,0
408,136,25443,2,2,B|360:216,1,80
256,256,25828,1,8
136,256,26020,6,0,B|48:208|48:120,1,160
168,144,26597,1,8
96,48,26789,2,2,B|192:24|288:56|376:136|376:272,1,400,2|0
280,328,27943,5,2
160,304,28135,1,10
80,208,28328,1,2
80,88,28520,2,0,B|152:48|224:48|224:184|280:184|392:120,2,320,0|4|8
80,312,30443,1,8
120,72,30828,5,4
120,192,31020,1,8
224,128,31212,1,0
104,128,31405,1,8
207,188,31597,1,2
204,65,31789,1,10
440,88,32174,5,8
320,88,32366,1,0
384,192,32559,1,8
384,72,32751,1,0
320,176,32943,1,8
440,176,33135,1,2
384,72,33328,1,10
304,296,33712,6,0,B|328:216,2,80,8|0|8
304,296,34289,1,0
184,272,34482,1,8
104,184,34674,2,2,B|176:136,1,80,2|10
416,192,35251,5,8
416,192,35347,1,0
416,192,35443,1,0
296,192,35635,1,8
360,88,35828,1,0
416,192,36020,1,8
304,152,36212,1,2
384,64,36405,1,10
448,168,36597,1,2
24,344,36982,6,0,B|56:264,1,80,0|8
136,184,37366,1,0
128,64,37559,1,8
24,128,37751,1,2
24,128,37847,1,2
24,128,37943,1,10
128,64,38135,1,0
248,64,38328,6,0,B|336:48|432:88|456:168,1,240,8|0
400,272,39097,2,2,B|272:312|208:256|128:168|128:56,1,400,10|0
248,48,40251,1,8
360,88,40443,1,0
416,192,40635,5,8
416,312,40828,2,8,B|416:352,1,40,0|8
296,312,41116,1,8
296,312,41212,1,0
296,312,41405,1,8
176,312,41597,5,0
128,320,41693,1,0
80,312,41789,1,8
40,224,41982,5,0
32,176,42078,1,0
40,128,42174,1,8
120,72,42366,5,0
168,64,42462,1,0
216,72,42558,1,8
256,104,42655,1,0
272,152,42751,1,0
264,200,42847,1,0
248,248,42943,1,8
200,264,43039,1,0
152,264,43135,1,4
256,192,43232,12,0,49289
272,176,53905,6,0,B|272:200,32,20,0|0|0|0|0|0|0|0|0|0|0|0|0|0|0|0|0|0|0|0|0|0|0|0|0|0|0|0|0|0|0|0|0
272,48,55635,5,0
272,48,55828,2,0,B|272:152,1,80,8|0
272,272,56212,2,2,B|272:192,1,80
152,192,56597,1,8
32,192,56789,5,0
152,192,56982,1,0
152,72,57174,1,0
152,192,57366,1,8
272,192,57558,1,0
152,192,57751,1,2
152,312,57943,1,2
264,360,58135,1,8
376,312,58328,5,0
424,200,58520,1,0
376,88,58712,1,0
376,88,58808,1,0
376,88,58905,1,8
256,88,59097,2,0,B|168:88,1,80,0|2
176,88,59482,1,2
64,88,59674,1,8
64,240,59866,5,0
160,176,60058,2,0,B|208:240,1,80,0|0
336,240,60443,2,0,B|288:176,1,80,8|0
336,64,60828,2,2,B|408:144,1,80,2|2
388,121,61212,1,10
440,232,61405,5,0
440,232,61501,1,0
440,232,61597,2,0,B|440:312,2,80,0|0|8
320,232,62174,2,0,B|216:232,2,80,0|2|2
280,120,62751,1,8
368,40,62943,5,0
368,40,63135,2,0,B|264:8|184:96|184:96|72:48|64:40,2,320,0|8|0
304,168,64866,6,0,B|400:136,2,80,0|8|0
232,288,65443,2,0,B|336:312|432:304|496:224|512:192,2,320,0|4|8
152,192,67366,1,8
360,64,67751,5,4
360,184,67943,1,8
248,120,68135,1,0
464,120,68328,1,8
248,120,68520,2,2,B|136:120,1,80,2|10
24,312,69097,1,8
24,48,69482,6,0,B|96:120,1,80,8|0
160,192,69866,1,8
208,304,70058,1,2
256,192,70251,1,10
448,120,70635,5,8
448,120,70732,1,0
448,120,70828,1,0
328,32,71020,1,8
328,192,71212,1,0
328,32,71405,2,0,B|232:32,1,80,8|2
152,112,71789,1,10
64,296,72174,6,0,B|128:256,2,40,8|0|0
184,296,72558,1,8
304,296,72751,1,0
400,224,72943,1,8
400,104,73135,2,2,B|304:104,2,80,2|10|2
160,40,73905,6,0,B|96:112,1,80,0|8
32,192,74289,1,0
104,296,74482,1,8
107,101,74674,1,2
104,296,74866,1,10
256,192,75251,12,0,76982
256,96,77174,5,8
256,96,77366,1,0
376,96,77558,2,0,B|496:112|496:328|352:344,1,320,8|8
264,320,78520,5,0
216,312,78616,1,0
171,290,78712,1,8
120,200,78905,5,0
136,152,79001,1,0
172,120,79097,1,8
272,72,79289,5,0
320,64,79385,1,0
368,72,79482,1,8
400,104,79578,1,0
432,144,79674,1,0
432,192,79770,1,0
416,240,79866,1,8
384,280,79962,1,0
336,296,80058,1,4
80,312,86212,5,0
152,64,86597,1,8
208,312,86982,1,0
296,72,87366,1,8
344,192,87558,1,0
400,304,87751,1,4
296,72,88135,5,8
208,312,88520,1,0
96,80,88905,1,8
152,192,89097,1,0
208,312,89289,1,4
456,312,89674,2,0,B|456:144,1,160,8|0
256,56,90443,5,8
256,184,90635,1,0
256,312,90828,1,4
456,192,91212,1,8
456,192,91405,1,0
48,192,91789,1,0
48,192,91982,1,8
80,56,92366,5,2
80,56,92462,1,2
80,56,92558,1,2
216,56,92751,2,0,B|304:56,1,80,0|2
352,184,93135,2,0,B|352:280,1,80,0|2
216,264,93520,2,0,B|128:264,1,80,0|2
16,192,93905,5,4
256,32,94289,1,4
496,192,94674,1,4
256,352,95058,1,4
368,200,95443,5,2
368,152,95539,1,2
368,104,95635,1,2
248,48,95828,2,0,B|144:48,1,80,0|2
88,160,96212,2,0,B|88:248,1,80,0|2
224,240,96597,2,0,B|328:240,1,80,0|2
168,328,96982,5,4
424,192,97366,1,8
424,192,97558,1,0
40,192,97943,1,0
40,192,98135,1,8
256,192,98520,5,2
256,192,98616,1,2
256,192,98712,1,2
256,56,98905,1,0
376,120,99097,1,2
256,56,99289,1,0
136,120,99482,1,2
256,56,99674,1,0
376,120,99866,1,2
256,56,100058,5,4
256,328,100443,1,4
256,56,100828,1,4
256,328,101212,1,4
456,272,101597,6,2,B|384:272,2,40
416,144,101982,2,0,B|416:48,1,80,0|2
280,56,102366,2,0,B|176:56,1,80,0|2
64,88,102751,1,0
64,224,102943,1,0
168,312,103135,6,0,B|168:344,16,20,0|0|0|0|0|0|0|0|0|0|0|0|0|0|0|0|0
304,304,104097,2,0,B|408:304,2,80
184,240,104674,5,0
248,120,104866,1,2
320,240,105058,1,0
376,120,105251,1,2
104,168,105635,1,8
104,168,105828,1,8
352,304,106212,6,0,B|264:304,1,80,0|2
104,168,106597,2,0,B|184:168,1,80,0|2
456,184,107174,1,8
456,184,107366,1,8
152,280,107751,6,2,B|152:176,2,80,0|2|0
280,240,108328,1,2
280,240,108520,1,8
400,304,108712,1,0
400,168,108905,1,8
88,160,109289,5,0
144,40,109482,1,2
200,160,109674,1,0
248,40,109866,1,2
384,320,110251,5,8
384,184,110443,1,0
384,184,110539,1,0
384,184,110635,1,0
384,184,110732,1,0
384,184,110828,1,0
240,192,111020,5,2
168,80,111212,1,0
96,192,111405,1,2
344,80,111789,1,8
344,80,111982,1,8
72,104,112366,5,0
72,272,112558,1,2
72,104,112751,1,0
72,272,112943,1,2
336,192,113328,2,8,B|432:192,1,80
144,328,113905,6,2,B|240:328,2,80,0|2|0
144,208,114482,1,2
56,120,114674,1,8
144,32,114866,1,0
232,120,115058,1,8
144,328,115443,6,0,B|248:328,1,80,0|2
256,208,115828,2,0,B|336:208,1,80,0|2
456,208,116212,1,8
456,328,116405,1,8
408,328,116501,1,0
360,328,116597,2,0,B|328:328,8,20,0|0|0|0|0|0|0|0|4
232,344,117174,5,8
120,312,117366,1,0
64,208,117558,1,8
96,96,117751,1,0
96,96,117847,1,8
192,168,118039,1,8
192,168,118135,1,0
192,48,118328,5,8
280,128,118520,1,4
288,8,118712,1,8
376,96,118905,1,0
456,192,119097,2,0,B|456:280,1,80,8|0
456,328,119385,1,8
336,328,119578,1,8
336,328,119674,1,0
264,232,119866,5,8
196,328,120058,1,4
196,328,120251,1,8
76,328,120443,2,0,B|76:232,1,80,0|8
88,128,120828,1,0
128,112,120924,1,8
208,64,121116,1,8
248,48,121212,1,0
368,40,121405,5,8
456,120,121597,2,0,B|488:192|408:320|320:320,1,240,4|8
232,312,122366,2,0,B|200:240|280:112|368:112,1,240,0|8
456,120,123135,5,4
456,120,123328,1,8
336,120,123520,1,0
216,120,123712,2,0,B|152:168|152:168,1,80,8|0
104,200,124001,1,8
40,296,124193,1,8
40,296,124289,1,0
160,296,124482,5,8
264,232,124674,1,4
264,352,124866,1,8
368,296,125058,1,0
488,296,125251,2,0,B|488:208,1,80,8|0
488,160,125539,1,8
416,64,125732,1,8
416,64,125828,1,0
356,160,126020,5,8
296,64,126212,1,4
176,64,126405,2,0,B|120:128,2,80,8|0|8
240,136,126982,1,0
240,184,127078,1,8
240,280,127270,1,8
240,328,127366,1,0
120,304,127558,1,8
72,184,127751,5,0
128,80,127943,1,8
232,24,128135,1,0
336,80,128328,1,8
400,184,128520,1,8
400,232,128616,1,0
384,280,128713,1,8
352,312,128809,1,0
312,336,128905,1,8
192,128,129289,5,4
48,224,141597,6,0,B|24:104|104:40|256:40,2,320,4|8|4
144,296,143328,1,8
248,360,143520,1,0
248,240,143712,1,8
352,296,143905,1,0
400,296,144001,1,8
480,208,144193,2,0,B|480:144,1,40,8|0
384,104,144482,5,8
296,184,144674,1,4
224,88,144866,1,8
152,184,145059,1,0
88,280,145251,1,8
192,344,145443,1,0
240,344,145539,1,8
360,344,145732,1,8
408,344,145828,1,0
472,240,146020,5,8
416,136,146212,1,4
296,136,146405,1,8
228,232,146597,1,0
148,320,146789,1,8
76,224,146982,1,0
76,224,147078,1,8
148,128,147270,1,8
148,128,147366,1,0
228,40,147558,5,8
228,40,147751,1,4
312,124,147943,1,8
392,212,148135,1,0
312,300,148327,2,0,B|216:300,1,80,8|0
184,300,148616,1,8
68,264,148808,1,8
68,264,148904,1,0
44,144,149097,5,8
160,120,149289,1,4
280,120,149482,1,8
220,224,149674,1,0
224,104,149866,1,8
280,208,150059,1,0
280,208,150155,1,8
160,208,150347,1,8
160,208,150443,1,0
84,116,150635,5,8
164,28,150828,1,4
252,112,151020,1,8
368,80,151212,5,0
376,115,151308,1,0
361,148,151405,1,0
331,161,151501,1,0
304,178,151597,1,0
286,208,151693,1,0
281,239,151789,1,0
289,268,151885,1,0
309,292,151982,1,0
338,310,152078,1,0
372,314,152174,1,0
404,308,152270,1,0
435,304,152366,2,0,B|464:290,32,20,0|0|0|0|0|0|0|0|0|0|0|0|0|0|0|0|0|0|0|0|0|0|0|0|0|0|0|0|0|0|0|0|4
