osu file format v9

[General]
AudioFilename: [17] Extend Ash ~ Houraijin.mp3
AudioLeadIn: 0
PreviewTime: 55437
Countdown: 0
SampleSet: Soft
StackLeniency: 0.7
Mode: 0
LetterboxInBreaks: 1

[Editor]
Bookmarks: 98547,98687
DistanceSpacing: 1.1
BeatDivisor: 4
GridSize: 8

[Metadata]
Title:Extend Ash ~ Hourai Victim
Artist:ZUN
Creator:Tenshi-nyan
Version:Hard
Source:Touhou
Tags:Fujiwara no Mokou Keine Kamishirasawa Phoenix extra stage 0989596108 Imperishable Night

[Difficulty]
HPDrainRate:5
CircleSize:4
OverallDifficulty:6
ApproachRate:7
SliderMultiplier:1.6
SliderTickRate:1

[Events]
//Background and Video events
0,0,"konachancom90082bootsdr.jpg"
//Break Periods
2,49489,54543
2,80258,85312
2,129489,140697
//Storyboard Layer 0 (Background)
//Storyboard Layer 1 (Fail)
//Storyboard Layer 2 (Pass)
//Storyboard Layer 3 (Foreground)
//Storyboard Sound Samples
//Background Colour Transformations
3,100,163,162,255

[TimingPoints]
59,384.615384615385,4,2,2,52,1,0
17727,-100,4,1,1,45,0,0
30828,-100,4,1,1,47,0,1
43135,-100,4,1,1,46,0,0
49188,-100,4,1,1,0,0,0
49351,-100,4,1,1,45,0,0
67751,-100,4,1,1,47,0,1
80059,-100,4,1,1,45,0,0
86167,-100,4,2,2,41,0,0
87611,-100,4,2,2,21,0,0
87804,-100,4,2,2,38,0,0
89150,-100,4,2,2,27,0,0
89342,-100,4,2,2,38,0,0
90688,-100,4,2,2,19,0,0
90880,-100,4,2,2,38,0,0
93956,-100,4,2,2,29,0,0
94437,-100,4,2,2,23,0,0
94725,-100,4,2,2,15,0,0
95174,-100,4,2,2,45,0,0
97128,-100,4,2,2,33,0,0
97513,-100,4,2,2,24,0,0
97898,-100,4,2,2,16,0,0
98378,-100,4,2,2,39,0,0
100109,-100,4,2,2,27,0,0
100493,-100,4,2,2,20,0,0
100878,-100,4,2,2,15,0,0
101454,-100,4,2,2,42,0,0
103086,-100,4,1,2,40,0,0
104624,-100,4,2,2,41,0,0
110443,-100,4,1,2,38,0,0
110872,-100,4,2,2,39,0,0
116212,-100,4,1,1,41,0,0
116982,-100,4,1,1,47,0,1
129289,-100,4,1,2,42,0,0
141597,-100,4,1,1,51,0,1
151170,-100,4,1,2,31,0,1
151651,-100,4,1,2,44,0,1
152035,-100,4,1,2,55,0,1
152708,-100,4,1,2,65,0,1
153246,-100,4,1,2,61,0,1
153912,-100,4,1,2,52,0,0

[Colours]
Combo1 : 221,143,28
Combo2 : 91,96,130
Combo3 : 251,217,113
Combo4 : 190,16,12

[HitObjects]
80,56,6212,2,2,B|136:56,2,40
80,136,6597,2,0,B|80:224,1,80,0|2
160,216,6982,2,0,B|256:216,1,80,0|2
320,216,7366,2,0,B|320:312,1,80,0|2
240,296,7751,2,0,B|152:296|152:296|152:304,1,80,0|2
88,256,8135,2,2,B|64:296|88:336,3,80,0|2|2|0
85,332,8905,1,2
168,328,9097,1,0
264,216,9289,6,2,B|264:168,2,40
184,216,9674,2,0,B|184:128,1,80,0|2
184,56,10059,2,0,B|296:56,1,80,0|2
344,56,10443,2,0,B|344:136,1,80,0|2
344,216,10828,2,0,B|344:312,1,80,0|2
272,336,11212,2,2,B|232:312|192:336,3,80,0|2|2|0
198,333,11982,1,2
112,336,12174,1,0
80,192,12366,5,2
80,192,12462,1,2
80,192,12559,1,2
136,128,12751,2,0,B|184:64,1,80,0|2
248,16,13135,2,0,B|336:88,1,80,0|2
368,120,13520,2,0,B|440:184,1,80,0|2
360,216,13905,2,0,B|424:280,1,80,0|2
496,280,14289,2,2,B|520:320|496:360,3,80,0|2|2|0
499,355,15058,1,2
416,352,15251,1,0
284,320,15443,6,2,B|228:320,2,40
248,248,15828,2,0,B|160:248,1,80,0|2
200,176,16212,2,0,B|103:176,1,80,0|2
152,104,16597,2,0,B|64:104,1,80,0|2
0,104,16982,5,0
8,184,17174,1,2
40,256,17366,1,0
112,288,17559,1,2
192,288,17751,2,0,B|192:224,8,40,0|0|0|0|0|0|0|0|4
280,304,18712,6,0,B|360:312,1,80,0|8
448,312,19097,1,0
440,224,19289,2,2,B|416:136,1,80
224,208,19866,6,0,B|264:192|304:208,2,80
264,288,20443,1,8
264,288,20635,1,0
224,368,20828,2,2,B|264:384|304:368,1,80
480,360,21405,6,0,B|480:256,1,80,0|0
480,192,21789,1,0
480,192,21982,1,8
480,104,22174,2,0,B|368:104,2,80,0|2|2
312,48,22943,5,0
232,8,23135,1,0
152,48,23328,1,0
160,136,23520,2,0,B|112:216,2,80,8|0|2
232,88,24097,1,2
312,128,24289,1,10
96,296,24674,6,0,B|96:216,1,80
96,128,25059,1,8
136,48,25251,1,0
224,48,25443,2,2,B|320:48,1,80
216,208,26020,6,0,B|96:216|96:104,1,160,0|0
136,48,26597,1,8
224,48,26789,2,2,B|340:48|403:110|420:188|403:281|340:344|216:344,1,480,0|0
156,320,28135,5,10
92,256,28328,1,2
48,176,28520,2,0,B|39:83|115:66|182:66|254:85|245:184,2,320,0|4|8
48,176,30443,1,8
48,176,30828,5,4
48,264,31020,2,0,B|136:304,1,80,8|0
208,304,31405,2,0,B|320:304,1,80,8|2
376,304,31789,1,10
376,112,32174,5,8
312,56,32366,1,0
224,32,32559,2,0,B|152:112,1,80,8|0
256,112,32943,2,0,B|280:200,2,80,8|2|10
408,216,33712,6,0,B|376:304,2,80,8|0|8
320,208,34289,1,0
320,208,34482,1,8
232,208,34674,2,2,B|192:280,1,80,2|10
152,104,35251,6,0,B|56:104,2,80,8|0|8
224,160,35828,1,0
296,104,36020,2,0,B|376:104,2,80,8|2|10
224,160,36597,1,2
360,280,36982,6,0,B|272:336,1,80,0|8
216,360,37366,1,0
128,360,37559,1,8
96,280,37751,2,2,B|64:208,1,80,2|10
208,48,38328,6,0,B|296:32|392:72|416:152,1,240,8|0
392,224,39097,2,2,B|208:328|72:112|88:56,1,400,2|0
168,32,40251,1,8
256,24,40443,1,0
336,48,40635,2,0,B|472:120|496:272|400:328,1,320,8|8
336,312,41597,5,0
336,312,41789,1,8
256,272,41982,1,0
256,272,42174,1,8
240,184,42366,2,0,B|312:184,8,40,0|0|8|0|0|0|8|0|4
256,192,43232,12,0,49289
256,136,55443,6,0,B|256:24,1,80
256,136,55828,2,0,B|168:176,1,80,8|0
256,136,56212,2,2,B|344:184,1,80
176,296,56789,6,0,B|104:352,2,80
256,256,57366,1,8
336,296,57558,2,0,B|408:352,2,80,0|2|2
200,56,58328,6,0,B|104:56,1,80
32,56,58712,1,0
32,144,58905,2,0,B|112:144,2,80,8|0|2
32,232,59482,1,2
184,320,59866,6,0,B|240:256,1,80
288,328,60251,1,0
376,328,60443,2,0,B|424:264,4,80,8|0|2|2|10
152,232,61597,6,0,B|232:232,3,80,0|0|8|0
248,320,62366,2,2,B|328:320,1,80
464,200,62943,2,0,B|496:56|312:-24|256:144|256:144|200:-24|8:56|48:200,1,720,2|0
136,200,64866,6,0,B|248:200,2,80,0|8|0
112,288,65443,2,0,B|216:312|312:304|376:224|392:192,2,320,0|4|8
112,288,67366,1,8
112,288,67751,5,4
56,360,67943,1,8
0,288,68135,1,0
56,216,68328,1,8
56,216,68520,2,2,B|56:136,1,80,2|10
208,144,69097,6,0,B|312:144,1,80,8|0
376,144,69482,2,0,B|416:240,1,80,8|0
424,304,69866,1,8
352,352,70058,1,2
264,352,70251,1,10
96,344,70635,6,0,B|24:296,2,80,8|0|8
120,256,71212,1,0
136,168,71405,2,0,B|40:104,1,80,8|2
68,124,71789,1,10
232,48,72174,6,0,B|328:48,1,80,8|0
352,128,72558,1,8
296,200,72751,1,0
320,288,72943,1,8
248,344,73135,2,2,B|152:344,2,80,2|10|2
80,296,73905,6,0,B|104:216,1,80,0|8
128,136,74289,1,0
152,56,74482,1,8
240,56,74674,2,2,B|336:56,1,80,2|10
256,192,75251,12,0,76982
192,96,77174,6,0,B|104:96,2,80,8|0|8
280,96,77751,2,0,B|384:96|384:96|464:144|416:248,1,240,0|8
368,280,78520,5,0
368,280,78712,1,8
280,280,78905,1,0
208,224,79097,1,8
144,160,79289,2,0,B|96:160,8,40,0|0|8|0|0|0|8|0|4
32,288,86212,5,0
184,200,86597,1,8
336,288,86982,1,0
368,120,87366,1,8
296,176,87558,1,0
280,88,87751,1,4
48,112,88135,5,8
168,240,88520,1,0
288,112,88905,1,8
360,168,89097,1,0
376,80,89289,1,4
172,62,89674,6,0,B|-4:62,1,160,8|0
16,240,90443,1,8
104,240,90635,1,0
192,240,90828,1,4
368,240,91212,5,8
368,240,91405,1,0
368,64,91789,1,0
368,64,91982,1,8
248,192,92366,6,2,B|208:192,2,40
248,104,92751,2,0,B|144:104,1,80,0|2
80,104,93135,2,0,B|80:184,1,80,0|2
80,272,93520,2,0,B|80:368,1,80,0|2
168,352,93905,5,4
392,352,94289,1,4
392,128,94674,1,4
168,128,95058,1,4
344,264,95443,5,2
344,264,95539,1,2
344,264,95635,1,2
344,176,95828,2,0,B|344:80,1,80,0|2
344,8,96212,2,0,B|248:8,1,80,0|2
176,8,96597,2,0,B|176:96,1,80,0|2
176,176,96982,5,4
304,360,97366,1,4
432,176,97751,1,4
296,8,98135,1,4
176,176,98520,6,2,B|248:176,2,40
176,88,98905,1,0
264,88,99097,1,2
352,88,99289,1,0
440,88,99482,2,0,B|440:176,1,80,2|0
440,256,99866,1,2
352,256,100058,5,4
192,104,100443,1,4
72,296,100828,1,4
192,104,101212,1,4
184,336,101597,6,2,B|112:336,2,40
272,336,101982,2,0,B|312:256,1,80,0|2
304,176,102366,2,0,B|248:104,1,80,0|2
192,56,102751,1,0
104,56,102943,1,2
16,56,103135,2,0,B|16:88,12,20
104,56,103905,5,0
104,56,104097,2,0,B|208:56,2,80
96,152,104674,1,0
152,216,104866,1,2
216,280,105058,1,0
288,336,105251,1,2
288,160,105635,1,8
288,160,105828,1,8
376,312,106212,6,0,B|288:312,1,80,0|2
256,232,106597,2,0,B|336:232,1,80,0|2
488,152,107174,1,8
488,152,107366,1,8
312,144,107751,6,2,B|312:32,3,80,0|2|0|2
184,184,108712,1,8
184,96,108905,1,8
72,232,109289,5,0
144,280,109482,1,2
232,288,109674,1,0
320,288,109866,1,2
200,152,110251,1,8
200,64,110443,2,0,B|144:64,4,40,0|0|0|0|0
288,64,111020,6,0,B|376:64,2,80,2|0|2
328,232,111789,1,8
328,232,111982,1,8
160,280,112366,5,0
160,192,112558,1,2
160,104,112751,1,0
160,16,112943,1,2
336,16,113328,2,8,B|336:104,1,80
280,264,113905,6,2,B|376:264,3,80,0|2|0|2
352,88,114866,1,8
352,88,115058,1,8
176,64,115443,6,0,B|96:144,1,80,0|2
208,136,115828,2,0,B|128:216,1,80,0|2
104,264,116212,1,8
104,264,116405,1,8
132,348,116597,2,8,B|108:372,8,20,0|0|0|0|0|0|0|0|4
192,280,117174,5,8
280,280,117366,1,0
280,192,117558,1,8
280,104,117751,2,8,B|280:56,1,40,0|8
368,64,118039,2,8,B|424:64,1,40,8|0
408,152,118328,5,8
408,152,118520,1,4
408,240,118712,1,8
408,328,118905,1,0
320,328,119097,2,0,B|240:328,1,80,8|0
200,328,119385,1,8
112,328,119578,2,8,B|72:328,1,40,8|0
112,248,119866,5,8
40,200,120058,1,4
112,144,120251,1,8
40,96,120443,1,0
104,32,120635,2,0,B|216:32,1,80,8|0
232,32,120924,1,8
240,120,121116,2,8,B|304:120,1,40,8|0
288,208,121405,5,8
288,296,121597,2,0,B|440:296|440:152,1,240,4|8
440,64,122366,2,0,B|288:64|288:208,1,240,0|8
288,296,123135,5,4
216,352,123328,1,8
128,352,123520,1,0
56,296,123712,1,8
56,208,123905,2,8,B|56:160|56:152,1,40,0|8
56,80,124193,2,8,B|56:32,1,40,8|0
136,80,124482,5,8
208,32,124674,1,4
208,120,124866,1,8
280,80,125058,1,0
368,88,125251,2,0,B|368:176,1,80,8|0
368,208,125539,1,8
368,296,125732,2,8,B|320:296,1,40,8|0
240,296,126020,5,8
240,208,126212,1,4
240,120,126405,2,0,B|160:120,1,80,8|0
72,120,126789,2,0,B|72:208,1,80,8|0
72,248,127078,1,8
128,312,127270,2,0,B|184:312,1,40,8|0
240,256,127558,5,8
240,168,127751,2,0,B|242:22|426:22|424:176,2,320,4|8|4
240,48,141597,6,0,B|0:24|64:264,2,320,4|8|4
312,96,143328,1,8
232,136,143520,1,0
304,184,143712,1,8
224,216,143905,2,0,B|192:248,1,40,0|8
256,312,144193,2,0,B|288:280,1,40,8|0
376,272,144482,6,0,B|456:272,2,80,8|4|8
288,272,145059,1,0
208,304,145251,1,8
120,304,145443,2,0,B|72:304,1,40,0|8
40,224,145732,2,0,B|104:224,1,40,8|0
168,224,146020,5,8
256,224,146212,1,4
208,144,146405,2,0,B|208:64,2,80,8|0|8
168,224,146982,2,0,B|168:288,1,40,0|8
256,224,147270,2,0,B|256:288,1,40,8|0
320,328,147558,5,8
384,272,147751,1,4
384,184,147943,1,8
384,184,148135,1,0
384,184,148328,1,8
328,112,148520,2,0,B|288:112,1,40,0|8
296,200,148809,2,0,B|224:200,1,40,8|0
192,144,149097,5,8
104,144,149289,1,4
144,224,149482,2,0,B|144:304,1,80,8|0
224,336,149866,1,8
288,272,150059,2,0,B|344:272,1,40,0|8
384,200,150347,2,0,B|328:200,1,40,8|0
256,192,150635,5,8
256,192,150828,1,4
256,192,151020,1,8
256,192,151212,6,0,B|336:192,2,80,0|0|0
256,192,151789,2,0,B|256:112,2,80
256,192,152366,2,0,B|256:272,2,80
256,192,152943,6,0,B|168:192,1,80
128,192,153232,2,0,B|128:160|128:168,14,20,0|0|0|0|0|0|0|0|0|0|0|0|0|0|4
