osu file format v6

[General]
AudioFilename: Corpse Voyage ~ Be of Good Cheer!.mp3
AudioLeadIn: 1996
PreviewTime: 36973
Countdown: 0
SampleSet: Soft
StackLeniency: 0.4
Mode: 0
LetterboxInBreaks: 1
SkinPreference:Touhou

[Editor]
DistanceSpacing: 0.899999976158142
BeatDivisor: 4
GridSize: 8

[Metadata]
Title:Corpse Voyage ~ Be of Good Cheer!
Artist:ZUN
Creator:Alice Margatroid
Version:Hard
Source:TH11 Touhou Chireiden ~ Subterranean Animism
Tags:Rin Kaenbyou Orin

[Difficulty]
HPDrainRate:5
CircleSize:4
OverallDifficulty:7
SliderMultiplier:1.4
SliderTickRate:1

[Events]
//Background and Video events
0,0,"Corpse Voyage ~ Be of Good Cheer!.jpg"
//Break Periods
2,61476,72302
//Storyboard Layer 0 (Background)
//Storyboard Layer 1 (Fail)
//Storyboard Layer 2 (Pass)
//Storyboard Layer 3 (Foreground)
//Storyboard Sound Samples
//Background Colour Transformations
3,100,0,0,0

[TimingPoints]
1650,372.670807453416,4,2,1,75,1,0
23917,-100,4,1,1,34,0,0
24476,-100,4,2,1,75,0,0
31333,-100,4,2,1,75,0,0
34445,-200,4,2,1,75,0,0
35563,-100,4,2,1,34,0,0
37333,-100,4,1,1,54,0,0
40314,-200,4,1,1,54,0,0
40780,-100,4,1,1,54,0,0
43295,-200,4,1,1,54,0,0
44227,-100,4,1,1,54,0,0
46184,-200,4,1,1,54,0,0
48793,-100,4,1,2,54,0,0
58295,-200,4,1,2,54,0,0
72830,-100,4,1,2,54,0,0
86991,-100,4,2,2,75,0,0

[Colours]
Combo1 : 255,0,0
Combo2 : 0,128,0
Combo3 : 0,0,255

[HitObjects]
72,72,1650,2,0,B|144:104|232:64,1,140,4|8
208,200,2395,2,0,B|128:232|40:192,1,140,0|8
80,336,3140,6,0,B|145:367|215:336,1,140,2|8
344,336,3886,2,0,B|408:376|504:328,1,140,0|8
480,216,4631,5,2
416,216,4817,1,0
352,216,5004,1,8
288,216,5190,1,0
224,216,5376,2,0,B|136:216,2,70,0|8|8
416,72,6122,6,0,B|352:24|256:80,1,140,2|8
384,144,6867,2,0,B|288:184|224:120,1,140,0|8
144,72,7612,6,0,B|200:48|248:48|304:88,1,140,2|8
408,72,8358,2,0,B|464:88|464:176|400:184,1,140,0|8
328,96,9103,2,0,B|248:56|168:112,7,140,0|8|0|8|0|8|0|8
256,208,12084,1,4
96,304,12643,6,0,B|176:360,1,70
184,288,13016,2,0,B|240:336,1,70
304,328,13389,1,0
368,328,13575,2,0,B|397:256|357:192,1,140,4|8
232,192,14320,6,0,B|160:152|72:200,1,140,0|8
96,312,15066,2,0,B|264:312,1,140,0|8
296,312,15625,6,0,B|344:240,1,70
368,200,15997,2,0,B|416:112,1,70,0|8
400,72,16370,1,0
344,40,16556,2,0,B|296:16|248:72|176:16,1,140,2|8
144,40,17115,5,0
144,104,17302,2,0,B|176:160|112:232|184:256,1,140,0|8
280,232,18047,2,0,B|296:192|249:130|281:74,1,140,0|8
336,88,18606,5,0
400,88,18792,1,0
464,88,18979,2,0,B|464:184,1,70,0|8
400,152,19351,1,0
400,216,19538,2,0,B|344:256|344:256|272:208,3,140,2|8|0|8
224,216,20842,5,0
224,152,21028,2,0,B|280:104|280:104|352:160,1,140,2|8
392,144,21587,1,0
456,144,21774,2,0,B|424:192|472:240|432:304,1,140,2|8
384,280,22333,5,0
328,264,22519,2,0,B|312:208|232:208|224:280,1,140,0|8
160,264,23078,1,0
160,200,23264,2,0,B|160:56,1,140,0|8
224,56,23823,1,0
288,56,24010,6,0,B|288:96,4,35
352,48,24569,5,0
408,72,24755,1,0
456,112,24941,1,0
400,144,25128,1,8
344,176,25314,1,0
280,176,25500,2,0,B|216:144|128:184,1,140,2|8
144,48,26246,2,0,B|216:24|288:48,1,140,0|8
408,48,26991,2,0,B|448:120|400:200,1,140,0|8
360,200,27550,6,0,B|304:256,1,70
288,192,27923,2,0,B|224:264,1,70,0|8
176,240,28295,1,0
112,240,28482,2,0,B|64:240,2,35
504,40,29972,5,0
440,40,30159,1,0
376,40,30345,1,8
312,40,30531,5,0
280,96,30718,1,0
248,40,30904,1,0
216,96,31090,1,8
184,40,31277,1,0
152,96,31463,2,0,B|112:56|88:112|16:104|8:48,3,140,0|8|0|8
40,200,32954,6,0,B|96:224|104:280|72:344,1,140,0|8
208,312,33699,2,0,B|248:288|312:280|352:328,1,140,0|8
432,248,34445,6,4,B|472:168|416:96,2,140,4|4|0
368,248,36122,1,0
304,248,36308,2,0,B|216:248,1,70
168,248,36681,5,0
104,248,36867,1,0
168,248,37053,1,0
104,248,37240,1,0
104,184,37426,6,0,B|152:168|168:168|184:208|264:160,1,140
240,48,38171,1,8
368,48,38544,1,0
432,48,38730,5,0
496,48,38917,1,4
496,184,39289,1,8
368,184,39662,1,8
368,48,40035,1,0
248,48,40407,6,0,B|176:40|160:120|216:152|240:144,1,140,4|0
112,344,41898,1,4
240,344,42271,2,0,B|240:264,2,70,8|0|0
368,216,43016,5,0
368,152,43202,1,0
368,88,43389,2,8,B|328:64|248:112|208:64,1,140
104,80,44507,1,0
104,208,44879,5,8
232,208,45252,1,0
328,288,45625,2,0,B|176:288,1,140,8|0
208,144,46370,2,2,B|256:200|256:200|304:136,3,140,2|2|2|4
48,192,49351,6,0,B|32:120,2,70,0|0|8
176,192,50097,2,0,B|160:112,2,70,0|0|8
240,192,50656,1,0
304,192,50842,2,0,B|368:152|456:200,1,140,0|8
440,64,51587,2,0,B|336:64,1,80
304,64,51960,2,0,B|224:64,1,80,8|0
168,64,52333,6,0,B|104:40|56:104|96:168,1,140,0|8
80,264,53078,1,0
208,264,53451,1,8
208,136,53823,1,4
336,136,54196,1,8
336,264,54569,1,4
208,264,54941,5,8
144,264,55128,1,0
80,264,55314,2,0,B|40:208|80:120,1,140,0|8
200,120,56059,6,0,B|344:120,5,140,0|8|0|8|0|8
160,240,58295,2,0,B|208:280|208:280|216:216|312:208|312:288|312:288|368:240,2,280
24,192,73202,5,8
224,280,73761,1,0
288,280,73948,1,8
488,192,74507,1,0
424,192,74693,1,0
256,104,75252,5,0
208,144,75438,1,0
224,200,75625,1,0
288,200,75811,1,0
304,144,75997,1,0
304,80,76184,6,0,B|392:120|464:64,1,140,0|0
440,208,76929,2,0,B|360:240|272:200,1,140
304,88,77674,6,0,B|224:48|152:96,1,140
168,336,78792,5,8
232,336,78979,1,0
296,336,79165,2,0,B|368:280|320:192,1,140,0|8
328,88,79910,2,0,B|416:40|488:112,1,140,0|8
456,216,80656,2,0,B|392:200|328:248|304:184,1,140,0|8
256,208,81215,5,0
192,208,81401,1,0
192,144,81587,1,0
256,144,81774,1,8
256,208,81960,1,0
320,208,82146,2,0,B|368:208|376:256|352:304|304:296,1,140,0|8
184,296,82892,2,0,B|145:303|121:255|129:207|177:207,1,140,0|8
248,96,83637,5,0
312,88,83823,1,0
376,96,84010,1,8
368,160,84196,1,0
384,224,84382,5,0
320,216,84569,1,0
256,224,84755,1,8
264,160,84941,1,0
200,160,85128,2,0,B|144:136|80:192|40:136,1,140,0|8
64,40,85873,2,0,B|120:16|184:72|224:16,1,140
328,40,86618,1,4
328,232,87177,6,0,B|264:272,1,70
264,328,87550,2,0,B|328:360,1,70
392,360,87923,1,0
456,360,88109,2,0,B|488:312|432:256|464:200,1,140,2|0
456,160,88668,5,0
392,160,88854,2,0,B|344:128|288:200|232:136,1,140,2|0
192,152,89413,1,0
128,152,89600,2,0,B|112:232|136:320,1,140,2|0
256,296,90345,2,0,B|272:216|256:136,1,140,2|0
264,96,90904,5,0
264,32,91090,1,2
168,32,91370,1,0
168,128,91649,1,0
104,128,91836,1,2
104,224,92115,1,0
104,320,92395,1,0
168,320,92581,2,0,B|240:352|232:304|336:336,1,140,0|2
352,80,93699,6,0,B|288:24,2,70
432,184,94445,5,0
368,184,94631,1,0
224,184,95004,1,0
160,200,95190,1,0
96,184,95376,1,0
32,200,95563,1,2
32,344,96122,5,0
96,360,96308,1,2
160,344,96494,1,0
224,360,96681,1,0
288,344,96867,1,0
352,360,97053,1,2
256,208,97146,12,4,100035
