osu file format v9

[General]
AudioFilename: Kagome-Kagome.mp3
AudioLeadIn: 0
PreviewTime: 25061
Countdown: 0
SampleSet: Soft
StackLeniency: 0.8
Mode: 0
LetterboxInBreaks: 0

[Editor]
Bookmarks: 1835,12501,25042,37591,50140,62689,75238,94061,106610,119449,132007,144556,157105,169654,180320
DistanceSpacing: 1.2
BeatDivisor: 2
GridSize: 8

[Metadata]
Title:Cinderella Cage ~ Kagome-Kagome
Artist:ZUN
Creator:impossiblexu
Version:Normal
Source:Touhou
Tags:tewi inaba th08 imperishable night reisen udongein Tenshi-nyan Verdisphena

[Difficulty]
HPDrainRate:4
CircleSize:4
OverallDifficulty:4
ApproachRate:5
SliderMultiplier:1.2
SliderTickRate:1

[Events]
//Background and Video events
0,0,"BG.jpg"
//Break Periods
2,75434,89720
2,144750,155506
//Storyboard Layer 0 (Background)
//Storyboard Layer 1 (Fail)
//Storyboard Layer 2 (Pass)
//Storyboard Layer 3 (Foreground)
Sprite,Foreground,Centre,"BG2.jpg",320,240 F,0,144359,144752,0,1 F,0,144752,156320,1 F,0,156320,157105,1,0
Sprite,Foreground,Centre,"SB.jpg",320,240 F,0,156712,157107,0,0.8 S,0,156712,157107,0.8 F,0,157107,157499,0.8,0 S,0,157107,157499,0.8,0.9 F,0,158667,159059,0.8,0 S,0,158667,159059,0.8,0.9 F,0,160236,160628,0.8,0 S,0,160236,160628,0.8,0.9 F,0,161804,162197,0.8,0 S,0,161804,162197,0.8,0.9 F,0,163373,163765,0.8,0 S,0,163373,163765,0.8,0.9 F,0,164942,165334,0.8,0 S,0,164942,165334,0.8,0.9 F,0,166510,166902,0.8,0 S,0,166510,166902,0.8,0.9 F,0,167295,167687,0.8,0 S,0,167295,167687,0.8,0.9 F,0,168079,169530,0.8,0 S,0,168079,169530,0.8,1.1 F,0,169648,169975,0.8,0 S,0,169648,169975,0.8,1
//Storyboard Sound Samples
//Background Colour Transformations
3,100,163,162,255

[TimingPoints]
1829,444.444444444444,4,2,1,40,1,0
1839,-133.333333333333,4,2,1,40,0,0
12401,-100,4,2,1,50,0,0
12489,392.156862745098,4,2,1,50,1,0
50038,-100,4,2,1,60,0,0
90920,-100,4,2,1,40,0,0
93861,-133.333333333333,4,2,1,40,0,0
106404,-113.636363636364,4,2,1,50,0,0
117587,392.156862745098,5,2,1,50,1,0
118322,-133.333333333333,5,2,1,40,0,0
119452,392.156862745098,4,2,1,60,1,0
119462,-100,4,2,1,60,0,0
156510,-100,4,2,1,70,0,0
157099,-100,4,2,1,70,0,1
169536,-133.333333333333,4,2,1,40,0,1
169648,444.444444444444,4,2,1,40,1,0
169652,-133.333333333333,4,2,1,40,0,0
180314,392.156862745098,4,2,1,50,1,0

[Colours]
Combo1 : 128,128,255
Combo2 : 128,255,128
Combo3 : 255,128,64

[HitObjects]
82,44,1828,1,4
169,106,2273,1,0
144,211,2717,2,0,B|107:245|131:297,1,89.9999973177911,2|0
232,324,3606,2,0,B|272:302|287:342|332:315,2,89.9999973177911,0|0|2
403,140,5384,6,0,B|331:84,1,89.9999973177911
277,87,6051,1,0
250,134,6273,2,0,B|158:116,1,89.9999973177911,2|0
116,146,6940,1,0
133,197,7162,2,0,B|35:216,2,89.9999973177911,0|0|2
189,288,8495,1,0
285,239,8940,6,0,B|319:276|374:258,1,89.9999973177911
337,158,9828,2,0,B|304:125|254:136,1,89.9999973177911,2|0
148,112,10717,2,0,B|122:150|62:136,1,89.9999973177911
18,233,11606,2,0,B|58:265,1,44.9999986588955,8|0
100,234,12051,2,0,B|150:253,1,44.9999986588955,8|0
191,223,12489,5,4
172,116,12881,1,8
278,97,13273,1,0
301,202,13665,1,8
390,140,14057,2,0,B|364:202|421:254,1,120,0|8
317,293,14841,2,0,B|289:348|211:338,1,120,0|8
128,272,15626,6,0,B|61:291,2,60,0|0|8
107,166,16410,2,0,B|174:185,2,60,0|0|8
176,83,17194,2,0,B|231:68|231:68|234:75|234:75|291:60,1,120,0|8
388,101,17979,2,0,B|403:154|403:154|396:157|396:157|411:216,1,120,0|8
374,252,18567,1,0
321,240,18763,6,0,B|255:233|216:285,1,120,4|8
151,198,19547,2,0,B|126:259|43:250,1,120,0|8
14,212,20136,1,0
28,159,20332,1,0
83,57,20724,1,8
173,115,21116,1,0
241,31,21508,1,8
280,67,21704,1,0
328,43,21900,6,0,B|383:84|444:51,2,120,4|8|4
378,138,23077,1,8
330,163,23273,1,0
349,213,23469,2,0,B|296:245|313:320,1,120,4|8
261,305,24057,2,0,B|222:351|148:328,1,120
100,348,24645,1,8
51,323,24841,1,0
59,269,25038,6,0,B|89:210|50:149,1,120,4|8
160,156,25822,2,0,B|124:102|159:39,1,120,0|8
256,85,26606,2,0,B|318:64|321:102|387:81,1,120,0|8
461,147,27390,2,0,B|411:184|447:259,1,120,0|8
417,301,27979,1,0
364,286,28175,6,0,B|321:331|245:306,2,120,0|8|0
277,221,29351,2,0,B|225:182,1,60,8|0
264,144,29743,2,0,B|232:78|293:29,2,120,0|8|0
157,126,30920,1,8
109,151,31116,1,0
132,199,31312,5,4
206,276,31704,2,0,B|176:329|97:313,2,120,8|0|8
248,309,32685,1,0
292,278,32881,2,0,B|351:318|415:276,1,120,0|8
465,191,33665,1,0
432,88,34057,1,8
385,114,34253,1,0
344,78,34449,6,0,B|285:68|284:99|221:86,1,120,0|8
167,178,35234,2,0,B|131:231|50:212,1,120,0|8
46,266,35822,1,0
86,302,36018,2,0,B|157:316|197:268,1,120,0|8
302,279,36802,2,0,B|346:230|422:249,1,120,0|8
427,139,37587,5,4
324,171,37979,1,8
352,66,38371,1,0
284,150,38763,1,8
248,42,39155,1,0
239,145,39547,1,8
148,86,39939,2,0,B|87:108|90:181,1,120,0|8
42,206,40528,1,0
73,249,40724,6,0,B|107:301|76:365,2,120,0|8|0
176,217,41900,1,8
217,251,42096,1,0
262,221,42292,2,0,B|324:234,1,60
367,205,42685,2,0,B|433:197,1,60,8|0
458,154,43077,2,0,B|416:96|458:32,1,120,0|8
345,58,43861,6,0,B|303:102|229:74,1,120,4|8
166,160,44645,2,0,B|101:177|101:253,1,120,0|8
137,290,45234,1,0
189,276,45430,2,0,B|238:321|305:294,1,120,0|8
282,189,46214,1,0
389,191,46606,1,8
340,94,46998,6,0,B|266:52|165:79,1,180,4|0
185,129,47783,2,0,B|82:144|75:262,1,180,4|0
129,255,48567,2,0,B|102:316|144:368,2,120,4|0|0
231,288,49743,2,0,B|262:277|262:293|291:282,1,60
319,236,50136,6,0,B|287:174|334:124,2,120,4|8|0
201,212,51312,1,8
169,96,51704,2,0,B|96:107|65:42,1,120,0|8
67,168,52489,2,0,B|62:196|28:213,1,60
71,255,52881,2,0,B|39:272|44:309,1,60,8|0
89,342,53273,6,0,B|146:330|148:358|211:348,1,120,4|8
321,312,54057,1,0
242,221,54449,1,8
212,168,54645,1,0
263,137,54841,2,0,B|295:79|246:22,2,120,0|8|0
378,104,56018,1,8
464,186,56410,6,0,B|431:241|476:304,1,120,4|8
352,293,57194,2,0,B|288:291|288:291|247:341,1,120,0|8
192,341,57783,1,0
154,294,57979,2,0,B|103:259|118:188,1,120,0|8
227,139,58763,2,0,B|249:78|219:73|240:13,2,120,0|8|4
336,91,59939,5,8
400,192,60332,2,0,B|437:240|508:232,1,120,0|8
498,291,60920,1,0
441,312,61116,2,0,B|373:298|329:346,1,120,4|8
297,228,61900,1,0
267,344,62292,1,8
234,228,62685,6,0,B|187:267|116:242,2,120,4|8|0
130,167,63861,1,8
189,160,64057,1,0
190,100,64253,2,0,B|245:72|310:96,1,120,0|8
305,214,65038,2,0,B|355:257|421:232,2,120,0|8|4
231,308,66214,6,0,B|185:349|109:322,1,120,8|0
33,240,66998,1,8
7,185,67194,1,0
59,156,67390,2,0,B|102:105|62:37,1,120,0|8
121,22,67979,1,0
169,57,68175,2,0,B|216:103|295:72,1,120,0|8
360,166,68959,6,0,B|321:208|321:208|350:268,1,120,4|8
236,308,69743,2,0,B|180:311|180:311|179:321|179:321|115:323,1,120,0|8
74,290,70332,1,0
97,235,70528,2,0,B|61:178|105:112,2,120,4|8|0
199,171,71704,2,0,B|222:192|254:179,1,60,8|0
298,220,72096,6,0,B|362:200|423:237,1,120,4|8
467,204,72685,1,0
442,149,72881,2,0,B|399:101|425:32,1,120,4|8
364,27,73469,1,0
323,71,73665,2,0,B|266:75|275:107|207:109,2,120,4|8|0
318,190,74841,1,8
272,229,75038,1,0
326,254,75234,1,4
256,192,90920,12,4,93273
150,51,94057,5,4
80,197,94841,1,2
206,298,95626,1,0
353,231,96410,1,2
286,185,96802,1,0
324,113,97194,6,0,B|221:127|162:31,1,179.999994635582,0|2
92,68,98371,1,0
110,146,98763,1,0
40,186,99155,1,0
71,260,99547,2,0,B|122:274|126:333,1,89.9999973177911,2|0
200,353,100332,5,0
340,273,101116,1,2
268,234,101508,1,0
307,163,101900,2,0,B|263:135|277:82,1,89.9999973177911
202,50,102685,2,0,B|144:119|22:93,1,179.999994635582,2|0
192,139,104253,6,0,B|293:115|357:184,1,179.999994635582,2|0
401,251,105430,1,0
337,301,105822,2,0,B|301:328|301:328|314:374,1,89.9999973177911,2|0
221,356,106606,6,0,B|109:342,1,105.60000100708,4|0
89,303,107194,1,0
106,258,107390,2,0,B|23:196,1,105.60000100708,2|0
28,147,107979,1,0
67,120,108175,2,0,B|32:10,1,105.60000100708
127,42,108959,2,0,B|172:82|239:48,1,105.60000100708,2|0
266,78,109547,1,0
266,125,109743,6,0,B|325:112|369:152,2,105.60000100708,0|0|2
175,155,110920,1,0
200,246,111312,2,0,B|231:297|199:346,2,105.60000100708,0|0|2
290,275,112488,1,0
345,197,112881,6,0,B|307:150|336:89,1,105.60000100708
255,42,113665,1,2
161,59,114057,2,0,B|148:84|115:81,1,52.80000050354
89,120,114449,2,0,B|102:181|34:207,2,105.60000100708,0|0|2
165,176,115626,1,0
233,109,116018,6,0,B|293:95|293:95|321:114|321:114|392:96,1,158.40000151062,4|0
425,116,116802,2,0,B|417:187|417:187|490:237,1,158.40000151062,4|0
467,283,117587,2,0,B|434:310|434:310|441:333|441:333|397:370,1,120,4|0
335,318,118371,2,0,B|324:305|324:305|313:315|313:315|306:300|306:300|293:312|293:312|286:296|286:296|273:307|273:307|266:291|266:291|252:302|252:302|245:287|245:287|233:295|233:295|222:279|222:279|210:289|210:289|201:273|201:273|189:284|189:284|179:272|179:272,1,247.499992623925,0|4
82,206,119844,5,8
60,89,120236,1,2
179,57,120628,1,8
210,108,120824,1,0
266,82,121020,2,0,B|331:75|328:104|395:99,1,120,2|8
440,205,121804,1,2
339,271,122197,2,0,B|314:291|324:324,1,60,8|0
264,318,122589,6,0,B|214:356|149:321,1,120,4|8
104,284,123177,1,0
114,225,123373,2,0,B|64:186|85:111,1,120,2|8
132,82,123961,1,0
110,26,124157,1,2
231,30,124550,1,8
266,78,124746,1,0
322,56,124942,2,0,B|364:105|433:82,1,120,2|8
395,197,125726,6,0,B|347:233|379:309,1,120,4|8
324,333,126314,1,0
273,300,126510,2,0,B|219:337|152:298,2,120,2|8|2
230,187,127687,1,8
189,142,127883,1,0
139,175,128079,2,0,B|109:229|25:211,2,120,2|8|4
66,79,129255,6,0,B|66:16,1,60,8|0
126,45,129648,2,0,B|186:45,2,60,2|0|8
159,104,130236,1,0
207,139,130432,2,0,B|172:192|211:258,2,120,4|8|2
315,190,131608,2,0,B|384:190,2,60,8|0|4
419,131,132393,5,8
419,250,132785,1,2
316,311,133177,2,0,B|294:333|261:317,1,60,8|0
209,285,133569,2,0,B|156:248|93:269,1,120,2|8
46,233,134157,1,0
67,177,134353,2,0,B|24:129|51:62,2,120,2|8|4
163,105,135530,6,0,B|227:89|226:123|299:107,2,120,8|2|8
135,158,136510,1,0
173,203,136706,2,0,B|194:226|186:259,1,60,2|0
246,255,137099,2,0,B|240:289|271:308,1,60,8|0
323,331,137491,2,0,B|382:315|383:341|445:325,1,120,2|8
388,218,138275,6,0,B|358:163|358:163|398:108,1,120,4|8
274,89,139059,2,0,B|234:135|161:107,1,120,2|8
107,130,139648,1,0
110,189,139844,2,0,B|55:224|76:301,1,120,4|8
192,273,140628,1,2
303,317,141020,1,8
404,252,141412,6,0,B|369:202|401:189|369:134,1,120,4|8
323,101,142001,1,0
264,113,142197,2,0,B|201:110|211:144|142:137,1,120,4|8
105,179,142785,1,0
134,231,142981,2,0,B|112:293,1,60,4|0
180,280,143373,2,0,B|200:223,1,60,8|0
258,237,143765,2,0,B|315:272|376:239,1,120,0|8
318,133,144550,1,4
257,81,156706,6,0,B|249:109|264:109|256:141,1,60
217,186,157099,2,0,B|156:209|159:291,1,120,4|8
277,297,157883,2,0,B|339:282|338:312|404:296,1,120,0|10
436,253,158471,1,0
401,204,158667,2,0,B|366:152|406:85,1,120,4|8
284,68,159452,1,0
226,83,159648,1,0
239,141,159844,2,0,B|179:159,1,60,10|0
182,218,160236,6,0,B|62:254,2,120,4|8|0
238,323,161412,1,10
286,287,161608,1,0
329,328,161804,2,0,B|381:290|359:209,1,120,4|8
322,174,162393,1,0
366,134,162589,2,0,B|335:74|382:18,1,120,0|10
262,50,163373,6,0,B|225:98|146:79,1,120,4|8
99,108,163961,1,0
104,167,164157,2,0,B|56:201|79:279,1,120,0|10
194,244,164942,2,0,B|252:268|252:268|309:241,2,120,4|8|0
252,139,166118,2,0,B|247:161|247:161|256:168|256:168|251:200,1,60,10|0
311,192,166510,6,0,B|363:157|431:185,1,120,4|8
454,235,167099,1,0
435,291,167295,2,0,B|386:329|320:301,1,120,4|8
263,316,167883,1,0
214,281,168079,2,0,B|161:309|148:266|87:296,2,120
120,206,169255,2,0,B|95:185|106:148,1,60,8|0
89,96,169648,5,4
165,20,170092,1,0
217,114,170536,1,2
291,35,170981,1,0
332,134,171425,2,0,B|376:163|420:141,2,89.9999973177911,0|0|2
352,240,172759,1,0
247,266,173203,5,0
218,161,173648,1,0
117,121,174092,2,0,B|156:218,1,89.9999973177911,2|0
108,303,174981,1,0
207,344,175425,1,0
311,315,175870,2,0,B|358:296|404:325,1,89.9999973177911,2|0
441,222,176759,5,0
337,190,177203,1,0
441,163,177647,1,2
337,131,178092,1,0
235,94,178536,2,0,B|147:65,2,89.9999973177911,0|0|8
235,148,179647,1,0
235,202,179870,2,0,B|230:224|230:224|238:228|238:228|232:249,2,44.9999986588955,8|0|4
