osu file format v9

[General]
AudioFilename: Kagome-Kagome.mp3
AudioLeadIn: 0
PreviewTime: 25061
Countdown: 0
SampleSet: Soft
StackLeniency: 0.8
Mode: 0
LetterboxInBreaks: 0

[Editor]
Bookmarks: 1835,12501,25042,37591,50140,62689,75238,94061,106610,119449,132007,144556,157105,169654,180320
DistanceSpacing: 0.4
BeatDivisor: 4
GridSize: 8

[Metadata]
Title:Cinderella Cage ~ Kagome-Kagome
Artist:ZUN
Creator:impossiblexu
Version:Hard
Source:Touhou
Tags:tewi inaba th08 imperishable night reisen udongein Tenshi-nyan Verdisphena

[Difficulty]
HPDrainRate:6
CircleSize:4
OverallDifficulty:6
ApproachRate:7
SliderMultiplier:1.6
SliderTickRate:1

[Events]
//Background and Video events
0,0,"BG.jpg"
//Break Periods
2,75434,90020
2,144750,155806
//Storyboard Layer 0 (Background)
//Storyboard Layer 1 (Fail)
//Storyboard Layer 2 (Pass)
//Storyboard Layer 3 (Foreground)
Sprite,Foreground,Centre,"BG2.jpg",320,240 F,0,144359,144752,0,1 F,0,144752,156320,1 F,0,156320,157105,1,0
Sprite,Foreground,Centre,"SB.jpg",320,240 F,0,156712,157107,0,0.8 S,0,156712,157107,0.8 F,0,157107,157499,0.8,0 S,0,157107,157499,0.8,0.9 F,0,158667,159059,0.8,0 S,0,158667,159059,0.8,0.9 F,0,160236,160628,0.8,0 S,0,160236,160628,0.8,0.9 F,0,161804,162197,0.8,0 S,0,161804,162197,0.8,0.9 F,0,163373,163765,0.8,0 S,0,163373,163765,0.8,0.9 F,0,164942,165334,0.8,0 S,0,164942,165334,0.8,0.9 F,0,166510,166902,0.8,0 S,0,166510,166902,0.8,0.9 F,0,167295,167687,0.8,0 S,0,167295,167687,0.8,0.9 F,0,168079,169530,0.8,0 S,0,168079,169530,0.8,1.1 F,0,169648,169975,0.8,0 S,0,169648,169975,0.8,1
//Storyboard Sound Samples
//Background Colour Transformations
3,100,163,162,255

[TimingPoints]
1829,444.444444444444,4,2,1,40,1,0
1839,-133.333333333333,4,2,1,40,0,0
12450,-100,4,2,1,50,0,0
12489,392.156862745098,4,2,1,50,1,0
50038,-100,4,2,1,60,0,0
90920,-100,4,2,1,40,0,0
93861,-133.333333333333,4,2,1,40,0,0
106508,-113.636363636364,4,2,1,50,0,0
117587,392.156862745098,5,2,1,50,1,0
118321,-133.333333333333,5,2,1,40,0,0
119350,-133.333333333333,5,2,1,60,0,0
119452,392.156862745098,4,2,1,60,1,0
119462,-100,4,2,1,60,0,0
156510,-100,4,2,1,70,0,0
157099,-100,4,2,1,70,0,1
169536,-133.333333333333,4,2,1,40,0,1
169648,444.444444444444,4,2,1,40,1,0
169652,-133.333333333333,4,2,1,40,0,0
180314,392.156862745098,4,2,1,50,1,0

[Colours]
Combo1 : 128,128,255
Combo2 : 128,255,128
Combo3 : 255,128,64

[HitObjects]
114,34,1829,1,4
49,162,2273,1,2
108,203,2495,1,0
176,179,2717,2,0,B|236:153|295:191,1,119.999996423721,0|2
325,251,3384,1,0
391,222,3606,6,0,B|451:238|423:274|489:295,1,119.999996423721,0|2
430,161,4495,2,0,B|370:145|398:111|330:90,1,119.999996423721,0|2
263,90,5162,1,0
233,155,5384,6,0,B|166:175|175:261,1,119.999996423721,0|2
108,278,6051,1,0
36,273,6273,2,0,B|25:315|64:363|119:346,1,119.999996423721,0|2
170,320,6940,1,0
233,353,7162,6,0,B|299:338|296:368|366:354,1,119.999996423721,0|2
395,299,7829,1,0
344,247,8051,2,0,B|301:193|336:127,1,119.999996423721,0|2
205,66,8940,6,0,B|144:83,1,59.9999982118607
183,144,9384,2,0,B|129:191,1,59.9999982118607,2|0
199,219,9829,2,0,B|158:336,1,119.999996423721,0|2
230,320,10495,1,0
256,253,10717,6,0,B|295:139,1,119.999996423721,0|2
354,97,11384,1,0
395,156,11606,2,0,B|512:197,1,119.999996423721,8|8
507,207,12162,1,8
506,218,12273,1,0
503,229,12384,1,0
498,240,12489,6,0,B|460:263|473:316,1,80,4|0
393,294,12881,2,0,B|381:336|328:328,1,80,8|0
287,260,13273,2,0,B|206:239|210:295|118:265,1,160,0|8
77,208,13861,1,0
130,148,14057,6,0,B|144:69,1,80
221,46,14449,2,0,B|206:124,1,80,8|0
283,103,14841,2,0,B|353:116|353:116|355:129|355:129|429:141,1,160,0|8
477,205,15430,1,0
413,253,15626,6,0,B|362:313,1,80,2|0
300,261,16018,2,0,B|216:293,1,80,8|0
204,212,16410,2,0,B|124:202,1,80,2|0
75,128,16802,2,0,B|154:137,1,80,8|0
201,73,17194,6,0,B|264:125|356:92,1,160,2|8
430,112,17783,1,0
458,186,17979,2,0,B|396:243|440:337,1,160,0|8
360,311,18567,5,0
360,311,18665,1,0
360,311,18763,2,0,B|325:319|325:319|327:327|327:327|293:333,1,80,4|0
211,290,19155,2,0,B|246:283|246:283|244:275|244:275|279:267,1,80,8|0
229,204,19547,1,4
295,159,19743,1,0
219,132,19939,1,8
280,80,20136,1,0
202,58,20332,6,0,B|142:114|46:82,1,160,2|8
76,160,20920,2,0,B|32:229,1,80
112,234,21312,2,0,B|117:321,2,80,0|8|0
190,217,21900,6,0,B|223:248|270:231,1,80,4|0
343,176,22292,2,0,B|301:191|268:160,1,80,8|0
197,75,22685,2,0,B|230:106|277:89,1,80,4|0
396,52,23077,2,0,B|354:67|321:36,1,80,8|0
229,11,23469,6,0,B|189:6|151:10|153:41|113:45|61:39,1,160,4|8
89,133,24057,1,0
89,133,24155,1,8
89,133,24253,2,0,B|37:200,1,80,0|8
154,212,24645,2,0,B|157:212|157:212|163:226|163:226|179:223|179:223|184:238|184:238|199:233|199:233|205:244,1,80,8|0
284,165,25038,6,0,B|343:231|438:203,1,160,4|8
391,135,25626,1,0
375,56,25822,2,0,B|329:66|303:28,2,80,0|0|8
454,44,26410,1,0
469,122,26606,6,0,B|510:202|451:282,1,160,0|8
383,244,27194,1,0
321,295,27390,2,0,B|279:284|243:308,1,80
234,294,27685,2,0,B|207:326|150:313,1,80,8|0
151,327,27979,1,8
80,290,28175,6,0,B|45:262|60:214,2,80,0|0|8
139,236,28763,2,0,B|166:158|122:151|148:67,1,160
216,42,29351,1,8
273,97,29547,6,0,B|336:158|434:126,1,160
434,208,30136,2,0,B|400:282,1,80,8|0
332,238,30528,2,0,B|303:312|303:312|218:278,1,160,0|8
169,226,31116,1,0
199,152,31312,6,0,B|169:122|187:77,1,80,4|0
261,105,31704,2,0,B|328:162|418:119,1,160,8|0
461,184,32292,1,0
419,253,32489,2,0,B|366:262|369:312,1,80,8|0
305,254,32881,6,0,B|254:323|149:287,1,160,0|8
98,237,33469,1,0
145,172,33665,2,0,B|112:144|127:98,1,80
203,121,34057,2,0,B|219:75|184:37,1,80,8|0
269,30,34449,6,0,B|335:89|428:44,1,160,0|8
468,111,35038,1,0
404,158,35234,1,0
443,227,35430,2,0,B|461:244|483:240,2,40,0|0|8
363,230,35822,1,0
320,162,36018,6,0,B|259:109,1,80
165,124,36410,2,0,B|225:176,1,80,8|0
136,212,36802,1,0
133,227,36900,1,8
130,242,36998,1,0
207,295,37194,2,0,B|234:310|234:310|229:321|229:321|265:336,1,80,8|0
336,249,37587,6,0,B|342:158|446:143,1,160,4|8
438,64,38175,1,0
362,36,38371,2,0,B|296:83|206:44,1,160,0|8
130,54,38959,5,0
130,54,39057,1,0
130,54,39155,1,0
133,133,39351,1,0
212,133,39547,2,0,B|263:201|211:291,1,160,8|0
254,353,40136,1,0
324,314,40332,1,8
366,381,40528,1,0
442,356,40724,6,0,B|424:269|502:214,2,160,0|8|0
376,309,41704,1,0
372,229,41900,1,8
438,184,42096,6,0,B|433:94|330:60,1,160
284,118,42685,1,8
212,81,42881,1,0
212,81,42979,1,0
212,81,43077,2,0,B|128:106|125:208,1,160,0|8
205,199,43665,1,0
171,271,43861,6,0,B|152:309|102:296,1,80,4|0
223,319,44253,2,0,B|240:278|294:283,1,80,8|0
305,204,44645,2,0,B|378:232,1,80
385,217,44939,2,0,B|467:221,1,80,8|0
479,213,45234,1,8
436,144,45430,6,0,B|402:115|423:69,1,80,0|0
356,24,45822,2,0,B|296:79|198:45,1,160,8|0
135,86,46410,1,0
135,86,46508,1,0
135,86,46606,2,0,B|183:163,1,80,8|0
97,163,46998,6,0,B|190:307,1,160,4|8
243,244,47587,1,0
243,244,47685,1,0
243,244,47783,1,4
245,164,47979,2,0,B|321:131,2,80,0|8|0
312,207,48567,5,4
407,195,48763,1,0
361,110,48959,1,0
456,101,49155,1,0
467,112,49253,1,0
477,123,49351,2,0,B|494:175|494:175|485:184|485:184|504:233,2,120
401,39,50136,6,0,B|323:22,1,80,4|0
263,75,50528,2,0,B|179:81,1,80,8|0
160,157,50920,2,0,B|64:205,2,80,0|0|8
216,213,51508,5,0
216,213,51606,1,0
216,213,51704,2,0,B|287:177,2,80,0|0|8
278,262,52292,1,0
349,225,52488,2,0,B|427:264,1,80,0|0
434,253,52783,2,0,B|473:175,1,80,8|0
454,175,53077,1,8
380,144,53273,6,0,B|364:101|317:97,1,80,4|0
240,102,53665,1,8
206,174,53861,2,0,B|129:183|150:230|54:234,1,160
97,304,54449,1,8
175,288,54645,6,0,B|240:349|336:313,1,160
395,279,55234,1,8
404,199,55430,1,0
343,146,55626,2,0,B|246:153|215:70,1,160,0|8
141,40,56214,1,0
117,116,56410,6,0,B|39:159,1,80,4|0
125,186,56802,2,0,B|47:229,1,80,8|0
140,250,57194,2,0,B|62:293,1,80
55,296,57488,1,8
109,353,57685,1,0
123,347,57783,1,8
194,311,57979,6,0,B|225:346|276:331,1,80,0|0
346,331,58371,2,0,B|393:324|421:356,1,80,8|0
476,297,58763,1,0
469,282,58861,1,8
464,266,58959,1,0
385,253,59155,2,0,B|356:220|356:220|371:181,1,80,8|0
288,186,59547,6,0,B|276:98|175:89,1,160,4|8
98,102,60136,1,0
126,176,60332,2,0,B|69:201|90:227|26:261,2,120,0|8|0
151,251,61116,6,0,B|200:320,1,80,0|0
277,262,61508,2,0,B|326:331,1,80,8|0
400,270,61900,2,0,B|426:305,2,40,0|8|0
323,188,62292,1,8
433,168,62488,1,0
359,82,62685,6,0,B|291:126|200:86,1,160,4|8
205,168,63273,1,0
205,168,63371,1,0
205,168,63469,2,0,B|111:156|65:239,1,160,0|8
102,304,64057,1,0
177,278,64253,6,0,B|247:336|333:296,1,160,0|8
389,249,64841,1,0
347,180,65038,2,0,B|369:96,1,80
289,122,65430,2,0,B|268:199,1,80,8|0
209,146,65822,6,0,B|160:214|57:195,2,160,4|8|0
155,86,66802,1,0
155,86,66900,1,0
155,86,66998,1,8
218,37,67194,6,0,B|298:78|383:24,1,160
401,105,67783,2,0,B|478:141,1,80,8|0
418,196,68175,2,0,B|500:343,1,160,0|8
416,338,68763,1,0
358,282,68959,6,0,B|323:361|211:344,1,160,4|8
151,313,69547,1,0
147,233,69743,2,0,B|101:240|82:196,1,80
105,120,70136,2,0,B|73:88|90:46,1,80,8|0
163,16,70528,6,0,B|219:84|328:45,1,160,4|8
389,49,71116,1,0
389,49,71214,1,0
389,49,71312,2,0,B|449:112,1,80
385,160,71704,2,0,B|445:223,1,80,8|0
363,241,72096,6,0,B|309:297|309:297|217:275,1,160,4|8
285,220,72685,1,0
280,204,72783,1,8
275,188,72881,1,4
251,111,73077,2,0,B|229:33,2,80,0|8|0
185,93,73665,6,0,B|179:182,1,80,4|0
288,66,74057,2,0,B|345:134,1,80,8|0
275,188,74449,2,0,B|304:274,1,80,0|0
307,278,74743,2,0,B|336:364,1,80,8|0
337,369,75038,1,8
232,341,75234,1,4
256,192,90920,12,4,93273
138,44,94057,6,0,B|81:73|105:151,1,119.999996423721,4|0
223,158,94841,2,0,B|245:224|185:276,1,119.999996423721,2|0
288,342,95626,5,0
392,283,96018,1,0
336,176,96410,2,0,B|314:157|302:129|333:110|319:74|289:53,2,119.999996423721,2|0|0
456,181,97587,5,0
406,214,97783,1,0
433,267,97979,2,0,B|419:335|331:327,2,119.999996423721,2|0|0
317,234,99155,1,0
257,239,99351,1,0
240,181,99547,2,0,B|291:139|267:70,1,119.999996423721,2|0
152,46,100332,6,0,B|36:79,1,119.999996423721,0|0
23,137,100920,1,0
69,174,101116,2,0,B|22:288,1,119.999996423721,2|0
83,281,101704,1,0
109,227,101900,6,0,B|157:275|225:246,1,119.999996423721
252,197,102489,1,0
311,201,102685,2,0,B|373:185|373:221|443:206,2,119.999996423721,2|0|0
362,91,103861,5,0
256,34,104253,2,0,B|225:87|146:75,1,119.999996423721,2|0
102,109,104841,1,0
112,168,105038,6,0,B|62:211|92:284,1,119.999996423721
198,227,105822,2,0,B|250:180|218:111,1,119.999996423721,2|0
259,58,106410,1,0
328,49,106606,6,0,B|396:86,1,70.4000006713867,4|0
367,149,106998,2,0,B|413:209,1,70.4000006713867
343,227,107390,2,0,B|361:298|361:298|320:351,1,140.800001342773,2|0
252,329,107979,1,0
203,277,108175,6,0,B|131:316|66:252,1,140.800001342773
40,197,108763,1,0
90,147,108959,2,0,B|70:114|88:80,2,70.4000006713867,2|0|0
150,111,109547,1,0
205,154,109743,6,0,B|278:140|272:179|354:165,2,140.800001342773,0|0|2
176,218,110724,1,0
241,244,110920,1,0
214,309,111116,6,0,B|284:288|349:334,1,140.800001342773
417,342,111704,1,0
444,277,111900,1,0
391,229,112096,2,0,B|346:161|392:87,1,140.800001342773,2|0
254,47,112881,6,0,B|192:74|192:74|116:48,1,140.800001342773
145,189,113665,2,0,B|194:161|194:161|246:191,2,105.60000100708,2|0|0
194,238,114449,6,0,B|171:294|217:313|191:381,1,140.800001342773
293,277,115234,2,0,B|317:214|271:195|294:139,1,140.800001342773,2|0
348,94,115822,1,2
368,161,116018,6,0,B|508:212|508:212,1,140.800001342773,8|2
449,276,116606,1,0
370,245,116802,2,0,B|234:294|234:294,1,140.800001342773,8|2
163,251,117390,1,0
195,172,117587,6,0,B|156:99,1,80,8|0
207,31,117979,2,0,B|243:104,1,80,2|0
257,105,118273,1,0
270,107,118371,2,0,B|286:101|286:101|294:114|294:114|309:104|309:104|316:118|316:118|331:107|331:107|338:122|338:122|353:110|353:110|360:126|360:126|372:113|372:113|381:129|381:129|393:116|393:116|403:131|403:131|416:119|416:119|424:133|424:133|439:122|439:122|446:137|446:137|462:126|462:126|473:140|473:140|488:131|488:131,1,329.999990165234,2|4
446,204,119648,5,0
497,264,119844,1,8
417,273,120040,1,0
417,273,120138,1,0
417,273,120236,2,0,B|322:261|293:358,1,160,2|8
223,314,120824,1,0
227,233,121020,6,0,B|135:247|87:168,1,160,2|8
110,95,121608,2,0,B|98:77|97:53,2,40,0|0|2
167,39,122001,1,0
173,53,122099,1,8
200,127,122295,1,0
194,113,122393,1,8
253,59,122589,6,0,B|298:47|296:71|342:61,1,80,4|0
397,108,122981,1,8
402,187,123177,2,0,B|327:227|349:326,1,160,2|0
269,316,123765,1,8
230,245,123961,6,0,B|142:225|81:297,1,160,2|0
18,247,124550,1,8
29,167,124746,1,0
107,152,124942,2,0,B|181:110|196:160|282:117,1,160,2|8
335,157,125530,1,0
354,234,125726,6,0,B|288:281|321:378,2,160,4|8|2
429,208,126706,1,0
455,132,126902,1,8
410,65,127099,1,0
330,64,127295,6,0,B|271:118|172:83,1,160,2|8
193,243,128079,2,0,B|156:319,1,80,2|0
237,302,128471,2,0,B|277:376,1,80,8|0
319,305,128863,6,0,B|393:273|393:273|318:240,1,160,4|8
259,189,129452,1,0
312,129,129648,2,0,B|293:44,2,80,2|0|8
234,109,130236,1,0
171,158,130432,6,0,B|135:234|23:218,1,160,2|8
81,303,131020,1,0
90,315,131118,1,0
104,321,131216,1,0
119,324,131314,1,8
134,323,131412,1,0
221,253,131608,1,8
292,339,131804,1,0
343,241,132001,6,0,B|342:151|431:116,1,160,4|8
365,67,132589,2,0,B|282:22,1,80,0|2
243,90,132981,2,0,B|160:45,2,80,0|8|0
177,135,133569,6,0,B|85:144|76:246,1,160,2|8
162,216,134157,1,0
241,223,134353,2,0,B|278:298,1,80,2|0
352,321,134746,1,8
402,259,134942,5,0
402,259,135040,1,0
402,259,135138,2,0,B|366:229|351:196|396:174|383:136|345:100,2,160,4|8|2
322,266,136118,1,0
257,219,136314,1,8
264,139,136510,6,0,B|219:64|107:60,2,160,2|2|0
291,63,137491,1,2
291,63,137589,1,0
291,63,137687,1,0
369,78,137883,2,0,B|411:72|409:94|452:90,1,80,8|0
462,168,138275,6,0,B|397:217|434:313,1,160,4|8
357,288,138863,1,0
277,282,139059,2,0,B|233:289|224:337,1,80,2|0
147,312,139451,2,0,B|102:319|95:368,1,80,8|0
54,296,139844,6,0,B|75:209|2:139,1,160,4|8
71,95,140432,2,0,B|52:81|54:59,2,40,0|0|2
139,54,140824,1,0
213,82,141020,1,8
141,118,141216,1,0
215,146,141412,6,0,B|284:196|249:295,1,160,4|8
327,265,142001,1,0
367,196,142197,2,0,B|423:208|436:293|392:327,1,160,4|8
316,345,142785,1,0
252,296,142981,6,0,B|176:295|192:346|97:339,1,160,4|8
34,270,143569,1,0
34,254,143667,1,8
34,238,143765,1,0
110,155,143961,1,0
110,170,144059,1,8
185,252,144255,1,0
184,236,144353,1,8
259,319,144550,1,4
257,49,156706,6,0,B|242:86|269:87|257:129,1,80,8|0
182,154,157099,2,0,B|94:173|87:276,1,160,4|8
137,330,157687,1,0
211,299,157883,2,0,B|251:293|251:293|249:286|249:286|299:277,1,80,4|0
324,198,158275,2,0,B|292:203|292:203|294:210|294:210|254:216,1,80,10|0
254,136,158667,6,0,B|267:43|376:32,1,160,4|8
413,94,159255,1,0
413,94,159353,1,0
413,94,159451,2,0,B|440:132|493:117,1,80,4|0
439,186,159844,1,10
478,255,160040,1,0
405,289,160236,6,0,B|318:257|254:323,2,160,4|8|4
372,210,161216,1,0
372,210,161314,1,0
372,210,161412,1,10
304,169,161608,6,0,B|265:194|223:166,1,80,0|4
152,144,162001,1,0
81,184,162197,2,0,B|28:254,1,80,8|0
112,254,162589,2,0,B|175:307|175:307|250:274,1,160,4|10
313,318,163177,1,0
384,282,163373,6,0,B|356:196|428:136,1,160,4|8
401,61,163961,1,0
322,47,164157,2,0,B|280:72|234:41,1,80,4|0
239,128,164550,2,0,B|202:106|161:122,1,80,10|0
194,194,164942,6,0,B|115:229|143:333,2,160,4|8|4
216,270,165922,1,0
216,270,166020,1,0
216,270,166118,2,0,B|254:277|254:277|252:284|252:284|298:293,1,80,10|0
313,215,166510,6,0,B|306:175|324:124|379:106|426:122,1,160,4|8
402,201,167099,1,0
402,201,167197,1,0
402,201,167295,2,0,B|459:266,1,80,4|0
438,344,167687,2,0,B|385:283,1,80,8|0
311,345,168079,5,4
247,273,168275,1,0
152,256,168471,1,8
68,303,168667,1,0
68,303,168765,1,8
68,303,168863,2,0,B|141:355,1,80,4|8
311,345,169255,2,0,B|226:363,1,80,8|0
194,292,169648,5,4
154,153,170092,1,2
280,84,170536,1,0
321,222,170981,1,2
426,123,171425,6,0,B|446:186|520:193,2,119.999996423721,0|2|0
299,53,172759,1,2
162,97,173203,6,0,B|102:122|119:209,1,119.999996423721,0|2
54,233,173870,1,0
117,267,174092,2,0,B|184:260|227:322,1,119.999996423721,0|2
292,303,174759,1,0
280,232,174981,6,0,B|264:174|301:171|286:103,2,119.999996423721,0|2|0
408,166,176314,1,2
448,304,176759,6,0,B|381:299|348:359,1,119.999996423721,0|2
292,312,177425,1,0
221,328,177648,2,0,B|179:374|107:347,1,119.999996423721,0|2
141,207,178536,6,0,B|111:151|111:151|149:93,2,119.999996423721,0|2|8
153,207,179536,1,8
165,207,179648,1,0
262,137,179870,1,8
357,209,180092,1,8
368,209,180203,1,8
379,209,180314,1,4
