osu file format v8

[General]
AudioFilename: 01.mp3
AudioLeadIn: 3000
PreviewTime: -1
Countdown: 0
SampleSet: Soft
StackLeniency: 0.3
Mode: 0
LetterboxInBreaks: 0
StoryFireInFront: 0
SkinPreference:Default
EpilepsyWarning: 1

[Editor]
DistanceSpacing: 0.9
BeatDivisor: 8
GridSize: 8

[Metadata]
Title:Catastrophe in Bhava-agra ~ Wonderful Heaven(Instrument)
Artist:ZUN
Creator:w7382010
Version:Insane
Source:touhou
Tags:tenshi touhou zun instrument BGM

[Difficulty]
HPDrainRate:6
CircleSize:5
OverallDifficulty:3
ApproachRate:4
SliderMultiplier:1.4
SliderTickRate:1

[Events]
//Background and Video events
0,0,"Konachan.com - 58805 blue_hair chinese_dress dress hat hinanawi_tenshi long_hair night red_eyes snow thighhighs touhou.jpg"
//Break Periods
2,216853,220333
//Storyboard Layer 0 (Background)
//Storyboard Layer 1 (Fail)
//Storyboard Layer 2 (Pass)
//Storyboard Layer 3 (Foreground)
//Storyboard Sound Samples
//Background Colour Transformations
3,100,0,0,0

[TimingPoints]
-34,500,4,2,1,100,1,0

[Colours]
Combo1 : 255,255,0
Combo2 : 5,240,5
Combo3 : 5,5,240
Combo4 : 240,5,5
Combo5 : 255,150,0

[HitObjects]
152,72,11841,5,0
112,120,12153,1,8
96,224,13528,1,0
152,288,14028,1,0
232,328,14528,1,8
296,328,14903,1,0
360,272,15403,1,0
432,208,16278,1,0
432,120,17341,1,8
384,80,17529,1,0
336,40,17716,1,0
248,40,18716,1,0
200,64,18903,1,0
152,88,19091,1,8
152,160,19716,1,0
216,160,20341,1,0
280,136,21091,2,0,B|328:48|456:56|216:288|400:184|344:328|248:248|144:200|136:128|136:96|136:168|136:136,1,420
96,56,24653,5,0
128,56,24778,1,0
160,56,24903,1,0
192,56,25028,1,0
224,56,25132,1,8
288,56,26132,1,0
352,56,26882,1,0
352,112,27132,1,8
352,184,27841,1,8
352,240,28132,1,0
360,312,28903,5,0
328,312,29028,1,0
296,312,29153,1,8
224,312,30153,1,0
176,272,30403,1,8
144,248,30528,1,0
96,200,30778,1,8
88,136,31091,1,0
152,72,32132,5,0
224,72,32403,1,0
264,88,32528,1,8
336,120,32778,1,0
400,160,33091,1,8
432,224,33778,1,0
384,224,33903,1,0
344,224,34028,1,0
304,224,34153,1,8
232,224,35153,1,0
184,192,35403,1,8
160,168,35528,1,0
128,128,35778,1,8
112,80,36091,1,0
176,48,36903,5,0
192,48,37028,1,0
208,48,37132,1,8
272,48,38153,1,0
336,48,38403,1,8
376,48,38528,1,0
440,72,38778,1,8
480,128,39091,1,0
480,216,40153,5,0
440,264,40403,1,0
424,280,40528,1,8
376,328,40778,1,8
344,328,40903,1,0
312,328,41028,1,0
240,328,41153,1,8
168,328,41528,1,0
104,304,41903,1,8
40,248,42153,1,8
24,184,42528,1,0
40,120,42903,1,8
96,56,43153,1,8
168,56,43528,1,0
200,56,43653,1,0
272,56,43903,1,8
344,56,44132,1,8
440,32,44903,5,0
464,48,45028,1,0
480,72,45153,1,8
448,128,46132,1,0
392,160,46403,1,8
360,176,46528,1,0
296,192,46778,1,8
232,160,47091,1,0
224,72,48153,1,0
144,64,48403,1,0
112,80,48528,1,8
56,128,48778,1,0
32,192,49091,1,8
64,288,49778,1,0
96,264,49903,1,8
136,240,50028,1,0
168,216,50153,1,8
248,160,50778,1,0
288,144,50903,1,8
328,152,51028,1,0
360,176,51153,1,8
432,224,51778,1,8
448,272,52028,1,0
432,320,52841,5,8
400,320,52966,1,0
368,320,53091,1,8
288,320,54132,1,0
224,320,54403,1,8
192,320,54528,1,0
128,304,54778,1,8
64,264,55091,1,0
48,176,56132,1,0
112,176,56403,1,0
144,176,56528,1,8
208,176,56778,1,8
272,176,57091,1,0
360,176,57778,1,0
392,176,57903,1,0
392,216,58028,1,0
432,216,58153,1,0
432,264,58403,1,0
432,296,58528,1,0
368,328,58778,1,8
296,336,59091,1,0
256,192,60153,12,0,61653
320,136,62403,5,0
376,152,62653,1,0
424,176,62903,1,0
424,256,63153,1,0
384,304,63528,1,8
344,256,63903,1,0
272,256,64153,1,8
232,304,64528,1,0
200,256,64903,1,8
120,264,65153,1,8
80,312,65528,1,8
48,256,65903,1,8
40,184,66153,1,8
96,144,66528,1,0
32,112,66903,1,8
64,40,67153,2,0,B|144:24|88:64|176:88|160:104|160:104|200:80|232:120,1,210
280,48,68653,5,0
336,48,68903,1,0
392,48,69153,2,0,B|408:104|520:136|360:296,1,280
296,328,70653,5,8
256,328,70778,1,8
224,328,70903,1,0
160,328,71153,1,0
104,304,71653,1,0
48,272,72153,1,0
40,200,72653,1,8
48,160,72778,1,8
72,136,72903,1,0
120,88,73153,1,8
184,48,74653,1,0
264,48,74903,1,0
296,48,75028,1,0
336,48,75153,2,0,B|344:136|360:168|336:200|304:224|256:272|160:288|48:296,1,437.5
56,256,79153,6,0,B|8:128|48:80|96:64,1,210
160,40,80653,1,0
216,40,80903,1,0
248,40,81028,1,0
280,40,81153,1,8
336,48,81403,1,0
384,72,81653,1,0
424,104,81903,1,0
440,152,82153,1,8
432,224,82653,1,0
408,272,82903,1,0
368,296,83153,2,0,B|216:400|160:328|136:256,1,280
112,216,84653,5,0
96,184,84778,1,0
88,152,84903,1,0
72,96,85153,1,8
112,48,85403,1,8
160,48,85653,1,8
248,40,86403,5,8
296,40,86653,1,0
344,40,86903,1,0
392,40,87153,2,0,B|440:88|456:144|448:280|296:304,1,350
232,304,88653,1,8
200,304,88778,1,8
168,304,88903,1,0
104,280,89153,1,8
56,232,89403,1,8
32,168,89653,1,0
32,136,89778,1,0
40,104,89903,1,0
80,56,90153,1,8
176,40,90653,5,0
208,96,90903,1,8
240,40,91153,1,0
304,40,91653,1,0
336,96,91903,1,8
368,40,92153,1,0
448,96,92653,1,8
400,136,92903,1,0
456,160,93153,1,8
432,256,94153,5,0
400,304,94403,1,0
352,336,94653,1,0
320,336,94778,1,0
288,336,94903,1,8
248,336,95028,1,0
216,336,95153,2,0,B|80:352|24:296|24:192,1,280
24,136,96653,1,0
56,88,96903,1,0
112,48,97153,1,8
144,48,97278,1,8
184,48,97403,1,0
256,48,97653,1,0
288,48,97778,1,0
320,48,97903,1,0
392,72,98153,1,8
456,112,98653,5,0
456,168,98903,1,0
448,224,99153,2,0,B|416:328|288:344|240:232,1,280
224,176,100653,1,0
224,136,100778,1,0
224,104,100903,1,8
216,64,101028,1,8
192,40,101153,1,0
136,48,101403,1,8
80,56,101653,1,8
32,128,102653,5,0
32,176,102903,1,0
32,224,103153,2,0,B|24:296|176:336|272:328,1,280
344,328,104653,1,0
400,296,104903,1,0
344,264,105153,1,8
368,240,105278,1,8
400,208,105403,1,0
344,176,105653,1,0
400,144,105903,1,8
344,112,106153,1,8
352,48,106591,5,0
320,48,106716,1,0
288,48,106841,1,0
264,48,106966,1,0
208,88,107153,1,8
240,144,107528,1,8
200,192,107903,1,8
240,240,108153,1,8
192,288,108528,1,8
240,328,108903,2,0,B|328:368|352:336|384:304|400:160,1,280
408,104,110403,5,0
384,48,110653,1,0
328,32,110903,1,8
272,32,111153,1,8
192,40,112403,1,0
152,48,112528,1,0
120,56,112653,1,8
72,96,112903,1,8
32,144,113153,1,0
56,232,114653,5,0
112,200,114903,1,0
168,168,115153,1,8
216,136,116403,1,0
248,160,116528,1,0
280,176,116653,1,8
336,208,116903,1,0
392,176,117153,1,8
416,112,117528,1,8
384,56,117903,1,8
304,40,118591,5,8
240,56,118841,1,0
176,80,119091,1,0
72,120,119841,1,0
64,184,120091,1,8
72,224,120216,1,8
88,256,120341,1,0
128,312,120591,1,0
184,344,120841,1,0
248,328,121091,1,8
320,336,122591,5,0
432,272,123091,1,8
400,192,123841,1,8
360,200,124091,1,8
288,224,124466,1,8
224,256,124841,1,0
152,256,125091,1,8
96,208,126341,5,0
96,152,126591,1,0
96,120,126716,1,0
104,88,126841,1,0
120,56,126966,1,0
184,56,127091,2,0,B|248:56|336:56|400:56,1,210
456,104,128341,1,0
448,168,128591,1,8
424,224,128841,1,0
384,272,129091,1,0
360,296,129216,1,0
296,320,129841,1,8
208,320,130591,5,0
168,296,130841,1,0
128,264,131091,2,8,B|32:216|24:112|176:64,1,280
216,48,132591,1,8
256,48,132716,1,8
296,48,132841,1,0
360,56,133091,1,0
416,88,133466,1,0
472,120,133841,1,8
472,184,134091,1,0
456,248,134591,5,0
440,272,134716,1,0
424,288,134841,1,0
368,320,135091,1,8
272,328,135841,1,0
248,272,136091,1,0
216,328,136341,1,8
192,272,136591,1,0
160,328,136841,1,0
136,272,137091,1,8
104,328,137341,1,8
80,272,137591,1,0
48,328,137841,1,8
24,272,138091,1,8
32,184,138591,5,0
56,168,138716,1,0
88,152,138841,1,0
112,144,138966,1,0
144,136,139091,1,8
200,112,139841,1,8
248,144,140091,1,0
240,192,140341,1,8
240,240,140591,1,0
256,288,140841,1,0
288,328,141091,1,8
360,336,141591,1,0
424,304,142091,1,8
256,192,143153,12,0,145153
256,192,147153,12,0,149153
256,192,151153,12,0,153153
256,192,155153,12,0,157153
48,40,159153,6,0,B|24:208|144:16|248:48|240:96,1,280
200,136,160653,1,8
200,168,160778,1,8
208,216,160903,1,0
232,272,161153,1,8
272,312,161403,1,0
320,336,161653,1,0
376,336,161903,1,0
424,304,162153,1,8
464,240,162653,5,0
456,184,162903,1,0
432,136,163153,2,8,B|400:80|352:16|176:32,1,280
128,40,164653,1,0
80,72,164903,1,0
40,120,165153,1,0
24,152,165278,1,8
24,184,165403,1,8
24,248,165653,1,8
48,328,166403,5,8
104,328,166653,1,8
160,328,166903,1,0
216,328,167153,2,8,B|288:328|384:344|432:304|440:208,1,280
440,168,168653,1,0
416,112,168903,1,0
360,64,169153,1,0
328,56,169278,1,0
288,56,169403,1,0
232,56,169653,1,0
176,56,169903,1,0
120,56,170153,1,8
64,112,170653,5,0
112,144,170903,1,8
64,176,171153,1,0
64,240,171653,1,0
112,272,171903,1,8
64,304,172153,1,0
128,344,172653,1,0
160,296,172778,1,0
192,344,172903,1,8
224,296,173028,1,8
256,344,173153,1,0
320,344,174653,5,0
360,312,174903,1,0
400,280,175153,2,8,B|472:232|480:160|392:32,1,280
336,32,176653,1,0
304,32,176778,1,8
272,32,176903,1,0
240,32,177028,1,0
192,56,177153,1,8
152,96,177403,1,8
144,152,177653,1,0
152,208,177903,1,0
176,256,178153,1,8
224,304,178653,5,0
264,264,178903,1,0
296,224,179153,2,8,B|360:160|424:88|208:48,1,280
160,48,180653,1,0
112,72,180903,1,0
64,104,181153,1,8
40,152,181403,1,8
40,208,181653,1,8
96,264,182403,5,8
128,264,182528,1,8
160,264,182653,1,0
224,264,182903,1,0
256,192,183153,12,0,184153
328,280,184653,5,0
376,232,184903,1,0
408,176,185153,1,0
408,144,185278,1,0
408,104,185403,1,8
368,48,185653,1,0
320,24,185903,1,0
264,24,186153,1,8
200,80,186653,1,0
168,32,186903,1,8
136,80,187153,1,0
80,120,187653,1,0
40,160,187903,1,8
88,192,188153,1,0
88,256,188653,1,0
40,288,188903,1,0
88,320,189153,1,8
152,320,190153,5,0
216,312,190403,1,0
272,288,190653,1,0
296,272,190778,1,0
328,248,190903,1,0
352,224,191028,1,0
368,184,191153,2,8,B|416:88|336:8|208:48,1,280
152,64,192653,1,8
120,80,192778,1,8
88,104,192903,1,0
40,144,193153,1,8
32,208,193403,1,8
64,256,193653,1,8
88,288,193778,1,8
112,312,193903,1,0
168,344,194153,1,8
232,336,194653,5,0
272,296,194903,1,0
312,256,195153,2,8,B|368:208|464:136|472:32,1,280
376,32,196653,1,0
320,32,196903,1,0
264,32,197153,1,8
208,32,197403,1,8
152,32,197653,1,8
40,88,198653,5,0
40,120,198778,1,0
40,152,198903,1,8
40,184,199028,1,8
40,216,199153,2,0,B|24:296|168:328|272:328,1,280
328,304,200653,1,0
376,272,200903,1,0
416,232,201153,1,8
440,184,201403,1,8
440,128,201653,1,0
408,80,201903,1,0
360,48,202153,1,8
280,40,202653,5,0
224,48,202903,1,0
168,56,203153,1,8
136,64,203278,1,8
72,80,203528,1,8
88,144,203903,1,8
32,184,204153,1,8
48,248,204528,1,0
96,296,204903,1,8
256,192,204966,12,0,206466
32,152,207153,5,8
104,136,207903,1,0
160,120,208153,1,0
232,112,208528,1,0
304,128,208903,1,8
360,144,209153,1,0
424,176,209528,1,8
432,248,209903,1,0
392,288,210153,1,8
328,328,210528,1,8
256,328,210903,1,0
200,312,211153,1,8
256,192,212653,1,8
256,192,213153,12,0,216653
64,32,221653,6,0,B|208:40|352:56|432:80|240:136|312:176|264:160|80:160|48:192|32:224|72:248|32:256|56:288|80:296|144:304|464:344|488:312|464:280,1,980
