osu file format v5

[General]
AudioFilename: video.mp3
AudioLeadIn: 0
PreviewTime: -1
Countdown: 0
SampleSet: Normal
StackLeniency: 0.7
Mode: 0
LetterboxInBreaks: 1
SkinPreference:Default

[Editor]
DistanceSpacing: 1.60000002384186
BeatDivisor: 4
GridSize: 32

[Metadata]
Title:Catastrophe in Bhava-agra ~ Wonderful Heaven
Artist:ZUN
Creator:kuburaczek
Version:Lunatic
Source:Touhou
Tags:Touhou ZUN tenshi hinanai

[Difficulty]
HPDrainRate:6
CircleSize:4
OverallDifficulty:7
SliderMultiplier:1.4
SliderTickRate:1

[Events]
//Background and Video events
0,0,"Hinanai Tenshid.jpg"
//Break Periods
2,11049,15631
2,164862,168420
2,188895,199719
2,209761,223565
//Storyboard Layer 0 (Background)
//Storyboard Layer 1 (Fail)
//Storyboard Layer 2 (Pass)
//Storyboard Layer 3 (Foreground)
//Storyboard Sound Samples
//Background Colour Transformations
3,100,163,162,255

[TimingPoints]
882,372.603658536586,4,1,0,30,1,0
882,-50,4,1,0,30,0,0
16345,-100,4,1,0,0,0,0
17276,-50,4,1,0,30,0,1
21747,-50,4,2,0,51,0,1
23238,-50,4,1,0,30,0,1
50065,-100,4,2,0,50,0,1
51462,-50,4,1,0,30,0,1
52883,-100,4,1,0,30,0,0
53069,-100,4,1,0,30,0,0
67391,-100,4,2,0,30,0,0
69441,-100,4,1,0,30,0,0
91238,-100,4,1,0,0,0,0
91983,-100,4,1,0,30,0,0
103720,-50,4,1,0,30,0,0
132690,-100,4,1,0,0,0,0
133528,-100,4,1,0,30,0,0
134274,-200,4,1,0,30,0,0
135042,-50,4,1,0,30,0,1
142494,1764.70588235294,4,1,0,21,1,1
143611,372.601378625101,4,1,0,0,1,1
143611,-50,4,1,0,0,0,1
143797,-100,4,1,0,30,0,1
145380,-100,4,2,0,50,0,1
146871,-50,4,1,0,30,0,1
170810,-100,4,1,0,30,0,0
175841,-100,4,2,2,49,0,0
188788,-100,4,1,0,30,0,0
207977,-100,4,1,0,70,0,0
208350,-100,4,1,0,30,0,0
208723,-100,4,1,0,70,0,0
209095,-100,4,1,0,30,0,0
209468,-100,4,1,0,70,0,0
224465,-50,4,1,0,30,0,0
236388,-100,4,1,0,30,0,0
237692,-100,4,1,0,20,0,0
239369,-100,4,1,0,10,0,0
241791,-100,4,1,0,0,0,0

[Colours]
Combo1 : 72,11,234
Combo2 : 128,255,0
Combo3 : 255,255,0

[HitObjects]
480,96,882,1,0
384,32,1068,1,0
288,96,1254,1,0
192,32,1440,1,0
96,96,1627,1,0
0,32,1813,1,0
0,32,1906,1,8
256,192,2186,5,8
32,352,2372,5,0
128,288,2558,1,0
224,352,2745,1,0
320,288,2931,1,0
416,352,3117,1,0
512,288,3303,1,0
512,288,3397,1,8
192,256,3862,5,0
160,160,4049,1,0
256,96,4235,1,0
352,160,4421,1,0
320,256,4608,1,0
256,192,4794,1,0
256,192,4887,1,8
256,0,5166,5,0
320,256,5353,5,0
352,160,5539,1,0
256,96,5725,1,0
160,160,5912,1,0
192,256,6098,1,0
256,192,6284,1,0
256,192,6377,1,8
416,0,6843,5,0
480,96,7029,1,0
416,192,7216,1,0
480,288,7402,1,0
416,374,7588,1,0
256,192,7775,1,0
256,192,7868,1,8
256,192,8147,5,0
98,374,8334,5,0
32,288,8520,1,0
96,192,8706,1,0
32,96,8892,1,0
96,0,9079,1,0
256,192,9265,1,0
256,192,9358,1,8
448,96,9824,6,0,C|448:256,1,140
64,256,10197,2,0,C|64:96,1,140
256,352,10569,1,0
256,64,10755,1,8
256,64,10849,1,8
32,192,16531,5,0
480,192,16903,1,0
480,192,17276,5,0
416,96,17462,1,0
320,96,17649,1,0
256,192,17835,1,2
32,192,18021,5,0
64,96,18208,1,0
160,96,18394,1,0
256,192,18580,1,2
256,192,18766,6,2,C|224:224|288:256|192:288|288:320|192:352,2,420
256,128,20257,5,0
352,128,20443,1,0
448,128,20629,1,0
448,224,20816,1,0
448,128,21002,1,0
448,32,21188,1,0
352,32,21375,1,0
256,32,21561,1,0
64,160,21747,6,0,C|64:0,1,140
192,224,22120,6,0,C|192:64,1,140
320,288,22493,6,0,C|320:96,1,140
448,352,22865,6,0,C|448:192,1,140
512,96,23238,5,4
448,0,23424,1,4
320,0,23610,5,4
192,0,23797,1,4
64,0,23983,5,4
0,96,24169,1,4
256,192,24356,5,8
256,192,24542,1,8
192,128,24728,2,8,C|160:224|192:256|256:288|288:288|320:320|256:352|192:352,2,420
192,128,26219,5,0
224,64,26405,1,0
288,64,26591,1,0
320,128,26777,1,0
384,128,26964,1,0
416,64,27150,1,0
480,64,27336,1,0
512,128,27523,1,0
448,256,27709,6,2,C|448:352,2,70
320,256,28082,6,0,C|320:352,2,70
192,256,28454,6,2,C|192:352,2,70
64,256,28827,6,0,C|64:352,2,70
32,160,29199,6,0,B|32:64|160:32,1,140
128,128,29572,2,0,B|224:96|224:192,1,140,0|2
128,224,29945,2,0,B|192:288|288:256,1,140
192,352,30317,2,0,C|288:384|352:352,1,140,0|2
384,288,30690,6,14,C|448:256|480:192|480:96|448:32|320:32,2,420
256,288,32180,5,0
160,224,32367,2,0,C|32:352,1,140
32,224,32739,1,0
160,352,32925,1,0
32,224,33112,1,0
160,352,33298,1,0
32,224,33484,1,0
32,128,33671,6,8,B|32:32|160:32,1,140
384,32,34043,2,8,B|480:32|480:160,1,140
480,256,34416,2,2,B|480:352|352:352,1,140
128,352,34788,2,2,B|32:352|32:224,1,140
64,192,35161,6,0,L|128:160|64:128,1,140
128,64,35534,1,0
384,64,35720,1,0
448,128,35906,2,0,L|384:160|448:192,1,140
384,256,36279,1,0
128,256,36465,1,0
64,320,36651,6,0,L|160:352|256:288|384:352|448:320,2,420
256,192,38142,5,0
256,192,38328,5,0
192,96,38514,1,0
128,192,38701,1,0
192,288,38887,1,0
320,288,39073,1,0
384,192,39260,1,0
320,96,39446,1,0
442,49,39632,6,0,C|482:68|443:92|474:109|439:126|512:128|438:157|512:160|478:324|191:334,1,840
193,331,40843,1,0
165,328,40936,1,0
136,328,41030,1,0
108,328,41123,1,8
32,320,41309,5,0
32,192,41495,1,0
32,64,41682,1,0
32,192,41868,1,0
32,320,42054,1,0
32,192,42241,1,0
32,192,42427,5,0
256,192,42613,12,0,43172
256,192,43265,12,0,43731
192,32,43917,6,0,C|32:32,1,140
192,32,44290,1,0
192,32,44476,1,4
320,32,44662,1,0
320,160,44849,1,4
192,160,45035,1,0
192,288,45221,1,4
320,288,45408,1,0
448,320,45594,5,0
448,320,45687,1,0
448,320,45780,1,0
448,64,45967,5,0
448,64,46060,1,0
448,64,46153,1,0
64,64,46339,5,0
64,64,46432,1,0
64,64,46525,1,0
64,320,46712,5,0
64,320,46805,1,0
64,320,46898,1,0
160,192,47084,5,0
256,96,47271,1,0
352,192,47457,1,0
256,288,47643,1,0
160,288,47830,5,0
160,96,48016,1,0
352,96,48202,1,0
352,288,48388,1,0
270,251,48575,6,6,C|302:219|270:187|270:155|238:155|238:187|206:219|238:251,3,280
224,32,50065,5,0
160,32,50251,1,0
96,32,50438,1,0
32,32,50624,1,0
288,32,50810,5,0
352,32,50997,1,0
416,32,51183,1,0
480,32,51369,1,0
480,96,51556,5,0
416,192,51742,1,0
480,288,51928,1,0
416,384,52115,1,0
96,384,52301,1,0
32,288,52487,1,0
96,192,52673,1,0
32,96,52860,1,0
160,96,53046,6,0,B|224:32|320:64,4,140
158,124,54723,1,0
157,151,54909,1,0
165,177,55095,1,0
187,194,55282,1,0
214,196,55468,5,0
240,186,55654,1,0
262,169,55841,1,0
277,145,56027,2,0,B|362:99|460:120,4,140
288,170,57704,5,0
288,197,57890,1,0
286,224,58076,1,0
286,251,58262,1,0
258,253,58449,1,0
230,250,58635,1,0
202,250,58821,1,0
173,247,59008,1,0
170,247,59380,6,0,B|135:375,1,105
142,348,59753,2,0,B|94:234,1,105
101,251,60125,2,0,B|61:351,1,105
62,348,60498,2,0,B|32:192,1,140
32,32,61243,5,0
480,32,61616,1,0
480,128,61989,6,0,C|416:96|352:160|256:96|128:160,1,420
136,155,63199,1,0
136,155,63479,2,0,C|64:128|64:256|128:288,1,280
122,285,64317,1,0
122,285,64597,2,0,C|192:288|224:256,1,105
216,264,64969,1,0
448,256,65715,6,0,C|416:192|480:128|416:96,1,210,0|8
64,96,66460,6,0,C|96:160|32:224|96:256,1,210,0|8
192,160,67578,6,8,C|256:128|320:160,4,140
211,227,69441,5,0
223,232,69534,1,0
235,238,69627,1,0
247,244,69720,1,0
259,250,69813,1,0
270,257,69906,1,0
279,267,69999,1,0
274,280,70093,1,0
264,289,70186,1,0
254,299,70279,1,0
242,307,70372,1,0
230,314,70465,1,0
216,317,70558,1,0
202,318,70652,1,0
192,307,70745,1,0
178,303,70838,1,0
164,299,70931,6,0,L|100:235|164:203|100:139|164:43,1,350
288,64,72049,1,0
416,64,72235,1,0
512,128,72421,6,0,L|512:288|448:288,1,210
352,288,73167,5,0
256,192,73353,1,0
255,374,73539,1,0
160,288,73726,1,0
160,288,73912,2,0,L|0:288,1,140
96,192,74471,1,0
32,96,74657,2,0,L|192:96,1,140
172,96,75216,5,0
256,64,75402,1,0
480,32,75682,5,12
480,32,75961,5,0
384,128,76147,1,0
480,224,76334,1,0
384,320,76520,1,0
288,224,76706,1,0
288,224,76893,6,0,C|224:320|96:288|32:128,1,420
87,52,78197,1,0
177,88,78383,2,2,C|241:120|305:88,3,140
256,192,79687,12,0,80991
333,193,81364,6,0,C|314:174|303:212|291:174|281:216|265:171|256:222|242:171,1,280
234,197,82202,5,0
227,196,82295,1,0
219,195,82389,1,0
212,195,82482,1,0
205,195,82575,1,0
198,195,82668,1,0
191,195,82761,1,0
184,194,82854,1,0
96,224,83041,5,8
96,320,83227,1,8
384,320,83600,5,0
448,224,83786,1,8
512,128,83972,1,8
384,320,84345,5,0
384,224,84531,1,8
384,128,84717,1,8
384,320,85090,5,0
320,224,85276,1,8
256,128,85463,1,8
160,64,85835,6,0,L|96:96|32:64,1,140,0|2
96,192,86394,1,2
32,320,86580,2,0,L|96:288|160:320,1,140,0|2
224,224,87139,1,2
288,320,87326,2,2,C|352:288|384:352|416:288|448:352|448:224,1,420
448,227,88630,5,2
448,227,88816,1,2
384,192,89375,5,0
320,128,89934,6,0,C|352:192|320:256,1,140
192,128,90679,2,0,C|160:192|192:256,1,140
256,192,91424,1,0
256,192,91797,1,0
448,224,92542,6,0,C|448:160,3,35
448,160,92915,6,0,C|448:96,3,35
448,96,93287,6,0,C|448:32,3,35
448,32,93660,6,8,C|448:0,22,17.5
448,32,94778,6,0,C|384:0|288:64|224:64|160:96|96:96,1,350
64,128,95895,1,0
64,0,96082,1,0
64,128,96268,2,0,C|32:224|32:288|128:352,1,280
224,352,97200,5,8
320,256,97386,1,8
320,352,97572,1,8
224,256,97758,1,8
256,192,97945,12,0,98876
256,224,99249,6,4,C|256:96,2,105
256,320,99994,5,0
128,192,100180,1,0
256,64,100367,1,0
384,192,100553,1,0
384,287,100739,6,0,C|480:255|480:159|480:191,2,210
384,288,102043,1,0
512,373,102230,5,0
1,366,102602,5,0
0,0,102975,5,0
512,0,103348,5,0
480,128,103720,6,0,L|480:256|320:320,1,280,0|8
224,288,104279,1,8
278,202,104465,1,8
384,160,104652,2,0,L|384:32|320:96|96:96,1,420,8|0
32,32,105397,5,0
32,128,105583,1,0
32,32,105769,1,0
32,128,105956,1,0
96,192,106142,1,0
37,287,106328,1,0
49,293,106421,1,0
62,298,106515,1,0
75,302,106608,1,0
88,305,106701,1,0
101,308,106794,1,0
114,311,106887,1,0
127,312,106980,5,0
127,312,107074,6,0,L|311:311,1,140
268,268,107353,1,0
268,226,107446,2,0,L|459:226,1,140
406,184,107726,1,0
406,141,107819,2,0,L|219:132,1,140
263,92,108098,1,0
262,50,108191,2,0,C|79:49,1,140
32,64,108564,6,0,C|160:192,5,140
64,224,109682,6,0,C|128:320|224:352|320:352|384:320|416:288,2,420
256,192,111172,5,0
0,64,111731,5,0
128,64,111917,1,0
256,64,112104,1,0
384,64,112290,1,4
512,64,112476,1,0
512,64,112663,5,0
32,352,113222,5,0
256,192,113780,5,0
256,192,113874,12,0,114153
256,192,114526,5,0
256,192,114619,12,0,114898
256,192,115271,5,0
254,73,115643,6,0,L|256:28,58,35
416,320,118624,5,0
256,320,118811,1,0
96,320,118997,1,0
256,320,119183,1,0
256,192,119369,1,0
256,192,119556,1,8
256,192,119649,1,8
96,64,120115,5,0
256,64,120301,1,0
416,64,120487,1,0
256,64,120674,1,0
256,192,120860,1,0
256,192,121046,1,8
256,192,121139,1,8
96,320,121605,5,0
96,192,121791,1,0
96,64,121978,1,0
96,192,122164,1,0
256,192,122350,1,0
256,192,122537,1,8
256,192,122630,1,8
416,64,123096,5,0
416,192,123282,1,0
416,320,123468,1,0
416,192,123654,1,0
256,192,123841,1,0
256,192,124027,1,8
256,192,124120,1,8
96,352,124586,5,0
32,288,124772,1,0
32,192,124959,1,0
32,96,125145,1,0
32,0,125331,2,8,L|128:0,4,70
416,0,126076,5,0
480,96,126263,1,0
480,192,126449,1,0
480,288,126635,1,0
478,373,126822,2,8,L|382:373,4,70
64,32,127567,5,0
160,32,127753,1,0
256,32,127939,1,0
352,32,128126,1,0
448,32,128312,2,8,L|448:128,4,70
448,352,129057,5,0
352,352,129243,1,0
256,352,129430,1,0
160,352,129616,1,0
64,352,129802,2,8,L|64:256,4,70
64,352,130222,6,2,L|0:352,9,35
256,192,131665,5,0
256,192,131759,1,0
256,192,131852,1,0
256,192,131945,1,0
256,192,132038,1,0
256,192,132131,1,0
256,192,132224,1,0
256,192,132317,1,0
256,192,132411,1,0
256,192,132504,1,0
256,192,132597,1,0
256,192,132783,5,0
224,192,134274,6,0,B|256:160|288:192,2,70
128,192,135205,6,0,B|128:352,2,140,0|8|0
384,192,135764,2,0,B|384:352,2,140,0|8|0
256,256,136323,1,8
448,64,136509,2,8,B|0:64,2,420
448,64,137720,1,0
448,64,137813,1,0
448,192,138000,5,0
352,288,138186,1,0
256,192,138372,1,0
160,288,138559,1,0
64,192,138745,1,0
64,192,138931,5,4
254,373,139117,1,4
448,192,139304,1,4
224,224,139490,6,0,B|64:224,1,140
224,160,139863,2,0,B|224:-32,1,140
288,160,140235,2,0,B|480:160,1,140
288,224,140608,2,0,B|288:384,1,140
192,352,140980,6,0,L|160:288|128:384,1,140,0|2
0,352,141353,2,0,L|32:288|64:352,1,140,2|2
192,32,141726,2,0,L|160:96|128:32,1,140,2|2
0,32,142098,2,0,L|32:96|64:32,1,140,0|2
299,99,142494,6,0,B|351:55|384:96,1,87.5,8|0
480,192,143983,5,0
416,352,144169,1,0
352,192,144356,1,0
288,352,144542,1,0
224,192,144728,1,0
160,352,144915,1,0
96,192,145101,1,0
32,352,145287,1,0
32,256,145474,6,0,B|32:128,1,105
64,96,145846,1,0
64,96,146032,1,8
448,128,146219,2,0,B|448:256,1,105
416,288,146591,1,0
416,288,146778,1,8
320,320,146964,5,0
320,306,147150,1,0
160,256,147337,1,0
159,242,147523,1,0
320,192,147709,5,0
319,178,147895,1,0
160,128,148082,1,0
160,114,148268,1,0
256,192,148361,12,0,149572
128,224,149945,6,0,C|128:288|224:320,1,140
224,64,150317,6,0,C|160:64|128:160,1,140
384,160,150690,6,0,C|384:96|288:64,1,140
288,320,151063,6,0,C|352:320|384:224,1,140
504,365,151435,5,0
504,365,151528,1,0
512,0,151808,1,0
512,0,151901,1,0
0,0,152180,1,0
0,0,152273,1,0
0,368,152553,1,0
0,365,152646,1,0
64,224,152926,5,0
64,160,153112,1,8
160,256,153298,1,0
160,128,153484,1,2
256,288,153671,1,0
256,96,153857,1,8
352,320,154043,1,0
352,64,154230,1,2
448,192,154416,6,0,C|384:96|160:96|160:256|384:288|480:160,1,840
442,228,155720,5,0
442,228,155906,1,0
442,228,156093,1,0
442,228,156279,1,0
442,228,156465,1,0
442,228,156652,1,0
288,352,156838,1,0
128,224,157024,1,0
288,96,157210,1,0
256,192,157397,12,0,158328
480,352,158515,5,0
448,320,158608,1,0
416,288,158701,1,0
448,256,158794,1,0
480,224,158887,1,2
480,160,159073,5,0
416,96,159260,5,0
352,32,159446,5,0
256,0,159632,5,0
160,32,159819,5,0
96,96,160005,5,0
32,160,160191,5,0
116,207,160378,6,0,C|166:132|232:85|286:80|322:99|362:142|409:224,2,420
32,192,161682,5,0
32,352,161868,5,0
256,352,162054,5,0
480,352,162241,5,0
480,192,162427,5,0
480,32,162613,5,0
256,32,162799,5,0
32,32,162986,5,0
256,192,163172,5,0
192,96,163358,6,2,L|256:64|320:96,1,140
256,192,163731,5,8
256,192,163917,1,8
320,256,164104,6,2,L|256:288|192:256,1,140
256,192,164476,5,8
256,192,164662,1,0
32,256,169320,6,0,L|32:352,1,70
96,256,169506,2,0,L|96:352,1,70
160,256,169693,2,0,L|160:352,1,70
224,256,169879,2,0,L|224:352,1,70
288,256,170065,2,0,L|288:352,1,70
352,256,170251,2,0,L|352:352,1,70
416,256,170438,2,0,L|416:352,1,70
480,256,170624,2,0,L|480:352,1,70
448,192,170810,6,4,L|512:128|448:32,5,140
457,77,172860,1,4
429,69,173046,1,4
404,82,173232,1,4
378,92,173419,1,4
353,106,173605,1,4
340,130,173791,6,4,L|312:251,1,105
302,229,174164,6,4,L|239:107,1,105
239,136,174536,6,4,L|194:250,1,105
190,224,174909,6,4,L|121:111,1,105
135,134,175282,1,4
160,96,176027,5,0
352,96,176213,1,0
352,288,176399,1,0
160,288,176586,1,0
256,192,176772,6,0,C|224:160|192:192|160:160|128:192|96:160|64:192|32:192,2,280
0,373,179008,5,0
511,373,179380,1,0
256,0,179753,1,0
256,192,179939,12,0,180684
256,192,180871,5,0
352,288,181243,1,0
256,192,181430,1,0
160,96,181616,1,0
254,374,181988,5,0
256,0,182361,1,0
256,192,182734,12,0,183479
256,192,183665,12,0,184224
0,373,185342,5,0
0,0,185714,5,0
512,0,186087,5,0
509,373,186460,5,0
256,192,187205,6,0,B|320:192,3,35
256,192,187577,6,0,B|256:128,3,35
256,192,187950,6,0,B|192:192,3,35
256,192,188323,6,0,B|256:256,4,35,0|0|0|0|8
87,73,200619,6,0,L|47:74|49:20,2,70
197,74,201177,5,8
89,194,201364,6,0,L|50:192|50:149,2,70,0|0|0
285,194,201923,5,8
89,319,202109,6,0,L|49:319|50:276,2,70
397,318,202668,5,8
480,224,202854,6,2,C|448:160|480:128|448:96|480:64|416:32,3,280
352,64,205835,5,0
256,192,206021,1,0
160,64,206208,1,0
0,64,206394,1,0
0,64,206580,5,14
32,224,207139,5,2
32,224,207698,6,0,C|64:288|128:192,1,140,0|6
224,224,208443,6,0,C|256:288|320:192,1,140,0|6
416,224,209188,6,0,C|448:288|512:192,1,140,0|6
192,256,224465,6,0,L|160:288,4,35
192,128,224838,2,0,L|160:96,4,35
320,128,225210,2,0,L|352:96,4,35
320,256,225583,2,0,L|352:288,4,35
448,256,225955,6,0,L|480:192|448:96,1,140
352,192,226328,1,8
160,192,226514,1,8
64,256,226701,2,0,L|32:192|64:96,1,140
160,192,227073,1,8
352,192,227260,1,8
480,96,227446,6,0,L|320:96,1,140,0|2
32,160,227818,2,0,L|192:160,1,140,0|2
480,224,228191,2,0,L|320:224,1,140,0|2
32,288,228564,2,0,L|192:288,1,140,0|2
416,352,228936,6,0,L|288:256,1,140
96,352,229309,2,0,L|224:256,1,140
256,32,229681,2,0,L|256:192,1,140
256,172,230054,1,4
256,172,230240,1,4
256,172,230427,1,4
256,172,230986,6,0,L|288:224|256:256|288:288|256:320|288:352|96:352,1,420
256,172,231917,6,0,L|288:224|256:256|288:288|256:320|288:352|384:352,1,280
256,172,232662,6,0,L|256:96|320:96|320:192|384:192,1,280
411,123,233407,5,0
405,118,233501,1,0
399,113,233594,1,0
393,109,233687,1,0
386,106,233780,1,0
379,103,233873,1,0
372,100,233966,1,0
365,99,234059,5,0
358,95,234153,1,0
351,93,234246,1,0
344,91,234339,1,0
337,89,234432,1,0
330,87,234525,1,0
323,86,234618,1,0
315,85,234712,5,0
308,84,234805,1,0
301,83,234898,1,0
294,82,234991,1,0
287,81,235084,1,0
280,80,235177,1,0
273,79,235270,1,0
265,79,235364,1,0
258,79,235457,1,0
251,79,235550,5,0
244,79,235643,1,0
237,79,235736,1,0
230,80,235829,1,0
223,81,235922,1,0
216,82,236016,1,8
32,320,236388,6,4,B|64:352|96:320,4,70
64,32,237320,5,0
64,32,237413,1,0
224,320,237879,6,4,B|256:352|288:320,4,70
256,32,238810,5,0
256,32,238903,1,0
416,320,239369,6,4,B|448:352|480:320,4,70
448,32,240301,5,0
448,32,240394,1,0
256,192,240673,12,0,241977
