osu file format v9

[General]
AudioFilename: ZUN - Boys and Girls of Scientific Century.mp3
AudioLeadIn: 3692
PreviewTime: 73966
Countdown: 0
SampleSet: Soft
StackLeniency: 0
Mode: 0
LetterboxInBreaks: 0
SkinPreference:Default

[Editor]
Bookmarks: 5,14774,29543,44312,59081,73966,89160,103816,118472,133129,147785,162574,177772
DistanceSpacing: 1
BeatDivisor: 4
GridSize: 16

[Metadata]
Title:Boys and Girls of Scientific Century
Artist:ZUN
Creator:eximillar
Version:Extra
Source:
Tags:Touhou ZUN

[Difficulty]
HPDrainRate:7
CircleSize:3
OverallDifficulty:6
ApproachRate:6
SliderMultiplier:1.4
SliderTickRate:0.5

[Events]
//Background and Video events
0,0,"bgre.png"
//Break Periods
2,50051,50647
2,64820,65416
2,138825,139407
2,153482,154064
//Storyboard Layer 0 (Background)
//Storyboard Layer 1 (Fail)
//Storyboard Layer 2 (Pass)
//Storyboard Layer 3 (Foreground)
//Storyboard Sound Samples
//Background Colour Transformations
3,100,0,64,128

[TimingPoints]
5.04605949376073,461.538461538462,4,2,0,100,1,0
5.04605949376073,-50,4,2,0,0,0,0
12928,-50,4,1,0,0,0,0
14312,-50,4,1,0,100,0,0
14543,-50,4,2,0,100,0,0
27235,-50,4,1,0,100,0,0
29312,-50,4,2,0,100,0,0
44312,-200,4,2,0,100,0,0
44774,-50,4,2,0,100,0,0
48005,-50,4,1,0,100,0,0
50774,-50,4,2,0,100,0,0
51697,-200,4,2,0,100,0,0
52158,-50,4,2,0,100,0,0
55389,-50,4,1,0,100,0,0
57235,-50,4,2,0,100,0,0
62774,-50,4,1,0,100,0,0
65543,-50,4,2,0,100,0,0
70158,-50,4,1,0,100,0,0
72005,-50,4,2,0,100,0,0
73966,476.190476190476,4,2,0,100,1,1
73966,-200,4,2,0,100,0,1
77775,-100,4,2,0,100,0,1
81585,465.116279069767,4,2,0,100,1,1
81585,-100,4,2,0,100,0,1
85280,467.653936087295,4,2,0,100,1,1
85280,-100,4,2,0,100,0,1
88110,545.454545454545,4,2,0,100,1,1
88110,-100,4,2,0,100,0,1
89160,458.015267175572,4,2,0,100,1,0
89160,-50,4,2,0,0,0,0
101984,-50,4,1,0,100,0,0
103587,-50,4,2,0,100,0,0
116182,-50,4,1,0,100,0,0
118243,-50,4,2,0,100,0,0
133129,-200,4,2,0,100,0,0
133816,-50,4,2,0,100,0,0
136793,-50,4,1,0,100,0,0
139541,-50,4,2,0,100,0,0
140457,-200,4,2,0,100,0,0
140915,-50,4,2,0,100,0,0
144121,-50,4,1,0,100,0,0
145953,-50,4,2,0,100,0,0
151450,-50,4,1,0,100,0,0
154198,-50,4,2,0,100,0,0
158778,-50,4,1,0,100,0,0
160610,476.190476190476,4,2,0,100,1,0
162574,480,4,2,0,100,1,1
162574,-100,4,2,0,100,0,1
166414,472.44094488189,4,2,0,100,1,1
166414,-100,4,2,1,100,0,1
170200,458.015267175572,4,2,0,100,1,1
170200,-100,4,2,0,100,0,1
173864,468.75,4,2,0,100,1,1
173864,-50,4,2,0,100,0,1
174801,-100,4,2,0,100,0,1
175739,508.474576271186,4,2,0,100,1,1
175739,-50,4,2,0,100,0,1
177772,508.474576271186,4,2,0,100,1,0
177772,-50,4,2,0,100,0,0
181840,512.820512820513,4,2,0,100,1,0
181840,-50,4,2,0,100,0,0
185940,517.241379310345,4,2,0,100,1,0
185940,-50,4,2,0,100,0,0
190060,566.037735849057,4,2,0,100,1,0
190060,-50,4,2,0,100,0,0
192325,697.674418604651,4,2,0,100,1,0
192325,-50,4,2,0,100,0,0

[Colours]
Combo1 : 0,40,20
Combo2 : 0,0,64
Combo3 : 0,40,20
Combo4 : 0,0,64

[HitObjects]
64,112,5,1,0
176,80,235,1,0
144,192,466,2,0,B|144:240|176:272,2,70
256,160,928,1,0
336,96,1158,2,0,B|368:160,1,70
416,160,1389,2,0,B|448:224,1,70
384,224,1620,1,0
352,336,1851,5,0
240,320,2081,2,0,B|224:272|288:240,3,70
259,257,2543,1,0
144,272,2774,1,0
64,192,3005,2,0,B|96:128,1,70
128,176,3235,2,0,B|160:112,1,70
192,160,3466,1,0
304,192,3697,5,0
336,80,3928,1,0
416,160,4158,2,0,B|464:176|432:224,2,70
368,272,4620,1,0
256,288,4851,1,0
208,320,4966,2,0,B|240:256,1,70
176,240,5197,2,0,B|144:304,1,70
256,192,5543,8,0,6928
448,112,7389,21,0
336,80,7619,1,0
368,192,7850,2,0,B|368:240|336:272,2,70
256,160,8312,1,0
176,96,8542,2,0,B|144:160,1,70
96,160,8773,2,0,B|64:224,1,70
128,224,9004,1,0
160,336,9235,5,0
272,320,9466,1,0
272,320,9581,2,0,B|288:272|224:240,3,70
368,272,10158,1,0
448,192,10389,2,0,B|416:128,1,70
384,176,10619,2,0,B|352:112,1,70
320,160,10850,1,0
208,192,11081,5,0
176,80,11312,1,0
96,160,11542,2,0,B|48:176|80:224,2,70
144,272,12004,1,0
256,288,12235,1,0
304,320,12350,2,0,B|272:256,1,70
336,240,12581,2,0,B|368:304,1,70
256,192,12928,8,4,14312
64,320,14774,21,2
64,208,15005,1,0
176,176,15235,2,0,B|224:208|192:240,1,70,8|0
198,232,15466,1,0
288,320,15697,2,0,B|288:224|384:176,1,140,2|2
464,192,16158,2,0,B|464:96|368:64,1,140,10|2
288,80,16620,1,2
176,112,16851,1,0
256,192,17081,2,0,B|240:256|144:208,1,70,8|0
204,228,17312,1,0
64,320,17543,1,2
48,160,17889,1,0
80,128,18005,1,8
192,80,18235,1,0
240,64,18351,2,2,B|288:64,2,40
224,160,18697,5,0
336,128,18928,2,0,B|400:112|416:192,2,70,8|0|0
320,240,19389,1,0
176,336,19735,2,0,B|240:352|256:288,1,70,0|8
352,336,20081,1,0
432,272,20312,1,0
208,256,20774,1,8
144,112,21235,1,2
208,80,21389,1,2
272,48,21543,1,2
304,112,21697,1,10
400,80,21928,1,2
416,32,22043,1,2
448,64,22158,6,0,B|496:128|448:208,1,140,2|0
352,224,22620,1,8
400,256,22735,2,0,B|384:304|336:288,1,70
224,320,23081,2,0,B|224:224|128:176,1,140,2|2
48,192,23542,2,0,B|48:96|144:64,1,140,10|2
224,80,24004,1,2
336,112,24235,2,0,B|336:160|288:160,1,70
336,112,24466,1,8
144,224,24928,1,2
224,304,25158,1,2
336,336,25389,1,10
112,336,25851,1,2
48,240,26081,5,0
96,128,26312,2,0,B|160:112|144:176,1,70,8|0
96,128,26543,1,0
256,64,26774,1,0
256,192,27235,8,4,29081
64,192,29543,5,2
160,256,29774,1,0
179,142,30005,1,8
224,176,30120,2,0,B|224:112|144:160,1,70
80,80,30466,2,0,B|144:32|224:48,1,140,2|2
211,45,30812,1,0
256,64,30928,2,0,B|272:112|320:80,1,70,10|0
310,85,31158,1,2
416,48,31389,1,2
464,144,31620,1,0
416,128,31735,2,0,B|416:192|480:224,1,70,0|8
438,192,31966,2,0,B|432:256|368:288,1,70
320,192,32312,1,2
384,288,32543,2,0,B|352:336|304:304,1,70
272,304,32774,1,8
272,304,32889,2,0,B|256:256|208:288,1,70
219,283,33120,2,2,B|171:283,2,40
160,192,33466,5,0
224,96,33697,2,0,B|272:96|272:144,2,70,8|0|0
112,112,34158,1,0
64,208,34389,2,0,B|64:256|32:304,1,70
112,272,34620,2,0,B|112:320|144:368,1,70,8|0
176,320,34851,1,0
272,256,35081,1,0
384,256,35312,2,0,B|384:208|336:192,1,70
351,198,35543,2,0,B|352:144|400:128,2,70,8|0|0
272,112,36005,5,2
336,64,36159,1,2
416,64,36313,1,2
464,128,36467,1,10
368,176,36698,1,2
400,224,36813,1,2
448,192,36928,5,2
352,256,37159,1,0
332,142,37390,1,8
288,176,37505,2,0,B|288:112|368:160,1,70
432,80,37851,2,0,B|368:32|288:48,1,140,2|2
300,45,38197,1,0
256,64,38313,2,0,B|240:112|192:80,1,70,10|0
201,85,38543,1,2
96,48,38774,1,2
48,144,39005,1,0
96,128,39120,2,0,B|96:192|32:224,1,70,0|8
73,192,39351,2,0,B|80:256|144:288,1,70
192,192,39697,1,2
128,288,39928,2,0,B|160:336|208:304,1,70,2|0
240,304,40159,1,10
240,304,40274,2,0,B|256:256|304:288,1,70
400,240,40620,1,2
304,176,40851,5,0
368,80,41081,2,0,B|432:80|432:176,1,70,8|0
422,116,41312,1,0
304,96,41543,1,0
208,48,41774,2,0,B|176:96|208:144,1,70
194,114,42005,2,0,B|144:144|96:112,1,70,10|0
144,64,42236,1,2
48,112,42466,1,2
48,224,42697,2,0,B|96:256|144:224,1,70
48,224,42928,1,8
112,320,43158,1,0
167,338,43274,1,2
224,336,43389,1,8
279,325,43505,1,2
331,303,43621,1,10
377,272,43736,1,10
416,232,43851,1,2
447,185,43966,1,8
465,132,44081,1,8
465,75,44197,1,8
418,47,44312,6,0,B|392:32|368:47,2,35,2|0|8
366,70,44889,1,0
405,109,45005,1,0
293,109,45235,1,2
191,60,45466,1,2
173,113,45581,1,0
117,102,45697,1,10
69,131,45812,1,0
84,185,45928,1,2
191,216,46158,2,0,B|272:171|306:260,1,140,2|0
263,294,46505,1,0
213,269,46620,1,8
163,293,46735,1,0
108,280,46851,1,0
458,329,47081,1,2
431,220,47312,1,0
402,268,47428,1,0
377,217,47543,1,8
408,170,47658,1,0
464,170,47774,1,0
256,192,48005,8,4,49851
94,337,51697,6,0,B|120:352|144:337,2,35,2|0|8
146,314,52274,1,0
107,275,52390,1,0
219,275,52620,1,2
321,324,52851,1,2
339,271,52966,1,0
395,282,53082,1,10
443,253,53197,1,0
428,199,53313,1,2
321,168,53543,2,0,B|240:213|206:124,1,140,2|0
249,90,53890,1,0
299,115,54005,1,8
349,91,54120,1,0
404,104,54236,1,0
54,55,54466,1,2
81,164,54697,1,2
110,116,54813,1,0
135,167,54928,1,10
104,214,55043,1,0
48,214,55158,1,0
256,192,55389,8,4,56312
256,192,57235,8,6,58158
352,256,59081,6,0,B|407:193|344:124,1,140,2|0
256,192,59543,1,8
195,156,59658,2,0,B|173:194|198:224,1,70,0|0
64,192,60005,1,2
64,122,60235,2,0,B|64:202,1,70,2|0
64,262,60466,2,0,B|64:182,1,70,10|0
64,192,60697,1,2
448,192,60928,1,2
378,192,61158,1,0
378,192,61274,2,0,B|458:192,3,70,0|8|0|0
304,192,61851,1,2
234,192,62081,1,0
234,192,62197,2,0,B|314:192,3,70,0|8|0|0
256,192,62774,8,4,64620
160,256,66466,6,0,B|105:193|168:124,1,140,2|0
256,192,66928,1,8
317,156,67043,2,0,B|339:194|314:224,1,70,0|0
448,192,67390,1,2
448,122,67620,2,0,B|448:202,1,70,2|0
448,262,67851,2,0,B|448:182,1,70,10|0
448,192,68082,1,2
64,192,68313,1,2
134,192,68543,1,0
134,192,68659,2,0,B|54:192,3,70,0|8|0|0
208,192,69236,1,2
278,192,69466,1,0
278,192,69582,2,0,B|198:192,3,70,0|8|0|0
256,192,70158,8,4,71081
256,192,72005,8,6,72928
48,336,73966,6,0,B|192:336,1,140
464,48,75870,6,0,B|320:48,1,140
464,352,77775,6,0,B|464:208,1,140,8|0
336,352,78727,2,0,B|336:208,1,140,8|0
208,352,79680,2,0,B|208:208,1,140,8|0
48,352,80632,1,8
48,304,80870,1,8
48,256,81108,1,8
48,232,81227,1,8
48,208,81346,1,0
464,48,81585,6,0,B|176:48,1,280
48,336,83445,6,0,B|336:336,1,280
48,32,85280,6,0,B|48:176,1,140,8|0
176,32,86215,2,0,B|176:176,1,140,8|0
304,32,87150,2,0,B|304:176,1,140,8|0
464,32,88110,1,8
464,80,88382,1,8
464,128,88655,1,8
464,152,88791,1,8
464,176,88928,1,0
448,272,89160,5,0
336,304,89389,1,0
368,192,89618,2,0,B|368:144|336:112,2,70
256,224,90076,1,0
176,288,90305,2,0,B|144:224,1,70
96,224,90534,2,0,B|64:160,1,70
128,160,90763,1,0
160,48,90992,5,0
272,64,91221,2,0,B|288:112|224:144,3,70
253,127,91679,1,0
368,112,91908,1,0
448,192,92137,2,0,B|416:256,1,70
384,208,92366,2,0,B|352:272,1,70
320,224,92595,1,0
208,192,92824,5,0
176,304,93053,1,0
96,224,93282,2,0,B|48:208|80:160,2,70
144,112,93740,1,0
256,96,93969,1,0
304,64,94083,2,0,B|272:128,1,70
336,144,94312,2,0,B|368:80,1,70
256,192,94656,8,0,96030
64,272,96488,5,0
176,304,96717,1,0
144,192,96946,2,0,B|144:144|176:112,2,70
256,224,97404,1,0
336,288,97633,2,0,B|368:224,1,70
416,224,97862,2,0,B|448:160,1,70
384,160,98091,1,0
352,48,98320,5,0
240,64,98549,1,0
240,64,98663,2,0,B|224:112|288:144,3,70
144,112,99236,1,0
64,192,99465,2,0,B|96:256,1,70
128,208,99694,2,0,B|160:272,1,70
192,224,99923,1,0
304,192,100152,5,0
336,304,100381,1,0
416,224,100610,2,0,B|464:208|432:160,2,70
368,112,101068,1,0
256,96,101297,1,0
208,64,101411,2,0,B|240:128,1,70
176,144,101640,2,0,B|144:80,1,70
256,192,101984,8,4,103358
448,64,103816,5,2
448,176,104045,1,0
336,208,104274,2,0,B|288:176|320:144,1,70,8|0
314,152,104503,1,0
224,64,104732,2,0,B|224:160|128:208,1,140,2|2
48,192,105190,2,0,B|48:288|144:320,1,140,10|2
224,304,105648,1,2
336,272,105877,1,0
256,192,106106,2,0,B|272:128|368:176,1,70,8|0
308,156,106335,1,0
448,64,106564,1,2
464,224,106908,1,0
432,256,107022,1,8
320,304,107251,1,0
272,320,107366,2,2,B|224:320,2,35
288,224,107709,5,0
176,256,107938,2,0,B|112:272|96:192,2,70,8|0|0
192,144,108396,1,0
336,48,108740,2,0,B|272:32|256:96,1,70,0|8
160,48,109083,1,0
80,112,109312,1,0
304,128,109770,1,8
368,272,110228,1,2
304,304,110381,1,2
240,336,110534,1,2
208,272,110686,1,10
112,304,110915,1,2
96,352,111030,1,2
64,320,111144,6,0,B|16:256|64:176,1,140,2|0
160,160,111602,1,8
112,128,111717,2,0,B|128:80|176:96,1,70
288,64,112060,2,0,B|288:160|384:208,1,140,2|2
464,192,112518,2,0,B|464:288|368:320,1,140,10|2
288,304,112976,1,2
176,272,113205,2,0,B|176:224|224:224,1,70
176,272,113434,1,8
368,160,113892,1,2
288,80,114121,1,2
176,48,114350,1,10
400,48,114808,1,2
464,144,115037,5,0
416,256,115266,2,0,B|352:272|368:208,1,70,8|0
416,256,115495,1,0
256,320,115724,1,0
256,192,116182,8,4,118014
448,192,118472,5,2
352,128,118701,1,0
333,242,118930,1,8
288,208,119045,2,0,B|288:272|368:224,1,70
432,304,119389,2,0,B|368:352|288:336,1,140,2|2
301,339,119732,1,0
256,320,119847,2,0,B|240:272|192:304,1,70,10|0
202,299,120076,1,2
96,336,120305,1,2
48,240,120534,1,0
96,256,120648,2,0,B|96:192|32:160,1,70,0|8
74,192,120877,2,0,B|80:128|144:96,1,70
192,192,121221,1,2
128,96,121450,2,0,B|160:48|208:80,1,70
240,80,121679,1,8
240,80,121793,2,0,B|256:128|304:96,1,70
293,101,122022,2,2,B|339:101,2,35
352,192,122366,5,0
288,288,122595,2,0,B|240:288|240:240,2,70,8|0|0
400,272,123053,1,0
448,176,123282,2,0,B|448:128|480:80,1,70
400,112,123511,2,0,B|400:64|368:16,1,70,8|0
336,64,123740,1,0
240,128,123969,1,0
128,128,124198,2,0,B|128:176|176:192,1,70
161,186,124427,2,0,B|160:240|112:256,2,70,8|0|0
240,272,124885,5,2
176,320,125037,1,2
96,320,125190,1,2
48,256,125343,1,10
144,208,125572,1,2
112,160,125686,1,2
64,192,125801,5,2
160,128,126030,1,0
180,242,126259,1,8
224,208,126373,2,0,B|224:272|144:224,1,70
80,304,126717,2,0,B|144:352|224:336,1,140,2|2
212,339,127060,1,0
256,320,127175,2,0,B|272:272|320:304,1,70,10|0
311,299,127404,1,2
416,336,127633,1,2
464,240,127862,1,0
416,256,127976,2,0,B|416:192|480:160,1,70,0|8
439,192,128205,2,0,B|432:128|368:96,1,70
320,192,128549,1,2
384,96,128778,2,0,B|352:48|304:80,1,70,2|0
272,80,129007,1,10
272,80,129121,2,0,B|256:128|208:96,1,70
112,144,129465,1,2
208,208,129694,5,0
144,304,129923,2,0,B|80:304|80:208,1,70,8|0
90,268,130152,1,0
208,288,130381,1,0
304,336,130610,2,0,B|336:288|304:240,1,70
318,270,130839,2,0,B|368:240|416:272,1,70,10|0
368,320,131068,1,2
464,272,131297,1,2
464,160,131526,2,0,B|416:128|368:160,1,70
464,160,131755,1,8
400,64,131984,1,0
345,46,132098,1,2
288,48,132213,1,8
233,59,132327,1,2
181,81,132442,1,10
135,112,132556,1,10
96,152,132671,1,2
65,199,132785,1,8
47,252,132900,1,8
47,309,133014,1,8
94,337,133129,6,0,B|112:352|128:336,2,35,2|0|8
146,314,133701,1,0
107,275,133816,1,0
219,275,134045,1,2
321,324,134274,1,2
339,271,134389,1,0
395,282,134503,1,10
443,253,134618,1,0
428,199,134732,1,2
321,168,134961,2,0,B|240:213|208:128,1,140,2|0
249,90,135305,1,0
299,115,135419,1,8
349,91,135534,1,0
404,104,135648,1,0
54,55,135877,1,2
81,164,136106,1,0
110,116,136221,1,0
135,167,136335,1,8
104,214,136450,1,0
48,214,136564,1,0
256,192,136793,8,4,138625
418,47,140457,6,0,B|400:32|384:48,2,35,2|0|8
366,70,141030,1,0
405,109,141144,1,0
293,109,141373,1,2
191,60,141602,1,2
173,113,141717,1,0
117,102,141831,1,10
69,131,141946,1,0
84,185,142060,1,2
191,216,142289,2,0,B|272:171|304:256,1,140,2|0
263,294,142633,1,0
213,269,142747,1,8
163,293,142862,1,0
108,280,142976,1,0
458,329,143205,1,2
431,220,143434,1,2
402,268,143549,1,0
377,217,143663,1,10
408,170,143778,1,0
464,170,143892,1,0
256,192,144121,8,4,145037
256,192,145953,8,6,146869
352,128,147785,6,0,B|407:191|352:256,1,140,2|0
256,192,148243,1,8
195,228,148358,2,0,B|173:190|192:160,1,70,0|0
64,192,148701,1,2
64,262,148930,2,0,B|64:176,1,70,2|0
64,122,149159,2,0,B|64:208,1,70,10|0
64,192,149389,1,2
448,192,149618,1,2
378,192,149847,1,0
378,192,149961,2,0,B|464:192,3,70,0|8|0|0
304,192,150534,1,2
234,192,150763,1,0
234,192,150877,2,0,B|320:192,3,70,0|8|0|0
256,192,151450,8,0,153282
160,128,155114,6,0,B|105:191|160:256,1,140,2|0
256,192,155572,1,8
317,228,155687,2,0,B|339:190|320:160,1,70,0|0
448,192,156030,1,2
448,262,156259,2,0,B|448:176,1,70,2|0
448,122,156488,2,0,B|448:208,1,70,10|0
448,192,156718,1,2
64,192,156947,1,2
134,192,157176,1,0
134,192,157290,2,0,B|48:192,3,70,0|8|0|0
208,192,157863,1,2
278,192,158092,1,0
278,192,158206,2,0,B|192:192,3,70,0|8|0|0
256,192,158778,8,4,159694
256,192,160610,8,6,161562
48,352,162574,5,0
208,352,163054,1,8
48,256,163534,1,0
128,256,163894,1,0
128,256,164014,1,8
208,256,164254,1,0
208,144,164494,5,0
48,144,164974,1,8
48,144,165094,1,0
48,48,165454,1,0
128,48,165814,1,0
128,48,165934,1,8
208,48,166174,1,0
304,48,166414,5,4
360,48,166650,1,0
416,48,166886,1,8
464,48,167122,1,0
464,128,167358,1,4
416,128,167595,1,0
352,128,167831,1,8
304,128,168067,1,0
304,240,168303,5,4
368,240,168539,1,0
432,240,168776,1,8
448,240,168894,1,0
464,240,169012,1,0
464,336,169248,1,4
400,336,169484,1,4
376,336,169602,1,0
352,336,169721,1,4
328,336,169839,1,4
304,336,169957,1,8
48,336,170200,5,0
464,48,171116,1,0
384,96,171459,1,0
304,144,171803,1,0
256,176,172032,1,0
144,80,172604,1,0
96,160,172948,1,0
112,240,173291,1,0
160,304,173635,1,0
384,336,174098,5,0
448,240,174332,1,0
336,224,174567,1,0
224,208,175035,1,0
288,112,175504,1,0
80,48,175993,1,0
48,208,176374,1,0
160,336,176755,1,0
336,336,177137,1,0
464,224,177518,1,0
