osu file format v9

[General]
AudioFilename: ZUN - Beloved Tomboyish Girl.mp3
AudioLeadIn: 1000
PreviewTime: 32065
Countdown: 0
SampleSet: Soft
StackLeniency: 0.7
Mode: 0
LetterboxInBreaks: 0

[Editor]
DistanceSpacing: 2
BeatDivisor: 4
GridSize: 4

[Metadata]
Title:Beloved Tomboyish Girl
Artist:ZUN
Creator:Tenshi-nyan
Version:Lunatic
Source:Touhou
Tags:eosd embodiment of scarlet devil cirno leorda lennox darkdunskin -Lennox-

[Difficulty]
HPDrainRate:8
CircleSize:4
OverallDifficulty:7
ApproachRate:8
SliderMultiplier:2
SliderTickRate:2

[Events]
//Background and Video events
0,0,"BG.jpg"
//Break Periods
//Storyboard Layer 0 (Background)
//Storyboard Layer 1 (Fail)
//Storyboard Layer 2 (Pass)
//Storyboard Layer 3 (Foreground)
//Storyboard Sound Samples
//Background Colour Transformations
3,100,163,162,255

[TimingPoints]
1276,394.736842105263,4,2,1,80,1,0
17065,-100,4,2,1,60,0,0
17164,-100,4,2,1,80,0,0
32854,-100,4,2,1,70,0,0
39170,-100,4,2,1,60,0,0
39565,-100,4,2,1,70,0,0
45486,-100,4,2,1,60,0,0
45881,-100,4,2,1,70,0,0
51802,-100,4,2,1,60,0,0
51999,-100,4,2,1,70,0,0
58118,-100,4,2,1,60,0,0
58512,-100,4,2,1,70,0,0
64433,-100,4,2,1,60,0,0
64631,-100,4,2,1,70,0,0
70749,-100,4,2,1,60,0,0
71144,-100,4,2,1,70,0,0
77065,-100,4,2,1,60,0,0
77262,-100,4,2,1,70,0,0
86539,400,4,2,1,50,1,0
86739,-100,4,2,1,60,0,0
87336,422.535211267606,4,2,1,60,1,0
87547,-100,4,2,1,70,0,0
88181,-100,4,2,1,50,0,0

[Colours]
Combo1 : 0,128,255
Combo2 : 128,128,255
Combo3 : 0,128,192

[HitObjects]
117,114,1276,1,0
173,194,1473,1,0
173,194,1572,1,0
173,194,1670,1,8
173,298,1868,1,0
261,250,2065,1,0
261,250,2164,1,0
261,250,2262,2,0,B|325:282|301:362,2,100,0|8|0
213,231,2756,5,0
147,156,2953,1,0
115,116,3052,1,0
115,68,3151,1,0
155,36,3249,1,8
230,101,3447,1,0
386,115,3644,5,0
377,164,3743,1,0
352,206,3841,1,0
312,232,3940,1,0
263,252,4039,2,0,B|151:292|39:212,1,200,8|0
70,232,4532,1,0
70,232,4631,5,0
112,120,4828,1,8
232,120,5026,1,0
312,32,5223,1,0
352,48,5322,1,0
376,80,5420,1,0
408,192,5618,2,0,B|427:249|408:320,1,100,8|0
208,344,6012,5,0
72,280,6210,1,0
192,192,6407,1,8
208,344,6604,2,0,B|208:288|136:248,1,100
64,144,6999,1,0
64,144,7098,1,0
64,144,7197,1,8
232,32,7394,1,0
272,224,7591,5,0
328,120,7789,1,0
232,32,7986,2,0,B|176:80|176:136,1,100,8|0
64,144,8381,1,0
144,232,8578,1,0
160,257,8677,1,0
179,279,8775,1,8
197,302,8874,1,0
215,325,8973,1,0
320,264,9170,5,0
392,80,9368,1,0
200,128,9565,1,8
392,192,9762,2,0,B|448:216|448:288,2,100
200,128,10354,1,8
168,136,10453,1,8
136,144,10552,1,8
48,264,10749,5,0
152,320,10947,1,0
56,360,11144,1,8
144,232,11341,2,0,B|200:240|256:168,1,100
256,168,11637,1,0
272,144,11736,1,0
280,112,11835,1,0
280,80,11933,1,8
160,96,12131,1,0
384,168,12328,5,0
160,96,12525,1,0
384,168,12723,1,8
160,96,12920,2,0,B|72:80|0:152|40:240,1,200
152,208,13512,5,8
152,208,13611,1,0
152,208,13710,1,0
296,248,13907,2,0,B|328:304|384:304,1,100
464,128,14302,2,0,B|432:72|376:72,1,100,8|0
296,248,14697,5,0
384,72,14894,1,0
384,72,14993,1,0
384,72,15091,1,8
280,136,15289,1,0
112,248,15486,5,0
296,336,15683,1,0
280,136,15881,1,8
104,48,16078,1,0
216,216,16275,5,8
216,216,16374,1,8
216,216,16473,1,8
296,336,16670,1,8
296,336,16769,1,8
296,336,16868,1,8
360,232,17065,6,0,B|400:192|384:112,1,100,4|0
376,88,17361,1,0
344,48,17460,2,0,B|296:24|208:56,1,100,8|0
208,160,17854,1,0
128,72,18052,1,0
111,102,18150,1,0
97,134,18249,1,8
79,164,18348,1,0
61,194,18447,1,0
168,304,18644,5,0
208,160,18841,1,0
328,256,19039,2,0,B|440:256,1,100,8|0
360,120,19433,1,0
208,160,19631,1,0
208,160,19729,1,0
208,160,19828,1,8
168,304,20025,1,0
72,192,20223,5,0
192,32,20420,1,0
72,192,20618,1,8
208,160,20815,2,0,B|296:160|296:256|384:256,1,200
376,136,21407,1,8
208,248,21604,1,0
88,96,21802,6,0,B|56:144|80:216,1,100
192,344,22197,2,0,B|224:296|200:224,1,100,8|0
88,96,22591,1,0
208,248,22789,1,0
232,112,22986,1,8
272,96,23085,1,8
312,80,23183,1,8
408,152,23381,5,0
272,216,23578,1,0
392,304,23776,1,8
408,152,23973,2,0,B|408:208|336:248,1,100
264,352,24368,1,0
264,352,24466,1,0
264,352,24565,1,8
357,234,24762,1,0
280,32,24960,5,0
240,224,25157,1,0
184,120,25354,1,8
280,32,25552,2,0,B|336:80|336:136,1,100,0|0
240,224,25947,1,0
160,336,26144,2,0,B|96:328|64:280,1,100,8|0
184,120,26539,6,0,B|248:128|280:176,1,100,0|0
288,296,26933,1,8
288,296,27032,1,0
288,296,27131,1,0
392,232,27328,1,0
384,112,27526,1,0
368,88,27624,1,0
352,64,27723,1,8
328,40,27822,1,0
304,24,27920,1,0
216,104,28118,5,0
176,120,28216,1,0
144,152,28315,1,0
120,192,28414,1,0
112,240,28512,1,8
128,280,28611,1,0
152,320,28710,1,0
192,344,28808,1,0
240,352,28907,1,0
288,352,29006,1,0
328,336,29104,1,0
360,304,29203,1,0
376,264,29302,2,0,B|392:232,8,25,0|0|0|0|0|0|0|0|4
304,208,29894,5,0
248,144,30091,1,0
248,56,30289,1,4
72,96,30683,1,0
72,96,30782,1,0
72,96,30881,1,0
256,192,31276,12,4,32854
160,152,33249,5,2
200,264,33447,1,8
320,264,33644,1,0
360,152,33841,1,0
256,88,34039,1,2
256,88,34137,1,0
256,88,34236,1,8
200,264,34433,1,0
88,312,34631,5,0
64,296,34729,1,0
40,280,34828,1,2
32,160,35026,1,8
8,144,35124,1,0
64,40,35322,1,0
88,64,35420,1,8
160,160,35618,5,2
280,72,35815,1,8
312,216,36012,2,0,B|368:232|384:312,2,100,0|0|2
456,176,36604,2,0,B|400:160|384:80,2,100,8|0|0
496,288,37197,1,2
496,288,37295,1,0
496,288,37394,1,8
400,360,37591,1,0
304,288,37789,5,0
280,272,37887,1,0
256,256,37986,1,2
184,160,38183,1,8
160,136,38282,1,0
120,248,38479,1,0
96,224,38578,1,8
56,80,38775,6,0,B|96:16|176:24,1,100,2|8
264,104,39170,2,0,B|360:184,1,100,4|0
408,304,39565,2,0,B|464:288|488:224,1,100,2|8
448,120,39960,1,0
339,169,40157,1,0
352,48,40354,1,2
352,48,40552,1,8
208,96,40749,5,0
120,256,40947,1,0
288,256,41144,1,2
136,168,41341,1,8
208,336,41539,1,0
272,168,41736,1,0
208,96,41933,2,0,B|208:49|277:10|352:48|352:104,1,200,2|0
440,256,42525,6,0,B|416:320|352:336,1,100,0|2
208,236,42920,2,0,B|224:176|273:167,1,100,8|0
408,128,43315,2,0,B|480:40,2,100,0|2|8
296,296,43907,1,0
272,168,44104,5,0
272,168,44203,1,0
272,168,44302,2,0,B|248:120|176:120,1,100,2|8
296,296,44697,1,0
152,272,44894,5,0
24,192,45091,1,2
56,48,45289,1,8
208,32,45486,6,0,B|336:32|368:176,1,200,4|2
408,248,46078,1,8
296,296,46275,1,0
248,184,46473,1,0
168,272,46670,1,2
168,272,46769,1,0
168,272,46868,1,8
120,160,47065,5,0
200,72,47262,1,0
228,62,47361,1,0
256,52,47460,1,2
342,135,47657,1,8
369,123,47756,1,0
437,221,47953,1,0
412,239,48052,1,8
288,328,48249,5,2
240,184,48447,1,8
192,40,48644,1,0
80,88,48841,5,0
80,88,48940,1,0
80,88,49039,1,2
56,200,49236,1,8
171,269,49433,1,0
288,328,49631,1,0
280,208,49828,1,2
280,208,49927,1,0
280,208,50025,1,8
192,40,50223,5,0
304,104,50420,1,0
332,94,50519,1,0
359,81,50618,1,2
446,162,50815,1,8
473,148,50914,1,0
488,264,51111,1,0
461,278,51210,1,8
280,208,51407,6,0,B|248:312|120:332,1,200,2|4
144,144,51999,1,0
280,208,52197,1,2
256,64,52394,1,8
144,144,52591,2,0,B|96:184|88:232|96:232,1,100
280,208,52986,2,0,B|288:264|360:312,1,100,2|8
424,136,53381,5,0
256,64,53578,1,0
168,224,53775,1,2
332,292,53973,1,8
424,136,54170,2,0,B|424:192|488:232,2,100,0|0|2
424,136,54762,1,8
256,64,54960,5,0
168,224,55157,1,0
72,72,55354,1,2
230,152,55552,1,8
333,293,55749,1,0
168,224,55947,2,0,B|136:280|168:344,1,100,0|2
256,64,56341,2,0,B|286:26|352:24,1,100,8|0
230,152,56736,5,0
230,152,56835,1,0
230,152,56933,1,2
128,96,57131,1,8
128,96,57328,1,0
80,288,57525,6,0,B|80:304|58:346|8:352,2,100,0|2|8
128,96,58118,2,0,B|136:208|248:248,1,200,4|2
248,128,58710,1,8
392,240,58907,1,0
248,128,59104,1,0
416,72,59302,1,2
416,72,59400,1,0
416,72,59499,1,8
296,208,59697,6,0,B|260:312|128:312,1,200,0|2
8,128,60289,2,0,B|44:24|176:36,1,200,0|0
296,208,60881,1,2
120,150,61078,1,8
296,208,61275,6,0,B|304:280|384:304,1,100
432,160,61670,1,2
328,48,61868,1,8
208,136,62065,2,0,B|192:208|120:224,1,100
80,80,62460,1,2
80,80,62558,1,0
80,80,62657,1,8
48,280,62854,6,0,B|104:368|232:336,1,200,0|2
464,104,63447,2,0,B|408:16|280:48,1,200,8|0
152,192,64039,5,2
344,136,64236,1,8
312,336,64433,5,4
256,200,64631,2,0,B|216:96,1,100,0|2
24,56,65025,2,0,B|64:168,1,100,8|0
160,40,65420,1,0
152,192,65618,1,2
224,320,65815,1,8
344,160,66012,6,0,B|392:184|400:272,1,100
168,224,66407,2,0,B|120:200|112:112,1,100,2|8
474,269,66802,2,0,B|450:317|362:325,1,100
38,115,67197,2,0,B|62:67|150:59,1,100,2|8
168,224,67591,5,0
328,304,67789,1,0
320,128,67986,1,2
192,256,68183,1,8
368,304,68381,1,0
320,128,68578,1,0
232,280,68775,1,2
416,288,68973,1,8
320,128,69170,6,0,B|320:81|251:42|168:72|168:144,1,200,0|2
232,280,69762,1,8
232,280,69960,1,0
64,248,70157,5,0
173,121,70354,1,2
213,113,70453,1,0
253,105,70552,1,8
293,97,70650,1,0
333,89,70749,1,4
400,192,70947,6,0,B|416:248|480:272,1,100,0|2
320,304,71341,1,8
200,216,71539,2,0,B|208:272|160:320,1,100
64,200,71933,1,2
64,200,72032,1,0
64,200,72131,1,8
145,74,72328,1,0
200,216,72525,5,0
216,240,72624,1,0
232,264,72723,1,2
304,168,72920,1,8
320,192,73019,1,0
408,112,73216,1,0
424,136,73315,1,8
440,312,73512,5,2
264,352,73710,1,8
112,256,73907,1,0
64,112,74104,6,0,B|120:96|136:16,2,100,0|2|8
248,112,74697,2,0,B|192:128|176:208,2,100,0|0|2
248,112,75190,1,0
248,112,75289,1,8
304,248,75486,1,0
384,160,75683,5,0
408,144,75782,1,0
432,128,75881,1,2
352,40,76078,1,8
376,16,76177,1,0
256,16,76374,1,0
236,40,76473,1,8
104,192,76670,6,0,B|104:312|216:360,1,200,2|4
216,232,77262,2,0,B|264:192|312:192,1,100,0|2
448,248,77657,2,0,B|496:200|472:136,1,100,8|0
368,56,78052,1,0
304,192,78249,1,2
208,80,78447,1,8
144,216,78644,6,0,B|144:284|72:336,1,100
368,168,79039,2,0,B|368:104|440:48,1,100,2|8
208,80,79433,1,0
280,272,79631,1,0
248,176,79828,1,2
248,176,79927,1,0
248,176,80025,1,8
144,216,80223,6,0,B|96:240|88:328,1,100
368,168,80618,2,0,B|416:192|424:280,1,100,2|8
14,325,81012,2,0,B|38:373|126:381,1,100
496,280,81407,2,0,B|472:328|384:336,1,100,2|8
248,176,81802,2,0,B|240:48|112:16,1,200,0|2
80,160,82394,5,8
152,288,82591,1,8
152,288,82690,1,8
248,176,82887,1,8
271,157,82986,1,8
296,141,83085,1,8
320,124,83183,1,8
345,108,83282,1,8
368,89,83381,5,4
457,194,83578,1,2
424,312,83776,1,8
304,344,83973,1,2
256,232,84170,1,8
208,344,84368,1,2
88,312,84565,1,8
55,194,84763,1,2
184,64,84960,6,0,B|249:77|272:136,2,100,0|2|8
256,232,85552,2,0,B|321:219|344:160,2,100,2|8|2
56,196,86144,1,8
56,196,86243,1,0
56,196,86341,1,2
168,144,86539,5,4
268,77,86739,1,2
384,80,86939,1,8
328,184,87139,1,2
384,280,87336,1,8
268,280,87547,1,2
188,184,87758,2,0,B|104:184,4,50,0|0|0|0|4
