osu file format v9

[General]
AudioFilename: ZUN - Beloved Tomboyish Girl.mp3
AudioLeadIn: 0
PreviewTime: 32065
Countdown: 0
SampleSet: Soft
StackLeniency: 0.7
Mode: 0
LetterboxInBreaks: 0

[Editor]
DistanceSpacing: 1
BeatDivisor: 4
GridSize: 4

[Metadata]
Title:Beloved Tomboyish Girl
Artist:ZUN
Creator:Tenshi-nyan
Version:Hard
Source:Touhou
Tags:eosd embodiment of scarlet devil cirno leorda lennox darkdunskin -Lennox-

[Difficulty]
HPDrainRate:6
CircleSize:4
OverallDifficulty:6
ApproachRate:7
SliderMultiplier:1.6
SliderTickRate:2

[Events]
//Background and Video events
0,0,"BG.jpg"
//Break Periods
//Storyboard Layer 0 (Background)
//Storyboard Layer 1 (Fail)
//Storyboard Layer 2 (Pass)
//Storyboard Layer 3 (Foreground)
//Storyboard Sound Samples
//Background Colour Transformations
3,100,163,162,255

[TimingPoints]
1276,394.736842105263,4,2,1,80,1,0
17065,-100,4,2,1,60,0,0
17164,-100,4,2,1,80,0,0
32854,-100,4,2,1,70,0,0
39170,-100,4,2,1,60,0,0
39565,-100,4,2,1,70,0,0
45486,-100,4,2,1,60,0,0
45881,-100,4,2,1,70,0,0
51802,-100,4,2,1,60,0,0
51999,-100,4,2,1,70,0,0
58118,-100,4,2,1,60,0,0
58512,-100,4,2,1,70,0,0
64433,-100,4,2,1,60,0,0
64631,-100,4,2,1,70,0,0
70749,-100,4,2,1,60,0,0
71144,-100,4,2,1,70,0,0
77065,-100,4,2,1,60,0,0
77262,-100,4,2,1,70,0,0
86539,400,4,2,1,70,1,0
87336,422.535211267606,4,2,1,70,1,0
87969,-100,4,2,1,80,0,0
88181,-100,4,2,1,50,0,0

[Colours]
Combo1 : 0,128,255
Combo2 : 128,128,255
Combo3 : 0,128,192

[HitObjects]
128,88,4039,2,0,B|144:160|240:192,1,160,8|0
296,136,4631,1,0
336,64,4828,2,0,B|392:88|376:152,2,80,8|0|0
416,216,5618,1,8
272,280,6012,5,0
192,272,6210,1,0
160,200,6407,1,8
240,192,6604,2,0,B|232:96|120:72,1,160
96,144,7197,2,0,B|56:176|48:216,1,80,8|0
88,280,7591,6,0,B|88:336|48:368,2,80,0|0|8
136,216,8183,2,0,B|216:224|280:296,1,160
336,344,8776,2,0,B|424:304|432:208,1,160,8|0
360,176,9368,5,0
424,128,9565,2,0,B|392:88|336:88,1,80,8|0
224,176,10157,2,0,B|256:136|312:136,1,80,0|8
360,176,10552,1,8
302,231,10749,5,0
227,259,10947,1,0
155,222,11144,1,8
224,176,11341,2,0,B|200:88|88:80,1,160
88,160,11933,2,0,B|48:240|104:328,1,160,8|0
176,336,12525,6,0,B|232:344|272:304,1,80,0|8
224,248,12920,2,0,B|280:200|368:248|368:312,1,160
440,304,13512,2,0,B|464:256|440:192,1,80,8|0
384,184,13907,5,0
448,136,14104,2,0,B|416:80|376:88,1,80,0|8
312,120,14499,2,0,B|259:80|180:115|180:176,1,160
264,192,15091,2,0,B|263:246|186:277|132:229,1,160,8|0
72,160,15683,5,0
128,80,15881,1,8
216,48,16078,1,0
216,48,16177,1,0
216,48,16275,2,0,B|320:24|368:112,1,160,8|8
448,136,16868,2,0,B|416:216,1,80,0|4
360,280,17262,5,0
360,280,17361,1,0
360,280,17460,2,0,B|272:320|200:272,1,160,8|0
128,304,18052,2,0,B|80:312|56:344,2,80,0|8|0
144,224,18644,1,0
120,144,18841,2,0,B|152:96|208:96,1,80,0|8
216,176,19236,2,0,B|304:184|392:160,1,160
456,160,19828,1,8
416,232,20025,1,0
360,288,20223,6,0,B|384:336|448:344,2,80,0|0|8
296,240,20815,2,0,B|232:328|128:296,1,160
80,336,21407,2,0,B|8:264|64:184,1,160,8|0
152,216,21999,5,0
216,144,22197,1,8
304,96,22394,2,0,B|392:136|392:248,1,160
320,288,22986,1,8
320,288,23085,1,8
320,288,23183,1,8
240,240,23381,6,0,B|192:272|200:320,2,80,0|0|8
312,200,23973,2,0,B|288:112|168:112,1,160
168,192,24565,2,0,B|112:192|64:128|96:56,1,160,8|0
160,40,25157,1,0
240,16,25354,1,8
312,56,25552,2,0,B|416:72|440:176,1,160
456,224,26144,2,0,B|448:288|384:304,1,80,8|0
368,224,26539,6,0,B|256:224,1,80
240,288,26933,1,8
192,224,27131,2,0,B|88:224|48:136,1,160
104,88,27723,2,0,B|296:88,1,160,8|0
304,176,28315,5,0
384,120,28512,1,8
408,216,28710,2,0,B|360:296|272:296,1,160
216,224,29302,2,0,B|152:224,4,40,8|0|8|0|4
216,144,29894,6,0,B|112:144,1,80
72,68,30289,2,0,B|-8:132|72:228,1,160,4|0
57,208,30782,1,0
57,208,30881,1,0
256,192,31275,12,4,32854
184,120,33249,6,0,B|179:168|224:192,1,80,2|8
272,128,33644,1,0
320,192,33841,1,0
296,272,34039,2,0,B|336:312,2,40,2|0|8
216,272,34433,2,0,B|112:264|88:192,1,160,0|2
16,152,35025,2,0,B|40:80|152:80,1,160,8|0
168,160,35618,1,2
240,192,35815,1,8
352,144,36012,6,0,B|440:184|448:296,1,160,0|2
376,312,36604,1,8
328,248,36802,2,0,B|280:280|280:328,1,80,0|0
196,312,37197,1,2
196,312,37295,1,0
196,312,37394,2,0,B|195:275|146:250,1,80,0|0
240,192,37789,2,0,B|240:112,2,80,0|2|8
320,96,38381,1,0
400,64,38578,1,0
392,144,38776,6,0,B|456:210|424:304,1,160,2|4
296,200,39565,1,2
224,232,39762,1,8
160,280,39960,2,0,B|120:304|104:344,2,80,0|0|2
224,232,40552,1,8
144,184,40749,6,0,B|152:136|192:104,1,80
272,72,41144,2,0,B|320:56|360:80,1,80,2|8
440,112,41539,2,0,B|468:133|476:181,1,80
392,176,41933,2,0,B|208:176,1,160,2|0
112,64,42526,6,0,B|72:88|72:136,1,80,0|2
72,224,42920,2,0,B|71:265|111:289,1,80,8|0
120,176,43315,2,0,B|40:176,2,80,0|2|8
216,176,43907,5,0
472,168,44499,1,8
472,168,44697,1,0
392,168,44894,6,0,B|304:168,2,80,0|2|8
424,240,45486,2,0,B|368:312|272:304,1,160,4|2
208,336,46078,2,0,B|144:304|152:248,1,80,8|0
216,224,46473,1,0
136,200,46670,2,0,B|96:152,2,40,2|0|8
192,136,47065,2,0,B|240:64|360:88,1,160,0|2
400,128,47657,1,8
344,280,48052,5,0
256,312,48249,1,2
256,216,48447,1,8
168,256,48644,2,0,B|138:156|258:123,1,160,0|2
320,152,49236,1,8
390,208,49433,1,0
344,280,49631,1,0
256,312,49828,2,0,B|272:352,2,40,2|0|8
144,328,50223,6,0,B|48:296|72:176,1,160,0|2
144,232,50815,2,0,B|144:128|232:96,1,160,8|0
280,48,51407,2,0,B|320:88|312:144,2,80,2|8|4
256,240,52197,5,2
328,200,52394,1,8
336,280,52591,2,0,B|384:304|384:344,2,80,0|0|2
256,328,53183,1,8
176,280,53381,6,0,B|136:224|160:176,1,80
256,240,53776,2,0,B|256:152,1,80,2|8
168,120,54170,2,0,B|104:120|80:168,2,80,0|0|2
360,96,54960,6,0,B|416:112|440:168,1,80
344,192,55354,1,2
360,288,55552,2,0,B|416:272|440:216,1,80,8|0
344,192,55947,2,0,B|256:192,2,80,0|2|8
440,192,56539,5,0
40,192,57131,1,8
40,192,57328,1,0
136,192,57526,6,0,B|224:192,2,80
184,280,58118,2,4,B|368:280,1,160,4|2
430,272,58710,2,0,B|430:216|374:200,1,80,8|0
328,160,59104,1,0
402,119,59302,1,2
402,119,59400,1,0
402,119,59499,2,0,B|370:79|306:79,1,80,8|0
240,208,60091,1,2
240,208,60289,1,8
105,77,60683,5,0
49,157,60881,1,2
49,253,61078,1,8
136,208,61276,2,0,B|304:208,1,160,0|2
320,128,61868,2,0,B|384:152|392:208,1,80,8|0
456,208,62262,1,0
384,264,62460,1,2
384,264,62558,1,0
384,264,62657,2,0,B|356:313|304:320,1,80,8|0
184,232,63249,1,2
184,232,63447,1,8
352,64,64039,6,0,B|400:80|408:144,2,80,2|8|4
240,176,64828,1,2
184,232,65026,1,8
152,160,65223,2,0,B|120:120|72:128,2,80,0|0|2
240,176,65815,1,8
312,224,66012,6,0,B|352:168|328:120,1,80
240,176,66407,2,0,B|240:88,1,80,2|8
328,56,66802,2,0,B|392:56|416:104,2,80,0|0|2
240,96,67394,1,8
152,56,67591,6,0,B|88:56|64:104,2,80,0|0|2
152,152,68183,2,0,B|152:264,1,80,8|0
152,328,68578,2,0,B|88:328|64:280,2,80,0|2|8
232,280,69170,2,0,B|328:256|336:144,1,160,0|2
328,72,69762,1,8
328,72,69960,1,0
263,122,70157,6,0,B|221:141|223:194,2,80,0|2|8
230,47,70749,2,0,B|126:87|142:199,1,160,4|2
170,246,71341,1,8
248,272,71539,2,0,B|280:312|352:312,1,80
316,225,71933,2,0,B|364:185,2,40,2|0|8
241,183,72328,2,0,B|257:127|305:95|377:95,1,160,0|2
432,160,72920,2,0,B|496:216|496:312,1,160,8|0
424,368,73512,5,2
368,288,73710,1,8
288,344,73907,2,0,B|200:304|208:208,1,160,0|2
283,184,74499,2,0,B|255:132|200:133,1,80,8|0
144,160,74894,1,0
152,72,75091,1,2
152,72,75190,1,0
152,72,75289,2,0,B|192:32|256:40,1,80,8|0
352,136,75881,1,2
283,184,76078,1,8
72,296,76670,6,0,B|120:312|128:360,2,80,2|8|4
216,232,77460,2,0,B|296:176,1,80,2|8
360,136,77854,2,0,B|392:176|368:208,2,80,0|0|2
272,104,78447,1,8
192,152,78644,2,0,B|120:208,1,80
40,168,79039,2,0,B|112:112,1,80,2|8
184,64,79433,2,0,B|256:0|368:48,1,160,0|2
424,64,80026,1,8
360,136,80223,6,0,B|399:174|384:240,2,80,0|0|2
280,192,80815,2,0,B|241:230|256:296,2,80,8|0|0
336,272,81407,2,0,B|336:360,1,80,2|8
240,352,81802,2,0,B|136:320|152:224,1,160,0|2
248,232,82394,2,0,B|248:144,2,80,8|8|0
336,272,82986,1,8
336,272,83085,1,8
336,272,83183,1,8
392,192,83381,6,0,B|433:169|440:112,2,80,4|2|8
328,120,83973,2,0,B|287:97|280:40,2,80,2|8|2
272,200,84565,1,8
272,200,84762,1,2
196,117,84960,2,0,B|128:104|71:192|128:280|196:268,1,240,0|2
272,200,85749,2,0,B|440:200,2,160,8|8|4
312,112,86739,6,0,B|280:72|208:72,2,80,2|0|2
272,200,87336,2,0,B|240:240|168:240,2,80,8|2|0
160,136,87969,2,0,B|72:136,1,80,2|4
