osu file format v13

[General]
AudioFilename: ZUN - (Extend Ash ~ Person of Hourai).mp3
AudioLeadIn: 0
PreviewTime: 1507
Countdown: 0
SampleSet: Soft
StackLeniency: 0.5
Mode: 0
LetterboxInBreaks: 0
WidescreenStoryboard: 1

[Editor]
Bookmarks: 16131,24639,74968,75160,130737
DistanceSpacing: 0.9
BeatDivisor: 4
GridSize: 4
TimelineZoom: 1.4

[Metadata]
Title:Abu Membentang ~ Sosok dari Hourai
TitleUnicode:エクステンドアッシュ ~ 蓬莱人
Artist:ZUN
ArtistUnicode:ZUN
Creator:MMd-
Version:Hourai
Source:Touhou Eiyashou ~ Imperishable Night
Tags:Extend Ash ~ Person of Hourai Fujiwara no Mokou Kamishirasawa Keine th08 Extra Stage
BeatmapID:527273
BeatmapSetID:226071

[Difficulty]
HPDrainRate:8
CircleSize:4
OverallDifficulty:8
ApproachRate:9
SliderMultiplier:1.7
SliderTickRate:1

[Events]
//Background and Video events
0,0,"87c7110d28214dda83fa3ab13b045f5f.jpg",0,0
//Break Periods
2,50937,56291
2,130737,142276
//Storyboard Layer 0 (Background)
//Storyboard Layer 1 (Fail)
//Storyboard Layer 2 (Pass)
//Storyboard Layer 3 (Foreground)
//Storyboard Sound Samples
//Background Colour Transformations
3,100,163,162,255

[TimingPoints]
1507,384.615384615385,4,2,1,80,1,0
1507,-125,4,2,1,80,0,0
4583,-100,4,2,1,80,0,0
7083,-66.6666666666667,4,2,1,80,0,0
7276,-100,4,2,1,80,0,0
81506,-133.333333333333,4,2,1,80,0,0
93814,-100,4,2,1,80,0,0
118430,-100,4,2,1,80,0,1
130352,-100,4,2,1,80,0,0
143045,-100,4,2,1,80,0,1
153814,-66.6666666666667,4,2,1,80,0,1
154583,-50,4,2,1,80,0,1
155353,-100,4,2,1,80,0,0

[Colours]
Combo1 : 200,0,0
Combo2 : 0,200,0
Combo3 : 170,170,255
Combo4 : 200,0,200
Combo5 : 255,255,0

[HitObjects]
153,124,1507,6,0,L|148:263,1,136,0|0,0:0|0:0,0:0:0:0:
325,209,2276,2,0,L|320:73,1,136,0|0,0:0|0:0,0:0:0:0:
419,140,2853,1,0,0:0:0:0:
231,173,3045,6,0,L|226:37,1,136,0|0,0:0|0:0,0:0:0:0:
246,272,3814,1,0,0:0:0:0:
238,291,4199,2,0,L|161:286,1,68
79,175,4583,6,0,L|163:179,1,85
292,80,4968,2,0,L|207:84,1,85
323,166,5353,2,0,P|369:133|359:22,1,170
230,154,5930,1,0,0:0:0:0:
227,167,6026,1,0,0:0:0:0:
225,182,6122,2,0,L|240:269,1,85
410,202,6507,2,0,L|418:160,2,42.5,0|0|0,0:0|0:0|0:0,0:0:0:0:
324,264,6891,1,0,0:0:0:0:
238,326,7083,6,0,L|232:368,4,31.8750012159348,0|0|0|0|0,0:0|0:0|0:0|0:0|0:0,0:0:0:0:
238,326,7660,5,2,0:0:0:0:
217,331,7756,1,2,0:0:0:0:
196,333,7853,1,10,0:0:0:0:
162,325,7949,1,0,0:0:0:0:
133,308,8045,1,0,0:0:0:0:
111,282,8141,1,0,0:0:0:0:
98,251,8237,1,8,0:0:0:0:
96,217,8333,1,0,0:0:0:0:
104,184,8431,5,0,0:0:0:0:
113,156,8526,1,8,0:0:0:0:
115,126,8622,1,0,0:0:0:0:
110,97,8718,1,8,0:0:0:0:
97,71,8814,1,0,0:0:0:0:
132,84,8910,1,0,0:0:0:0:
170,85,9006,1,8,0:0:0:0:
206,74,9102,1,0,0:0:0:0:
237,51,9199,5,0,0:0:0:0:
257,35,9295,1,0,0:0:0:0:
280,24,9391,1,8,0:0:0:0:
305,19,9487,1,0,0:0:0:0:
330,20,9583,1,0,0:0:0:0:
354,28,9679,1,0,0:0:0:0:
379,36,9776,1,8,0:0:0:0:
404,40,9872,1,0,0:0:0:0:
429,36,9968,5,2,0:0:0:0:
418,54,10064,1,10,0:0:0:0:
409,73,10160,1,2,0:0:0:0:
405,94,10256,1,10,0:0:0:0:
405,115,10352,1,2,0:0:0:0:
413,147,10449,1,0,0:0:0:0:
430,176,10545,1,8,0:0:0:0:
456,199,10641,1,0,0:0:0:0:
489,208,10737,5,2,0:0:0:0:
468,207,10833,1,2,0:0:0:0:
447,206,10929,1,10,0:0:0:0:
413,208,11026,1,0,0:0:0:0:
382,222,11122,1,0,0:0:0:0:
357,244,11218,1,0,0:0:0:0:
340,274,11314,1,8,0:0:0:0:
334,307,11410,1,0,0:0:0:0:
339,341,11506,5,0,0:0:0:0:
310,334,11603,1,8,0:0:0:0:
285,319,11699,1,0,0:0:0:0:
265,297,11795,1,8,0:0:0:0:
253,270,11891,1,0,0:0:0:0:
242,234,11987,1,0,0:0:0:0:
215,207,12083,1,8,0:0:0:0:
180,194,12179,1,0,0:0:0:0:
142,200,12275,5,0,0:0:0:0:
111,221,12372,1,0,0:0:0:0:
99,256,12468,1,8,0:0:0:0:
111,292,12564,1,0,0:0:0:0:
142,313,12660,1,0,0:0:0:0:
167,317,12756,1,0,0:0:0:0:
191,312,12852,1,8,0:0:0:0:
211,296,12948,1,0,0:0:0:0:
223,274,13045,5,2,0:0:0:0:
224,252,13141,1,10,0:0:0:0:
231,232,13237,1,2,0:0:0:0:
242,214,13333,1,10,0:0:0:0:
257,200,13430,1,2,0:0:0:0:
286,181,13526,1,0,0:0:0:0:
308,156,13622,1,8,0:0:0:0:
323,125,13718,1,0,0:0:0:0:
329,92,13814,5,2,0:0:0:0:
310,102,13910,1,2,0:0:0:0:
290,108,14007,1,10,0:0:0:0:
256,116,14103,1,0,0:0:0:0:
223,114,14199,1,0,0:0:0:0:
191,103,14295,1,0,0:0:0:0:
163,83,14391,1,8,0:0:0:0:
142,56,14487,1,0,0:0:0:0:
141,23,14583,5,0,0:0:0:0:
154,49,14679,1,8,0:0:0:0:
161,78,14775,1,0,0:0:0:0:
160,108,14871,1,8,0:0:0:0:
152,136,14967,1,0,0:0:0:0:
138,162,15063,1,0,0:0:0:0:
117,184,15159,1,8,0:0:0:0:
92,200,15256,1,0,0:0:0:0:
64,209,15353,5,0,0:0:0:0:
29,224,15449,1,0,0:0:0:0:
10,256,15545,1,8,0:0:0:0:
14,293,15641,1,0,0:0:0:0:
39,321,15737,1,0,0:0:0:0:
76,329,15833,1,0,0:0:0:0:
110,313,15930,1,8,0:0:0:0:
141,290,16026,1,0,0:0:0:0:
177,278,16122,5,2,0:0:0:0:
197,273,16218,1,10,0:0:0:0:
218,271,16314,1,2,0:0:0:0:
239,272,16410,1,10,0:0:0:0:
260,277,16506,1,2,0:0:0:0:
292,291,16603,1,0,0:0:0:0:
325,294,16699,1,8,0:0:0:0:
359,288,16795,1,0,0:0:0:0:
388,271,16891,5,2,0:0:0:0:
367,267,16987,1,2,0:0:0:0:
348,259,17083,1,10,0:0:0:0:
320,239,17179,1,0,0:0:0:0:
307,208,17275,1,0,0:0:0:0:
312,175,17371,1,0,0:0:0:0:
334,150,17467,1,8,0:0:0:0:
366,140,17564,1,0,0:0:0:0:
398,130,17660,5,0,0:0:0:0:
423,114,17756,1,8,0:0:0:0:
436,88,17852,1,0,0:0:0:0:
433,58,17948,1,8,0:0:0:0:
415,35,18045,1,0,0:0:0:0:
378,24,18141,1,0,0:0:0:0:
340,22,18237,1,8,0:0:0:0:
303,30,18333,1,0,0:0:0:0:
269,49,18430,5,0,0:0:0:0:
246,58,18526,1,0,0:0:0:0:
221,64,18622,1,8,0:0:0:0:
196,67,18718,1,0,0:0:0:0:
170,67,18814,1,0,0:0:0:0:
145,63,18910,1,0,0:0:0:0:
120,56,19006,1,8,0:0:0:0:
97,46,19103,1,0,0:0:0:0:
76,33,19199,5,2,0:0:0:0:
86,51,19295,1,10,0:0:0:0:
93,71,19391,1,2,0:0:0:0:
98,92,19487,1,10,0:0:0:0:
99,113,19583,1,0,0:0:0:0:
96,146,19679,1,0,0:0:0:0:
85,178,19775,1,8,0:0:0:0:
65,206,19871,1,0,0:0:0:0:
39,228,19968,6,0,B|99:241|99:241|151:223,1,85
223,317,20353,2,0,B|163:304|163:304|111:322,1,85,8|0,0:0|0:0,0:0:0:0:
203,232,20737,1,0,0:0:0:0:
60,314,20930,1,0,0:0:0:0:
286,257,21122,1,8,0:0:0:0:
223,318,21314,5,0,0:0:0:0:
212,327,21410,1,0,0:0:0:0:
202,337,21507,2,0,P|243:348|285:339,1,85
329,189,21891,1,8,0:0:0:0:
394,244,22083,2,0,P|414:176|351:107,1,170
329,189,22660,1,8,0:0:0:0:
183,195,22853,1,0,0:0:0:0:
294,273,23045,6,0,B|333:283|333:283|375:269,1,85
218,111,23430,2,0,B|179:101|179:101|136:114,1,85,8|0,0:0|0:0,0:0:0:0:
65,250,23814,1,0,0:0:0:0:
183,195,24007,2,0,L|361:203,1,170
218,111,24583,2,0,P|169:106|126:119,1,85
257,268,24968,2,0,P|306:273|349:260,1,85,8|0,0:0|0:0,0:0:0:0:
199,196,25353,2,0,P|163:230|145:271,1,85,0|0,0:0|0:0,2:0:0:0:
313,188,25737,5,8,0:0:0:0:
319,156,25833,1,8,0:0:0:0:
319,125,25929,1,8,0:0:0:0:
313,93,26025,1,8,0:0:0:0:
299,64,26121,5,0,0:0:0:0:
199,196,26314,1,0,0:0:0:0:
344,266,26507,2,0,P|379:234|394:179,1,85,8|0,0:0|0:0,0:0:0:0:
199,196,26891,1,0,0:0:0:0:
270,314,27083,2,0,P|323:348|386:345,1,127.5
344,266,27468,2,0,L|340:175,1,85,8|0,0:0|0:0,0:0:0:0:
241,100,27853,1,0,0:0:0:0:
159,214,28045,6,0,L|163:305,1,85,8|0,0:0|0:0,0:0:0:0:
150,305,28333,1,0,0:0:0:0:
138,313,28430,2,0,P|180:324|223:313,1,85
199,142,28814,2,0,P|157:131|114:142,1,85,8|0,0:0|0:0,0:0:0:0:
159,214,29199,1,0,0:0:0:0:
71,266,29391,5,0,0:0:0:0:
247,162,29583,1,8,0:0:0:0:
37,160,29776,1,0,0:0:0:0:
280,267,29968,2,0,P|322:273|365:257,1,85
406,143,30353,1,8,0:0:0:0:
457,236,30545,5,0,0:0:0:0:
454,254,30641,1,0,0:0:0:0:
452,273,30737,1,0,0:0:0:0:
406,143,30930,1,0,0:0:0:0:
402,366,31122,1,8,0:0:0:0:
347,207,31314,1,0,0:0:0:0:
461,303,31507,1,0,0:0:0:0:
305,283,31699,5,0,0:0:0:0:
289,268,31795,1,0,0:0:0:0:
277,252,31891,2,0,P|271:242|269:230,6,21.25,0|0|0|0|0|0|0,0:0|0:0|0:0|0:0|0:0|0:0|0:0,0:0:0:0:
347,207,32276,5,2,0:0:0:0:
333,185,32372,1,2,0:0:0:0:
315,168,32468,1,10,0:0:0:0:
279,154,32564,1,0,0:0:0:0:
256,124,32660,1,0,0:0:0:0:
253,86,32756,1,0,0:0:0:0:
269,52,32852,1,8,0:0:0:0:
301,32,32949,1,0,0:0:0:0:
339,31,33045,5,0,0:0:0:0:
373,47,33141,1,8,0:0:0:0:
396,77,33237,1,0,0:0:0:0:
401,115,33333,1,8,0:0:0:0:
388,151,33429,1,0,0:0:0:0:
360,176,33525,1,0,0:0:0:0:
324,186,33622,1,8,0:0:0:0:
286,183,33718,1,0,0:0:0:0:
251,166,33814,5,0,0:0:0:0:
221,152,33910,1,0,0:0:0:0:
187,148,34006,1,8,0:0:0:0:
154,157,34102,1,0,0:0:0:0:
126,176,34199,1,0,0:0:0:0:
114,203,34295,1,0,0:0:0:0:
115,232,34391,1,8,0:0:0:0:
130,258,34487,1,0,0:0:0:0:
154,274,34583,5,2,0:0:0:0:
179,281,34679,1,10,0:0:0:0:
204,280,34775,1,2,0:0:0:0:
228,271,34871,1,10,0:0:0:0:
248,257,34968,1,2,0:0:0:0:
284,246,35064,1,0,0:0:0:0:
321,251,35160,1,8,0:0:0:0:
353,273,35256,1,0,0:0:0:0:
372,305,35353,5,2,0:0:0:0:
396,311,35449,1,2,0:0:0:0:
422,308,35545,1,10,0:0:0:0:
455,290,35641,1,0,0:0:0:0:
473,258,35737,1,0,0:0:0:0:
471,220,35833,1,0,0:0:0:0:
449,189,35929,1,8,0:0:0:0:
414,175,36025,1,0,0:0:0:0:
377,180,36122,5,0,0:0:0:0:
339,187,36218,1,8,0:0:0:0:
301,183,36314,1,0,0:0:0:0:
267,168,36410,1,8,0:0:0:0:
238,142,36507,1,0,0:0:0:0:
209,118,36603,1,0,0:0:0:0:
173,108,36699,1,8,0:0:0:0:
135,112,36795,1,0,0:0:0:0:
102,132,36891,5,0,0:0:0:0:
86,162,36987,1,0,0:0:0:0:
83,195,37083,1,8,0:0:0:0:
93,228,37179,1,0,0:0:0:0:
114,254,37276,1,0,0:0:0:0:
148,264,37372,1,2,0:0:0:0:
173,266,37468,1,10,0:0:0:0:
197,261,37564,1,2,0:0:0:0:
232,247,37660,5,0,0:0:0:0:
270,248,37756,1,8,0:0:0:0:
306,262,37852,1,2,0:0:0:0:
334,288,37948,1,8,0:0:0:0:
365,308,38046,1,0,0:0:0:0:
403,313,38141,1,0,0:0:0:0:
439,301,38237,1,8,0:0:0:0:
466,275,38333,1,0,0:0:0:0:
479,239,38430,5,2,0:0:0:0:
453,241,38526,1,2,0:0:0:0:
429,236,38622,1,10,0:0:0:0:
397,215,38718,1,0,0:0:0:0:
378,182,38814,1,0,0:0:0:0:
352,154,38910,1,0,0:0:0:0:
318,137,39006,1,8,0:0:0:0:
280,133,39102,1,0,0:0:0:0:
244,143,39198,5,0,0:0:0:0:
212,164,39295,1,8,0:0:0:0:
179,182,39391,1,0,0:0:0:0:
141,181,39487,1,8,0:0:0:0:
109,161,39583,1,0,0:0:0:0:
92,127,39679,1,0,0:0:0:0:
94,89,39775,1,8,0:0:0:0:
114,58,39871,1,0,0:0:0:0:
148,42,39968,5,0,0:0:0:0:
182,39,40064,1,0,0:0:0:0:
213,50,40160,1,8,0:0:0:0:
239,72,40256,1,0,0:0:0:0:
254,102,40353,1,0,0:0:0:0:
269,128,40449,1,0,0:0:0:0:
291,147,40545,1,8,0:0:0:0:
319,158,40641,1,0,0:0:0:0:
348,158,40737,5,2,0:0:0:0:
373,163,40833,1,10,0:0:0:0:
396,175,40929,1,2,0:0:0:0:
413,194,41026,1,10,0:0:0:0:
423,217,41122,1,2,0:0:0:0:
416,254,41218,1,0,0:0:0:0:
394,285,41314,1,8,0:0:0:0:
361,303,41410,1,0,0:0:0:0:
323,305,41506,5,2,0:0:0:0:
297,304,41603,1,2,0:0:0:0:
273,309,41699,1,10,0:0:0:0:
239,326,41795,1,0,0:0:0:0:
201,331,41891,1,0,0:0:0:0:
164,323,41987,1,0,0:0:0:0:
132,302,42083,1,8,0:0:0:0:
110,271,42179,1,0,0:0:0:0:
107,233,42276,5,0,0:0:0:0:
102,199,42372,1,8,0:0:0:0:
80,173,42468,1,0,0:0:0:0:
49,161,42564,1,8,0:0:0:0:
16,167,42660,1,0,0:0:0:0:
44,158,42756,1,0,0:0:0:0:
68,141,42852,1,8,0:0:0:0:
87,118,42948,1,0,0:0:0:0:
99,92,43045,5,0,0:0:0:0:
125,64,43141,1,0,0:0:0:0:
160,49,43237,1,8,0:0:0:0:
198,46,43333,1,0,0:0:0:0:
234,57,43429,1,0,0:0:0:0:
264,80,43525,1,0,0:0:0:0:
284,112,43622,1,8,0:0:0:0:
305,134,43718,1,0,0:0:0:0:
332,145,43814,5,0,0:0:0:0:
362,143,43910,1,8,0:0:0:0:
385,124,44006,1,0,0:0:0:0:
395,96,44102,1,8,0:0:0:0:
386,67,44198,1,0,0:0:0:0:
363,48,44294,1,0,0:0:0:0:
334,45,44390,1,8,0:0:0:0:
307,59,44487,1,0,0:0:0:0:
256,192,44583,12,0,50737,0:0:0:0:
143,286,56891,6,0,P|95:298|31:289,1,85
190,186,57276,2,0,P|238:174|302:183,1,85,8|0,0:0|0:0,0:0:0:0:
253,275,57660,1,0,0:0:0:0:
105,208,57853,1,0,0:0:0:0:
241,114,58045,2,0,P|249:73|246:18,1,85,8|0,0:0|0:0,0:0:0:0:
264,33,58333,5,0,0:0:0:0:
282,36,58430,2,0,L|392:32,1,85
241,114,58814,1,8,0:0:0:0:
219,113,58910,1,0,0:0:0:0:
198,112,59006,1,0,0:0:0:0:
103,39,59199,1,0,0:0:0:0:
136,171,59391,2,0,P|139:234|124:278,1,85,0|8,0:0|0:0,0:0:0:0:
66,118,59776,1,0,0:0:0:0:
217,194,59968,6,0,L|318:190,1,85
448,260,60353,2,0,L|347:256,1,85,8|0,0:0|0:0,0:0:0:0:
217,326,60737,2,0,L|116:322,1,85
120,309,61026,1,0,0:0:0:0:
109,296,61122,1,8,0:0:0:0:
209,217,61314,1,0,0:0:0:0:
203,200,61410,1,0,0:0:0:0:
197,183,61507,6,0,P|251:186|302:173,1,85
129,126,61891,1,8,0:0:0:0:
123,143,61987,1,0,0:0:0:0:
117,160,62083,1,0,0:0:0:0:
212,95,62276,2,0,P|208:47|193:2,1,85
277,164,62660,5,8,0:0:0:0:
308,170,62756,1,8,0:0:0:0:
339,170,62852,1,8,0:0:0:0:
370,162,62948,1,8,0:0:0:0:
398,147,63045,6,0,P|386:99|397:46,1,85
398,236,63430,2,0,P|410:284|399:337,1,85,8|0,0:0|0:0,0:0:0:0:
463,101,63814,1,0,0:0:0:0:
370,162,64007,1,0,0:0:0:0:
364,52,64199,1,8,0:0:0:0:
450,183,64391,5,0,0:0:0:0:
447,195,64487,1,0,0:0:0:0:
446,208,64583,2,0,B|391:253|336:181|269:207,1,170,0|8,0:0|0:0,0:0:0:0:
139,273,65160,2,0,B|194:228|249:300|316:274,1,170
187,339,65737,1,8,0:0:0:0:
282,202,65930,1,0,0:0:0:0:
288,360,66122,1,0,0:0:0:0:
182,182,66314,6,0,P|178:137|185:90,1,85,2|10,0:0|0:0,0:0:0:0:
283,32,66699,1,2,0:0:0:0:
246,160,66891,2,0,P|186:189|115:35,1,255,2|0,0:0|0:0,0:0:0:0:
326,118,67660,6,0,P|334:170|328:208,1,85,2|0,0:0|0:0,0:0:0:0:
403,72,68045,2,0,P|420:121|422:159,1,85,10|0,0:0|0:0,0:0:0:0:
246,160,68430,1,0,0:0:0:0:
394,230,68622,1,0,0:0:0:0:
414,233,68718,1,0,0:0:0:0:
436,233,68814,2,0,P|454:226|472:214,6,21.25,0|0|0|0|0|0|0,0:0|0:0|0:0|0:0|0:0|0:0|0:0,0:0:0:0:
418,151,69199,5,2,0:0:0:0:
388,151,69295,1,2,0:0:0:0:
360,160,69391,1,10,0:0:0:0:
324,182,69487,1,0,0:0:0:0:
282,191,69583,1,0,0:0:0:0:
240,185,69679,1,0,0:0:0:0:
203,164,69775,1,8,0:0:0:0:
175,133,69871,1,0,0:0:0:0:
175,90,69968,5,0,0:0:0:0:
149,118,70064,1,8,0:0:0:0:
116,136,70160,1,0,0:0:0:0:
78,143,70256,1,8,0:0:0:0:
41,137,70353,1,0,0:0:0:0:
36,183,70449,1,0,0:0:0:0:
48,228,70545,1,8,0:0:0:0:
76,265,70641,1,0,0:0:0:0:
116,289,70737,5,0,0:0:0:0:
158,295,70833,1,0,0:0:0:0:
199,286,70929,1,8,0:0:0:0:
235,264,71025,1,0,0:0:0:0:
262,231,71122,1,2,0:0:0:0:
290,200,71218,1,2,0:0:0:0:
330,186,71314,1,10,0:0:0:0:
372,191,71410,1,0,0:0:0:0:
406,216,71507,5,2,0:0:0:0:
418,243,71603,1,10,0:0:0:0:
418,272,71699,1,2,0:0:0:0:
406,299,71795,1,10,0:0:0:0:
384,319,71891,1,2,0:0:0:0:
342,328,71987,1,0,0:0:0:0:
302,320,72083,1,8,0:0:0:0:
261,311,72179,1,0,0:0:0:0:
219,319,72275,5,2,0:0:0:0:
190,325,72372,1,2,0:0:0:0:
160,324,72468,1,8,0:0:0:0:
119,315,72564,1,0,0:0:0:0:
78,324,72660,1,0,0:0:0:0:
103,290,72756,1,0,0:0:0:0:
111,249,72852,1,8,0:0:0:0:
99,209,72948,1,0,0:0:0:0:
70,177,73044,5,0,0:0:0:0:
53,144,73141,1,8,0:0:0:0:
53,106,73237,1,0,0:0:0:0:
69,72,73333,1,8,0:0:0:0:
100,49,73430,1,0,0:0:0:0:
149,39,73526,1,0,0:0:0:0:
199,48,73622,1,8,0:0:0:0:
241,77,73718,1,0,0:0:0:0:
267,120,73814,5,0,0:0:0:0:
295,152,73910,1,0,0:0:0:0:
334,167,74006,1,8,0:0:0:0:
376,163,74102,1,0,0:0:0:0:
412,141,74198,1,0,0:0:0:0:
434,105,74295,1,2,0:0:0:0:
437,76,74391,1,10,0:0:0:0:
427,48,74487,1,2,0:0:0:0:
404,30,74583,5,0,0:0:0:0:
374,27,74680,1,10,0:0:0:0:
333,36,74776,1,0,0:0:0:0:
305,67,74872,1,8,0:0:0:0:
300,109,74968,1,0,0:0:0:0:
292,137,75064,1,0,0:0:0:0:
272,159,75160,1,8,0:0:0:0:
232,173,75257,1,0,0:0:0:0:
190,168,75353,5,2,0:0:0:0:
160,162,75449,1,2,0:0:0:0:
131,162,75545,1,8,0:0:0:0:
91,174,75641,1,0,0:0:0:0:
64,206,75737,1,0,0:0:0:0:
60,248,75833,1,0,0:0:0:0:
74,288,75929,1,8,0:0:0:0:
106,315,76025,1,0,0:0:0:0:
147,323,76121,5,0,0:0:0:0:
187,309,76218,1,8,0:0:0:0:
226,292,76314,1,0,0:0:0:0:
268,290,76410,1,8,0:0:0:0:
308,303,76506,1,0,0:0:0:0:
342,328,76603,1,0,0:0:0:0:
382,342,76699,1,8,0:0:0:0:
422,329,76795,1,0,0:0:0:0:
447,295,76891,5,0,0:0:0:0:
455,263,76987,1,0,0:0:0:0:
454,229,77083,1,8,0:0:0:0:
448,204,77179,1,0,0:0:0:0:
436,182,77275,1,0,0:0:0:0:
419,163,77371,1,0,0:0:0:0:
396,152,77468,1,8,0:0:0:0:
359,130,77564,1,0,0:0:0:0:
338,94,77661,5,2,0:0:0:0:
335,69,77756,1,10,0:0:0:0:
344,45,77852,1,2,0:0:0:0:
363,29,77948,1,10,0:0:0:0:
388,25,78045,1,2,0:0:0:0:
428,33,78141,1,0,0:0:0:0:
449,69,78237,1,8,0:0:0:0:
438,108,78333,1,0,0:0:0:0:
402,128,78430,5,2,0:0:0:0:
372,129,78526,1,2,0:0:0:0:
342,130,78622,1,10,0:0:0:0:
303,146,78718,1,0,0:0:0:0:
271,175,78814,1,0,0:0:0:0:
251,212,78910,1,0,0:0:0:0:
224,245,79006,1,8,0:0:0:0:
187,265,79102,1,0,0:0:0:0:
145,269,79198,5,0,0:0:0:0:
105,257,79294,1,8,0:0:0:0:
72,231,79391,1,0,0:0:0:0:
53,193,79487,1,8,0:0:0:0:
53,151,79583,1,0,0:0:0:0:
74,114,79679,1,0,0:0:0:0:
109,92,79776,1,8,0:0:0:0:
150,83,79872,1,0,0:0:0:0:
191,93,79968,5,0,0:0:0:0:
242,101,80064,1,0,0:0:0:0:
292,93,80160,1,8,0:0:0:0:
337,71,80256,1,0,0:0:0:0:
374,36,80353,1,0,0:0:0:0:
375,82,80449,1,0,0:0:0:0:
379,112,80545,1,8,0:0:0:0:
391,139,80641,1,0,0:0:0:0:
411,161,80737,5,0,0:0:0:0:
364,179,80833,1,8,0:0:0:0:
329,215,80930,1,0,0:0:0:0:
311,262,81025,1,8,0:0:0:0:
314,313,81121,1,0,0:0:0:0:
340,358,81218,1,0,0:0:0:0:
284,352,81314,1,8,0:0:0:0:
229,347,81410,1,0,0:0:0:0:
174,342,81506,5,0,0:0:0:0:
141,246,81891,1,2,0:0:0:0:
241,264,82276,1,0,0:0:0:0:
207,167,82660,1,2,0:0:0:0:
173,164,82852,1,0,0:0:0:0:
139,162,83044,5,0,0:0:0:0:
227,57,83430,1,2,0:0:0:0:
361,80,83814,1,0,0:0:0:0:
273,185,84200,1,2,0:0:0:0:
268,227,84391,1,0,0:0:0:0:
278,268,84583,5,0,0:0:0:0:
421,321,84968,1,2,0:0:0:0:
273,361,85353,2,0,L|119:348,1,127.500004863739,0|2,0:0|0:0,0:0:0:0:
126,304,85929,1,0,0:0:0:0:
139,256,86122,6,0,P|146:183|112:119,1,127.500004863739,0|2,0:0|0:0,0:0:0:0:
74,59,86699,2,0,P|138:59|193:20,1,127.500004863739,0|2,0:0|0:0,0:0:0:0:
333,73,87276,2,0,B|244:78|244:78|214:104,1,127.500004863739,0|2,0:0|0:0,0:0:0:0:
251,198,88045,5,0,0:0:0:0:
356,257,88430,2,0,P|409:238|427:152,1,127.500004863739,0|2,0:0|0:0,0:0:0:0:
401,120,89007,1,0,0:0:0:0:
251,198,89199,5,0,0:0:0:0:
137,182,89583,1,2,0:0:0:0:
69,274,89968,2,0,L|44:125,1,127.500004863739,0|2,0:0|0:0,0:0:0:0:
99,83,90545,1,0,0:0:0:0:
236,113,90737,5,0,0:0:0:0:
326,80,91122,1,2,0:0:0:0:
416,112,91507,1,0,0:0:0:0:
326,80,91891,1,2,0:0:0:0:
293,156,92083,1,0,0:0:0:0:
331,265,92276,5,0,0:0:0:0:
175,208,92660,1,2,0:0:0:0:
161,179,92853,1,0,0:0:0:0:
290,75,93237,1,2,0:0:0:0:
276,104,93430,1,0,0:0:0:0:
405,208,93814,5,0,0:0:0:0:
433,318,94199,1,0,0:0:0:0:
323,346,94583,1,0,0:0:0:0:
295,236,94968,1,0,0:0:0:0:
183,192,95160,1,0,0:0:0:0:
180,175,95256,1,0,0:0:0:0:
178,158,95352,5,2,0:0:0:0:
147,255,95737,1,0,0:0:0:0:
244,286,96122,1,0,0:0:0:0:
275,189,96507,1,0,0:0:0:0:
192,104,96699,1,0,0:0:0:0:
75,83,96891,5,0,0:0:0:0:
43,188,97276,1,0,0:0:0:0:
75,293,97660,1,0,0:0:0:0:
180,325,98045,1,0,0:0:0:0:
279,317,98237,1,0,0:0:0:0:
282,305,98333,1,0,0:0:0:0:
285,293,98429,5,2,0:0:0:0:
370,210,98814,1,2,0:0:0:0:
372,222,98910,1,0,0:0:0:0:
375,234,99006,1,0,0:0:0:0:
479,283,99199,1,0,0:0:0:0:
447,142,99583,1,0,0:0:0:0:
359,110,99776,1,0,0:0:0:0:
306,33,99968,5,0,0:0:0:0:
270,20,100064,1,0,0:0:0:0:
233,27,100160,1,0,0:0:0:0:
144,120,100353,2,0,P|177:120|198:111,2,42.5,2|2|2,0:0|0:0|0:0,0:0:0:0:
266,98,100737,1,0,0:0:0:0:
300,113,100833,1,0,0:0:0:0:
338,116,100929,1,0,0:0:0:0:
375,106,101025,1,0,0:0:0:0:
406,84,101122,6,0,P|444:78|470:84,3,42.5,2|2|2|2,0:0|0:0|0:0|0:0,0:0:0:0:
435,193,101507,2,0,L|441:151,3,42.5,2|2|2|2,0:0|0:0|0:0|0:0,0:0:0:0:
369,245,101891,5,0,0:0:0:0:
331,241,101987,1,0,0:0:0:0:
295,253,102083,1,0,0:0:0:0:
267,278,102179,1,0,0:0:0:0:
251,313,102275,1,0,0:0:0:0:
215,335,102372,1,0,0:0:0:0:
174,344,102468,1,0,0:0:0:0:
132,337,102564,1,0,0:0:0:0:
96,315,102660,1,0,0:0:0:0:
68,283,102756,1,0,0:0:0:0:
55,243,102852,1,0,0:0:0:0:
59,201,102948,1,0,0:0:0:0:
80,164,103045,6,0,P|120:165|149:154,2,42.5,2|2|2,0:0|0:0|0:0,0:0:0:0:
185,70,103430,1,0,0:0:0:0:
222,77,103526,1,0,0:0:0:0:
251,101,103622,1,0,0:0:0:0:
311,192,103814,1,0,0:0:0:0:
346,206,103910,1,0,0:0:0:0:
383,205,104006,1,0,0:0:0:0:
417,188,104102,1,0,0:0:0:0:
442,158,104199,6,0,L|433:107,3,42.5,2|2|2|2,0:0|0:0|0:0|0:0,0:0:0:0:
403,259,104583,6,0,L|410:294,7,21.25,0|0|0|0|0|0|0|0,0:0|0:0|0:0|0:0|0:0|0:0|0:0|0:0,0:0:0:0:
334,289,104968,6,0,L|322:322,8,21.25,0|0|0|0|0|0|0|0|2,0:0|0:0|0:0|0:0|0:0|0:0|0:0|0:0|0:0,0:0:0:0:
272,150,105545,1,2,0:0:0:0:
241,298,105738,1,2,0:0:0:0:
353,197,105930,1,2,0:0:0:0:
202,213,106122,6,0,L|112:210,1,85,2|0,0:0|0:0,0:0:0:0:
73,108,106507,2,0,L|163:111,1,85
266,43,106891,5,2,0:0:0:0:
366,107,107083,1,0,0:0:0:0:
484,90,107276,1,0,0:0:0:0:
435,193,107468,1,0,0:0:0:0:
438,209,107564,1,0,0:0:0:0:
441,226,107660,5,2,0:0:0:0:
323,209,107853,2,0,L|308:118,1,85
333,271,108237,1,0,0:0:0:0:
240,324,108430,6,0,P|191:328|137:319,1,85,2|0,0:0|0:0,0:0:0:0:
144,184,108814,2,0,P|178:218|206:266,1,85
58,196,109199,6,0,P|71:148|97:100,1,85,2|0,0:0|0:0,0:0:0:0:
191,68,109583,1,0,0:0:0:0:
298,135,109776,6,0,P|350:117|368:62,1,85,2|0,0:0|0:0,0:0:0:0:
242,60,110160,1,0,0:0:0:0:
228,187,110353,6,0,L|236:287,1,85,2|0,0:0|0:0,0:0:0:0:
372,216,110737,6,0,L|380:116,1,85,2|0,0:0|0:0,0:0:0:0:
242,60,111122,1,0,0:0:0:0:
404,110,111314,6,0,L|397:194,1,85,2|2,0:0|0:0,0:0:0:0:
335,47,111699,1,0,0:0:0:0:
250,154,111891,1,0,0:0:0:0:
218,160,111987,1,0,0:0:0:0:
187,163,112083,1,0,0:0:0:0:
155,161,112179,1,0,0:0:0:0:
124,154,112276,6,0,B|135:217|135:217|160:238,1,85,2|0,0:0|0:0,0:0:0:0:
119,353,112660,2,0,B|108:290|108:290|83:269,1,85,0|0,0:0|0:0,0:0:0:0:
187,299,113045,5,2,0:0:0:0:
301,306,113237,1,0,0:0:0:0:
377,219,113430,1,0,0:0:0:0:
196,266,113622,1,0,0:0:0:0:
191,282,113718,1,0,0:0:0:0:
187,299,113814,5,2,0:0:0:0:
124,188,114007,1,0,0:0:0:0:
259,151,114199,1,0,0:0:0:0:
264,135,114295,1,0,0:0:0:0:
268,118,114391,1,0,0:0:0:0:
124,188,114583,5,2,0:0:0:0:
99,292,114776,1,0,0:0:0:0:
200,261,114968,1,0,0:0:0:0:
229,137,115160,1,0,0:0:0:0:
273,315,115353,6,0,P|327:331|363:325,1,85,2|0,0:0|0:0,0:0:0:0:
411,233,115737,1,0,0:0:0:0:
249,241,115930,6,0,P|213:266|198:309,1,85,2|0,0:0|0:0,0:0:0:0:
331,263,116314,1,0,0:0:0:0:
270,152,116507,6,0,L|265:61,1,85,2|0,0:0|0:0,0:0:0:0:
142,123,116891,6,0,L|137:214,1,85,2|0,0:0|0:0,0:0:0:0:
42,151,117276,1,0,0:0:0:0:
41,134,117372,1,0,0:0:0:0:
40,117,117468,1,2,0:0:0:0:
108,30,117660,5,2,0:0:0:0:
106,213,117853,1,0,0:0:0:0:
172,85,118045,2,0,L|204:80,6,21.25,0|0|0|0|0|0|0,0:0|0:0|0:0|0:0|0:0|0:0|0:0,0:0:0:0:
175,168,118430,5,2,0:0:0:0:
263,33,118622,1,8,0:0:0:0:
248,202,118814,2,0,L|260:318,1,85,0|8,0:0|0:0,0:0:0:0:
362,239,119199,1,2,0:0:0:0:
363,222,119295,1,8,0:0:0:0:
439,142,119487,1,8,0:0:0:0:
440,158,119583,1,0,0:0:0:0:
341,108,119776,1,8,0:0:0:0:
342,91,119872,1,0,0:0:0:0:
342,74,119968,6,0,B|288:82|288:82|256:66,1,85,2|8,0:0|0:0,0:0:0:0:
301,181,120353,1,0,0:0:0:0:
305,197,120449,1,0,0:0:0:0:
306,214,120545,1,8,0:0:0:0:
181,151,120737,1,2,0:0:0:0:
182,134,120833,1,8,0:0:0:0:
54,76,121026,1,8,0:0:0:0:
53,94,121122,2,0,P|55:151|76:190,1,85,0|8,0:0|0:0,0:0:0:0:
74,204,121410,1,0,0:0:0:0:
72,233,121507,6,0,B|130:253|130:253|153:240,1,85,2|8,0:0|0:0,0:0:0:0:
202,143,121891,1,0,0:0:0:0:
191,304,122083,2,0,P|145:330|112:330,1,85,10|0,0:0|0:0,0:0:0:0:
86,315,122372,1,8,0:0:0:0:
80,284,122468,1,0,0:0:0:0:
100,260,122564,1,8,0:0:0:0:
130,259,122660,1,2,0:0:0:0:
272,340,122853,1,8,0:0:0:0:
288,340,122949,1,0,0:0:0:0:
305,341,123045,5,2,0:0:0:0:
424,276,123237,1,8,0:0:0:0:
408,276,123333,1,0,0:0:0:0:
391,275,123429,1,0,0:0:0:0:
269,213,123622,1,10,0:0:0:0:
186,116,123814,1,2,0:0:0:0:
183,99,123910,1,8,0:0:0:0:
330,82,124103,1,8,0:0:0:0:
328,99,124199,1,0,0:0:0:0:
191,150,124391,1,8,0:0:0:0:
188,133,124487,1,0,0:0:0:0:
186,116,124583,6,0,B|231:124|231:124|273:113,1,85,2|8,0:0|0:0,0:0:0:0:
187,201,124968,2,0,B|142:193|142:193|100:204,1,85,0|8,0:0|0:0,0:0:0:0:
195,281,125353,2,0,L|241:274,2,42.5,2|8|0,0:0|0:0|0:0,0:0:0:0:
187,361,125641,1,8,0:0:0:0:
170,358,125737,1,0,0:0:0:0:
269,330,125930,1,8,0:0:0:0:
285,332,126026,1,0,0:0:0:0:
302,335,126122,5,2,0:0:0:0:
393,258,126314,1,8,0:0:0:0:
282,179,126507,1,0,0:0:0:0:
298,181,126603,1,0,0:0:0:0:
315,184,126699,1,8,0:0:0:0:
194,233,126891,1,2,0:0:0:0:
189,216,126987,1,8,0:0:0:0:
185,200,127083,2,0,L|187:152,2,42.5,0|8|0,0:0|0:0|0:0,0:0:0:0:
92,125,127468,1,8,0:0:0:0:
91,108,127564,1,0,0:0:0:0:
91,91,127660,6,0,P|139:101|179:78,1,85,2|8,0:0|0:0,0:0:0:0:
56,28,128045,1,0,0:0:0:0:
129,160,128237,2,0,L|116:262,1,85,10|0,0:0|0:0,0:0:0:0:
128,273,128526,1,8,0:0:0:0:
155,290,128622,1,0,0:0:0:0:
186,285,128718,1,8,0:0:0:0:
208,263,128814,2,0,P|251:245|296:263,1,85,2|8,0:0|0:0,0:0:0:0:
381,178,129199,6,0,B|336:188|336:188|291:172,1,85,2|8,0:0|0:0,0:0:0:0:
267,106,129487,1,0,0:0:0:0:
270,89,129583,1,0,0:0:0:0:
298,245,129776,1,10,0:0:0:0:
176,185,129968,1,2,0:0:0:0:
181,157,130064,1,0,0:0:0:0:
186,130,130160,1,0,0:0:0:0:
191,103,130256,1,0,0:0:0:0:
197,76,130352,5,0,0:0:0:0:
197,76,143045,5,0,0:0:0:0:
153,186,143237,2,0,P|100:195|58:186,1,85
235,155,143622,2,0,P|288:146|330:155,1,85
323,167,143910,1,0,0:0:0:0:
401,263,144103,1,0,0:0:0:0:
406,246,144199,2,0,L|402:157,1,85,0|0,0:0|0:0,0:0:0:0:
293,268,144583,6,0,L|289:357,1,85,0|0,0:0|0:0,0:0:0:0:
228,212,144968,1,0,0:0:0:0:
361,185,145160,1,0,0:0:0:0:
220,290,145353,1,0,0:0:0:0:
187,299,145449,1,0,0:0:0:0:
153,294,145545,1,0,0:0:0:0:
124,278,145641,1,0,0:0:0:0:
103,251,145737,2,0,L|109:157,1,85
232,125,146122,5,0,0:0:0:0:
36,205,146314,2,0,L|41:110,1,85
49,105,146603,1,0,0:0:0:0:
59,91,146699,1,0,0:0:0:0:
232,125,146891,1,0,0:0:0:0:
232,141,146987,1,0,0:0:0:0:
233,158,147083,1,0,0:0:0:0:
234,175,147179,1,0,0:0:0:0:
235,192,147275,1,0,0:0:0:0:
357,245,147468,1,0,0:0:0:0:
357,228,147564,1,0,0:0:0:0:
358,211,147660,5,0,0:0:0:0:
313,105,147853,1,0,0:0:0:0:
281,263,148045,2,0,P|227:277|175:260,1,85
239,109,148430,2,0,L|235:194,1,85
166,64,148814,1,0,0:0:0:0:
191,41,148910,1,0,0:0:0:0:
221,27,149006,1,0,0:0:0:0:
255,23,149102,1,0,0:0:0:0:
288,30,149199,6,0,P|303:78|356:107,1,85,0|0,0:0|0:0,0:0:0:0:
196,191,149583,2,0,P|192:139|216:98,1,85
346,179,149968,1,0,0:0:0:0:
345,192,150064,1,0,0:0:0:0:
344,205,150160,2,0,P|300:234|253:234,1,85
151,181,150545,1,0,0:0:0:0:
189,316,150737,5,0,0:0:0:0:
72,217,150930,2,0,P|69:153|90:106,1,85
90,127,151218,1,0,0:0:0:0:
106,120,151314,1,0,0:0:0:0:
248,180,151507,1,0,0:0:0:0:
232,173,151603,1,0,0:0:0:0:
216,167,151699,1,0,0:0:0:0:
326,77,151891,2,0,L|323:143,2,42.5,0|0|0,0:0|0:0|0:0,0:0:0:0:
335,53,152179,1,0,0:0:0:0:
352,35,152276,6,0,L|453:31,1,85
455,42,152564,1,0,0:0:0:0:
469,57,152660,1,0,0:0:0:0:
393,191,152853,2,0,L|292:195,1,85
289,183,153141,1,0,0:0:0:0:
275,168,153237,1,0,0:0:0:0:
295,42,153430,1,0,0:0:0:0:
312,54,153526,1,0,0:0:0:0:
324,71,153622,1,0,0:0:0:0:
332,91,153718,1,0,0:0:0:0:
333,112,153814,6,0,L|303:142,14,31.8750012159348,0|0|0|0|0|0|0|0|0|0|0|0|0|0|0,0:0|0:0|0:0|0:0|0:0|0:0|0:0|0:0|0:0|0:0|0:0|0:0|0:0|0:0|0:0,0:0:0:0:
277,228,154583,6,0,L|215:214,16,42.5,0|0|0|0|0|0|0|0|0|0|0|0|0|0|0|0|0,0:0|0:0|0:0|0:0|0:0|0:0|0:0|0:0|0:0|0:0|0:0|0:0|0:0|0:0|0:0|0:0|0:0,0:0:0:0:
