osu file format v13

[General]
AudioFilename: Second Darkside.mp3
AudioLeadIn: 0
PreviewTime: 43891
Countdown: 0
SampleSet: Soft
StackLeniency: 0.7
Mode: 3
LetterboxInBreaks: 1
SpecialStyle: 0
WidescreenStoryboard: 1

[Editor]
DistanceSpacing: 1.2
BeatDivisor: 8
GridSize: 8
TimelineZoom: 2.3

[Metadata]
Title:Second Darkside
TitleUnicode:Second Darkside
Artist:ZUN & Ryu*
ArtistUnicode:ZUN & Ryu*
Creator:Litepastistime
Version:4K ADV
Source:BMS
Tags:Dark Side of Fate Second Heaven beatmania touhou Kagiyama Hina Hakeru Prismriver Muya Firce777
BeatmapID:477750
BeatmapSetID:201834

[Difficulty]
HPDrainRate:7
CircleSize:4
OverallDifficulty:7
ApproachRate:7
SliderMultiplier:1.3
SliderTickRate:1

[Events]
//Background and Video events
0,0,"Kagiyama.Hina.full.1513283.jpg",0,0
//Break Periods
//Storyboard Layer 0 (Background)
//Storyboard Layer 1 (Fail)
//Storyboard Layer 2 (Pass)
//Storyboard Layer 3 (Foreground)
//Storyboard Sound Samples
//Background Colour Transformations
3,100,163,162,255

[TimingPoints]
402,402.684563758389,4,2,1,65,1,0
14798,-100,4,2,1,10,0,0
24563,-100,4,2,1,65,0,0
43792,-100,4,2,1,10,0,0
45502,-100,4,2,1,80,0,1
71274,-100,4,2,1,65,0,0
96995,-100,4,2,1,10,0,0
98558,-100,4,2,1,70,0,0
100267,-100,4,2,1,80,0,1
113153,-100,4,2,1,80,0,0

[Colours]
Combo1 : 255,0,128
Combo2 : 243,89,34
Combo3 : 112,196,193
Combo4 : 64,128,128

[HitObjects]
192,192,402,5,0,0:0:0:0:
320,192,402,1,0,0:0:0:0:
64,192,603,1,0,0:0:0:0:
320,192,804,1,0,0:0:0:0:
192,192,905,128,0,1408:0:0:0:0:
320,192,1408,128,0,1710:0:0:0:0:
448,192,1408,128,0,1710:0:0:0:0:
192,192,1912,1,0,0:0:0:0:
320,192,1912,1,0,0:0:0:0:
64,192,2214,1,0,0:0:0:0:
192,192,2214,1,0,0:0:0:0:
448,192,2415,1,0,0:0:0:0:
320,192,2616,1,0,0:0:0:0:
448,192,2818,1,0,0:0:0:0:
64,192,3019,1,0,0:0:0:0:
192,192,3120,1,0,0:0:0:0:
320,192,3422,1,0,0:0:0:0:
192,192,3422,1,0,0:0:0:0:
64,192,3623,1,0,0:0:0:0:
320,192,3824,1,0,0:0:0:0:
64,192,4026,1,0,0:0:0:0:
192,192,4227,1,0,0:0:0:0:
448,192,4428,1,0,0:0:0:0:
192,192,4630,1,0,0:0:0:0:
320,192,4730,1,0,0:0:0:0:
64,192,4831,1,0,0:0:0:0:
64,192,5032,1,0,0:0:0:0:
192,192,5032,1,0,0:0:0:0:
320,192,5234,1,0,0:0:0:0:
448,192,5234,1,0,0:0:0:0:
448,192,5435,1,0,0:0:0:0:
192,192,5435,1,0,0:0:0:0:
192,192,5636,1,0,0:0:0:0:
320,192,5838,1,0,0:0:0:0:
64,192,5838,1,0,0:0:0:0:
192,192,6039,1,0,0:0:0:0:
320,192,6240,1,0,0:0:0:0:
448,192,6341,1,0,0:0:0:0:
192,192,6442,1,0,0:0:0:0:
64,192,6643,1,0,0:0:0:0:
192,192,6643,1,0,0:0:0:0:
192,192,6844,1,0,0:0:0:0:
320,192,7046,1,0,0:0:0:0:
320,192,7247,1,0,0:0:0:0:
192,192,7247,1,0,0:0:0:0:
64,192,7448,1,0,0:0:0:0:
192,192,7650,1,0,0:0:0:0:
320,192,7851,1,0,0:0:0:0:
192,192,7952,1,0,0:0:0:0:
448,192,8053,1,0,0:0:0:0:
64,192,8254,1,0,0:0:0:0:
448,192,8254,1,0,0:0:0:0:
448,192,8455,1,0,0:0:0:0:
64,192,8455,1,0,0:0:0:0:
320,192,8657,128,0,9261:0:0:0:0:
192,192,8657,128,0,9059:0:0:0:0:
64,192,9059,1,0,0:0:0:0:
448,192,9462,1,0,0:0:0:0:
192,192,9462,1,0,0:0:0:0:
448,192,9563,1,0,0:0:0:0:
320,192,9563,1,0,0:0:0:0:
192,192,9865,1,0,0:0:0:0:
64,192,10066,1,0,0:0:0:0:
320,192,10066,1,0,0:0:0:0:
192,192,10267,1,0,0:0:0:0:
320,192,10267,1,0,0:0:0:0:
448,192,10267,1,0,0:0:0:0:
192,192,10670,1,0,0:0:0:0:
64,192,11073,1,0,0:0:0:0:
320,192,11073,1,0,0:0:0:0:
64,192,11173,1,0,0:0:0:0:
448,192,11173,1,0,0:0:0:0:
320,192,11475,1,0,0:0:0:0:
192,192,11677,1,0,0:0:0:0:
320,192,11677,1,0,0:0:0:0:
64,192,11878,1,0,0:0:0:0:
448,192,11878,1,0,0:0:0:0:
320,192,11878,1,0,0:0:0:0:
192,192,12281,1,0,0:0:0:0:
64,192,12482,1,0,0:0:0:0:
448,192,12482,1,0,0:0:0:0:
192,192,12683,1,0,0:0:0:0:
320,192,12683,1,0,0:0:0:0:
448,192,12683,1,0,0:0:0:0:
192,192,13086,1,0,0:0:0:0:
64,192,13287,1,0,0:0:0:0:
320,192,13287,1,0,0:0:0:0:
64,192,13489,1,0,0:0:0:0:
448,192,13489,1,0,0:0:0:0:
192,192,13489,1,0,0:0:0:0:
448,192,13690,1,0,0:0:0:0:
448,192,13891,1,0,0:0:0:0:
192,192,13891,1,0,0:0:0:0:
320,192,13992,1,0,0:0:0:0:
64,192,14294,1,0,0:0:0:0:
320,192,14294,1,0,0:0:0:0:
192,192,14395,1,0,0:0:0:0:
64,192,14697,1,0,0:0:0:0:
448,192,14697,1,0,0:0:0:0:
192,192,14898,128,0,18019:0:0:0:0:
320,192,14898,128,0,17214:0:0:0:0:
64,192,18120,1,0,0:0:0:0:
448,192,18120,1,0,0:0:0:0:
320,192,18321,1,0,0:0:0:0:
192,192,18422,1,0,0:0:0:0:
320,192,18522,1,0,0:0:0:0:
64,192,18623,1,0,0:0:0:0:
448,192,18724,1,0,0:0:0:0:
64,192,18925,128,0,19328:0:0:0:0:
192,192,18925,1,0,0:0:0:0:
192,192,19126,1,0,0:0:0:0:
320,192,19328,1,0,0:0:0:0:
192,192,19529,1,0,0:0:0:0:
448,192,19529,1,0,0:0:0:0:
192,192,19730,1,0,0:0:0:0:
448,192,19730,1,0,0:0:0:0:
64,192,19932,1,0,0:0:0:0:
192,192,20032,1,0,0:0:0:0:
64,192,20133,1,0,0:0:0:0:
320,192,20133,1,0,0:0:0:0:
192,192,20234,1,0,0:0:0:0:
448,192,20334,1,0,0:0:0:0:
320,192,20435,1,0,0:0:0:0:
64,192,20536,128,0,20938:0:0:0:0:
192,192,20536,1,0,0:0:0:0:
320,192,20737,1,0,0:0:0:0:
448,192,20838,1,0,0:0:0:0:
192,192,20938,128,0,21240:0:0:0:0:
320,192,20938,1,0,0:0:0:0:
448,192,21140,1,0,0:0:0:0:
320,192,21341,1,0,0:0:0:0:
64,192,21341,1,0,0:0:0:0:
192,192,21542,1,0,0:0:0:0:
320,192,21542,1,0,0:0:0:0:
192,192,21744,1,0,0:0:0:0:
448,192,21744,1,0,0:0:0:0:
192,192,21945,1,0,0:0:0:0:
320,192,21945,1,0,0:0:0:0:
320,192,22146,128,0,22650:0:0:0:0:
448,192,22146,128,0,22650:0:0:0:0:
64,192,22146,1,0,0:0:0:0:
192,192,22348,1,0,0:0:0:0:
64,192,22549,1,0,0:0:0:0:
192,192,22750,1,0,0:0:0:0:
320,192,22750,1,0,0:0:0:0:
448,192,22851,1,0,0:0:0:0:
320,192,22952,1,0,0:0:0:0:
64,192,23153,1,0,0:0:0:0:
192,192,23153,1,0,0:0:0:0:
64,192,23355,1,0,0:0:0:0:
320,192,23355,1,0,0:0:0:0:
64,192,23556,1,0,0:0:0:0:
192,192,23556,1,0,0:0:0:0:
320,192,23757,1,0,0:0:0:0:
448,192,23858,1,0,0:0:0:0:
320,192,23959,1,0,0:0:0:0:
448,192,24059,1,0,0:0:0:0:
64,192,24160,1,0,0:0:0:0:
192,192,24160,1,0,0:0:0:0:
64,192,24361,1,0,0:0:0:0:
320,192,24361,1,0,0:0:0:0:
192,192,24563,1,0,0:0:0:0:
320,192,24563,1,0,0:0:0:0:
448,192,24563,1,0,0:0:0:0:
320,192,24764,1,0,0:0:0:0:
192,192,24865,1,0,0:0:0:0:
64,192,24965,1,0,0:0:0:0:
192,192,25066,1,0,0:0:0:0:
320,192,25167,1,0,0:0:0:0:
192,192,25368,1,0,0:0:0:0:
64,192,25368,128,0,25771:0:0:0:0:
320,192,25569,1,0,0:0:0:0:
448,192,25670,1,0,0:0:0:0:
320,192,25771,1,0,0:0:0:0:
192,192,25771,1,0,0:0:0:0:
320,192,25972,1,0,0:0:0:0:
192,192,25972,1,0,0:0:0:0:
320,192,26173,1,0,0:0:0:0:
448,192,26173,1,0,0:0:0:0:
64,192,26375,1,0,0:0:0:0:
192,192,26375,1,0,0:0:0:0:
320,192,26475,1,0,0:0:0:0:
448,192,26576,1,0,0:0:0:0:
192,192,26576,1,0,0:0:0:0:
64,192,26677,1,0,0:0:0:0:
320,192,26777,1,0,0:0:0:0:
320,192,26878,1,0,0:0:0:0:
448,192,26979,1,0,0:0:0:0:
192,192,26979,1,0,0:0:0:0:
64,192,26979,128,0,27381:0:0:0:0:
192,192,27180,1,0,0:0:0:0:
320,192,27281,1,0,0:0:0:0:
192,192,27381,1,0,0:0:0:0:
320,192,27381,128,0,27683:0:0:0:0:
448,192,27381,1,0,0:0:0:0:
192,192,27784,1,0,0:0:0:0:
448,192,27784,1,0,0:0:0:0:
320,192,27985,1,0,0:0:0:0:
64,192,27985,1,0,0:0:0:0:
320,192,28187,1,0,0:0:0:0:
192,192,28187,1,0,0:0:0:0:
320,192,28388,1,0,0:0:0:0:
448,192,28388,1,0,0:0:0:0:
64,192,28589,1,0,0:0:0:0:
320,192,28589,1,0,0:0:0:0:
192,192,28589,128,0,29093:0:0:0:0:
448,192,28791,1,0,0:0:0:0:
320,192,28992,1,0,0:0:0:0:
448,192,29193,1,0,0:0:0:0:
64,192,29193,1,0,0:0:0:0:
320,192,29294,1,0,0:0:0:0:
64,192,29395,1,0,0:0:0:0:
192,192,29395,1,0,0:0:0:0:
320,192,29596,1,0,0:0:0:0:
448,192,29596,1,0,0:0:0:0:
320,192,29797,1,0,0:0:0:0:
192,192,29797,1,0,0:0:0:0:
320,192,29999,1,0,0:0:0:0:
64,192,29999,1,0,0:0:0:0:
192,192,30200,1,0,0:0:0:0:
64,192,30301,1,0,0:0:0:0:
320,192,30401,1,0,0:0:0:0:
192,192,30502,1,0,0:0:0:0:
448,192,30603,1,0,0:0:0:0:
448,192,30804,1,0,0:0:0:0:
64,192,31006,1,0,0:0:0:0:
192,192,31106,1,0,0:0:0:0:
320,192,31207,1,0,0:0:0:0:
192,192,31308,1,0,0:0:0:0:
320,192,31408,1,0,0:0:0:0:
448,192,31610,1,0,0:0:0:0:
320,192,31710,1,0,0:0:0:0:
192,192,31811,1,0,0:0:0:0:
320,192,31912,1,0,0:0:0:0:
64,192,32012,1,0,0:0:0:0:
192,192,32113,1,0,0:0:0:0:
320,192,32214,1,0,0:0:0:0:
448,192,32415,1,0,0:0:0:0:
192,192,32516,1,0,0:0:0:0:
448,192,32616,1,0,0:0:0:0:
64,192,32818,1,0,0:0:0:0:
64,192,32918,1,0,0:0:0:0:
192,192,33019,1,0,0:0:0:0:
448,192,33220,1,0,0:0:0:0:
448,192,33321,1,0,0:0:0:0:
320,192,33422,1,0,0:0:0:0:
64,192,33623,1,0,0:0:0:0:
192,192,33623,1,0,0:0:0:0:
192,192,33824,1,0,0:0:0:0:
448,192,34026,1,0,0:0:0:0:
192,192,34126,1,0,0:0:0:0:
64,192,34227,1,0,0:0:0:0:
192,192,34328,1,0,0:0:0:0:
320,192,34428,1,0,0:0:0:0:
448,192,34529,1,0,0:0:0:0:
320,192,34630,1,0,0:0:0:0:
64,192,34831,1,0,0:0:0:0:
192,192,34932,1,0,0:0:0:0:
320,192,35032,1,0,0:0:0:0:
64,192,35133,1,0,0:0:0:0:
448,192,35234,1,0,0:0:0:0:
192,192,35334,1,0,0:0:0:0:
448,192,35435,1,0,0:0:0:0:
64,192,35536,1,0,0:0:0:0:
192,192,35636,1,0,0:0:0:0:
320,192,35737,1,0,0:0:0:0:
192,192,35838,1,0,0:0:0:0:
64,192,35838,128,0,36542:0:0:0:0:
448,192,35938,1,0,0:0:0:0:
320,192,36039,1,0,0:0:0:0:
192,192,36140,1,0,0:0:0:0:
320,192,36240,1,0,0:0:0:0:
448,192,36341,1,0,0:0:0:0:
192,192,36442,1,0,0:0:0:0:
320,192,36542,1,0,0:0:0:0:
192,192,36643,128,0,36945:0:0:0:0:
448,192,36643,128,0,36945:0:0:0:0:
320,192,36844,1,0,0:0:0:0:
64,192,37046,1,0,0:0:0:0:
320,192,37247,1,0,0:0:0:0:
448,192,37247,1,0,0:0:0:0:
64,192,37448,128,0,37750:0:0:0:0:
192,192,37448,1,0,0:0:0:0:
320,192,37549,1,0,0:0:0:0:
192,192,37650,1,0,0:0:0:0:
320,192,37750,1,0,0:0:0:0:
448,192,37851,1,0,0:0:0:0:
192,192,38053,1,0,0:0:0:0:
320,192,38153,1,0,0:0:0:0:
192,192,38254,1,0,0:0:0:0:
64,192,38355,1,0,0:0:0:0:
192,192,38455,1,0,0:0:0:0:
320,192,38556,1,0,0:0:0:0:
448,192,38657,1,0,0:0:0:0:
320,192,38757,1,0,0:0:0:0:
192,192,38858,1,0,0:0:0:0:
448,192,38959,1,0,0:0:0:0:
64,192,39059,128,0,39361:0:0:0:0:
192,192,39059,1,0,0:0:0:0:
320,192,39261,1,0,0:0:0:0:
320,192,39361,1,0,0:0:0:0:
448,192,39462,1,0,0:0:0:0:
320,192,39663,1,0,0:0:0:0:
320,192,39764,1,0,0:0:0:0:
448,192,39865,1,0,0:0:0:0:
64,192,40066,1,0,0:0:0:0:
320,192,40066,1,0,0:0:0:0:
448,192,40267,1,0,0:0:0:0:
192,192,40267,1,0,0:0:0:0:
64,192,40469,1,0,0:0:0:0:
448,192,40469,1,0,0:0:0:0:
320,192,40569,1,0,0:0:0:0:
192,192,40670,128,0,40972:0:0:0:0:
448,192,40670,1,0,0:0:0:0:
320,192,40771,1,0,0:0:0:0:
64,192,40871,1,0,0:0:0:0:
320,192,40972,1,0,0:0:0:0:
448,192,41073,1,0,0:0:0:0:
320,192,41274,1,0,0:0:0:0:
192,192,41375,1,0,0:0:0:0:
320,192,41475,128,0,41777:0:0:0:0:
448,192,41475,1,0,0:0:0:0:
192,192,41576,1,0,0:0:0:0:
64,192,41677,1,0,0:0:0:0:
192,192,41777,1,0,0:0:0:0:
448,192,41878,1,0,0:0:0:0:
448,192,41979,1,0,0:0:0:0:
320,192,42079,1,0,0:0:0:0:
192,192,42180,1,0,0:0:0:0:
448,192,42281,128,0,42583:0:0:0:0:
64,192,42281,1,0,0:0:0:0:
192,192,42381,1,0,0:0:0:0:
320,192,42482,1,0,0:0:0:0:
192,192,42583,1,0,0:0:0:0:
320,192,42683,1,0,0:0:0:0:
320,192,42784,128,0,43086:0:0:0:0:
448,192,42784,1,0,0:0:0:0:
192,192,42885,1,0,0:0:0:0:
64,192,42985,1,0,0:0:0:0:
448,192,43086,1,0,0:0:0:0:
192,192,43187,128,0,43489:0:0:0:0:
64,192,43489,128,0,43690:0:0:0:0:
192,192,43891,128,0,44193:0:0:0:0:
448,192,43891,128,0,44193:0:0:0:0:
320,192,44193,128,0,44395:0:0:0:0:
192,192,44395,1,0,0:0:0:0:
64,192,44697,128,0,46509:0:0:0:0:
448,192,44697,128,0,46509:0:0:0:0:
192,192,45502,1,0,0:0:0:0:
320,192,45502,1,0,0:0:0:0:
320,192,45704,1,0,0:0:0:0:
192,192,45804,1,0,0:0:0:0:
320,192,45905,1,0,0:0:0:0:
192,192,46006,1,0,0:0:0:0:
320,192,46106,1,0,0:0:0:0:
320,192,46308,1,0,0:0:0:0:
320,192,46509,1,0,0:0:0:0:
192,192,46509,1,0,0:0:0:0:
320,192,46710,1,0,0:0:0:0:
448,192,46710,1,0,0:0:0:0:
192,192,46912,1,0,0:0:0:0:
320,192,47012,1,0,0:0:0:0:
64,192,47113,1,0,0:0:0:0:
448,192,47314,1,0,0:0:0:0:
320,192,47415,1,0,0:0:0:0:
64,192,47616,1,0,0:0:0:0:
192,192,47717,1,0,0:0:0:0:
64,192,47818,1,0,0:0:0:0:
448,192,47918,128,0,48120:0:0:0:0:
64,192,48120,128,0,48321:0:0:0:0:
320,192,48120,1,0,0:0:0:0:
448,192,48321,128,0,48522:0:0:0:0:
192,192,48321,1,0,0:0:0:0:
64,192,48522,128,0,48724:0:0:0:0:
320,192,48522,1,0,0:0:0:0:
192,192,48724,1,0,0:0:0:0:
320,192,48925,1,0,0:0:0:0:
448,192,49026,1,0,0:0:0:0:
320,192,49126,1,0,0:0:0:0:
448,192,49227,1,0,0:0:0:0:
320,192,49328,1,0,0:0:0:0:
448,192,49428,1,0,0:0:0:0:
64,192,49529,128,0,50133:0:0:0:0:
192,192,50133,1,0,0:0:0:0:
320,192,50234,1,0,0:0:0:0:
448,192,50334,1,0,0:0:0:0:
64,192,50536,1,0,0:0:0:0:
448,192,50737,1,0,0:0:0:0:
192,192,50938,1,0,0:0:0:0:
320,192,51140,1,0,0:0:0:0:
448,192,51240,1,0,0:0:0:0:
320,192,51341,1,0,0:0:0:0:
448,192,51442,1,0,0:0:0:0:
64,192,51542,1,0,0:0:0:0:
192,192,51744,1,0,0:0:0:0:
320,192,51844,1,0,0:0:0:0:
448,192,51945,1,0,0:0:0:0:
192,192,52146,1,0,0:0:0:0:
320,192,52247,1,0,0:0:0:0:
192,192,52348,1,0,0:0:0:0:
448,192,52448,1,0,0:0:0:0:
64,192,52549,1,0,0:0:0:0:
320,192,52549,1,0,0:0:0:0:
192,192,52750,1,0,0:0:0:0:
320,192,52750,1,0,0:0:0:0:
448,192,52952,1,0,0:0:0:0:
192,192,52952,1,0,0:0:0:0:
64,192,53153,1,0,0:0:0:0:
320,192,53153,1,0,0:0:0:0:
192,192,53355,1,0,0:0:0:0:
64,192,53455,1,0,0:0:0:0:
448,192,53556,1,0,0:0:0:0:
192,192,53757,1,0,0:0:0:0:
448,192,53858,1,0,0:0:0:0:
448,192,54059,1,0,0:0:0:0:
320,192,54160,1,0,0:0:0:0:
192,192,54261,1,0,0:0:0:0:
64,192,54361,1,0,0:0:0:0:
192,192,54462,1,0,0:0:0:0:
320,192,54563,1,0,0:0:0:0:
192,192,54663,1,0,0:0:0:0:
320,192,54764,1,0,0:0:0:0:
448,192,54865,1,0,0:0:0:0:
320,192,54965,1,0,0:0:0:0:
192,192,55066,1,0,0:0:0:0:
64,192,55167,128,0,55972:0:0:0:0:
448,192,55167,128,0,55972:0:0:0:0:
192,192,55972,128,0,56475:0:0:0:0:
320,192,55972,128,0,56475:0:0:0:0:
448,192,56576,1,0,0:0:0:0:
192,192,56576,1,0,0:0:0:0:
448,192,56777,1,0,0:0:0:0:
64,192,56777,1,0,0:0:0:0:
448,192,56979,1,0,0:0:0:0:
320,192,56979,1,0,0:0:0:0:
448,192,57180,1,0,0:0:0:0:
192,192,57180,1,0,0:0:0:0:
192,192,57381,1,0,0:0:0:0:
320,192,57381,1,0,0:0:0:0:
64,192,57583,1,0,0:0:0:0:
320,192,57683,1,0,0:0:0:0:
192,192,57784,1,0,0:0:0:0:
448,192,57885,1,0,0:0:0:0:
192,192,57985,1,0,0:0:0:0:
320,192,58187,1,0,0:0:0:0:
448,192,58388,1,0,0:0:0:0:
320,192,58489,1,0,0:0:0:0:
192,192,58589,1,0,0:0:0:0:
64,192,58690,1,0,0:0:0:0:
448,192,58791,1,0,0:0:0:0:
320,192,58791,1,0,0:0:0:0:
192,192,58891,1,0,0:0:0:0:
320,192,58992,1,0,0:0:0:0:
320,192,59093,1,0,0:0:0:0:
320,192,59193,1,0,0:0:0:0:
448,192,59294,1,0,0:0:0:0:
320,192,59395,1,0,0:0:0:0:
192,192,59495,1,0,0:0:0:0:
64,192,59596,1,0,0:0:0:0:
64,192,59697,1,0,0:0:0:0:
192,192,59797,1,0,0:0:0:0:
448,192,59898,1,0,0:0:0:0:
64,192,59999,1,0,0:0:0:0:
64,192,60099,1,0,0:0:0:0:
320,192,60200,1,0,0:0:0:0:
320,192,60301,1,0,0:0:0:0:
192,192,60401,1,0,0:0:0:0:
192,192,60502,1,0,0:0:0:0:
448,192,60603,1,0,0:0:0:0:
448,192,60704,1,0,0:0:0:0:
64,192,60804,1,0,0:0:0:0:
64,192,60905,1,0,0:0:0:0:
320,192,61006,1,0,0:0:0:0:
320,192,61106,1,0,0:0:0:0:
192,192,61207,1,0,0:0:0:0:
192,192,61308,1,0,0:0:0:0:
64,192,61408,1,0,0:0:0:0:
64,192,61509,1,0,0:0:0:0:
448,192,61610,1,0,0:0:0:0:
320,192,61710,1,0,0:0:0:0:
192,192,61811,1,0,0:0:0:0:
320,192,61912,1,0,0:0:0:0:
64,192,62012,1,0,0:0:0:0:
64,192,62113,1,0,0:0:0:0:
192,192,62214,1,0,0:0:0:0:
448,192,62314,1,0,0:0:0:0:
448,192,62415,1,0,0:0:0:0:
320,192,62516,1,0,0:0:0:0:
192,192,62616,1,0,0:0:0:0:
64,192,62717,1,0,0:0:0:0:
448,192,62818,1,0,0:0:0:0:
448,192,62918,1,0,0:0:0:0:
192,192,63019,1,0,0:0:0:0:
64,192,63120,1,0,0:0:0:0:
448,192,63220,1,0,0:0:0:0:
64,192,63321,1,0,0:0:0:0:
320,192,63422,1,0,0:0:0:0:
64,192,63522,1,0,0:0:0:0:
448,192,63623,1,0,0:0:0:0:
192,192,63724,1,0,0:0:0:0:
64,192,63824,1,0,0:0:0:0:
448,192,63925,1,0,0:0:0:0:
192,192,64026,1,0,0:0:0:0:
192,192,64126,1,0,0:0:0:0:
192,192,64227,1,0,0:0:0:0:
192,192,64328,1,0,0:0:0:0:
192,192,64428,128,0,64630:0:0:0:0:
64,192,64428,128,0,64630:0:0:0:0:
320,192,64831,1,0,0:0:0:0:
448,192,64932,1,0,0:0:0:0:
64,192,65032,1,0,0:0:0:0:
192,192,65133,1,0,0:0:0:0:
64,192,65234,1,0,0:0:0:0:
192,192,65334,1,0,0:0:0:0:
448,192,65435,1,0,0:0:0:0:
64,192,65536,1,0,0:0:0:0:
320,192,65636,1,0,0:0:0:0:
192,192,65737,1,0,0:0:0:0:
448,192,65838,1,0,0:0:0:0:
64,192,65938,1,0,0:0:0:0:
320,192,66039,1,0,0:0:0:0:
320,192,66140,1,0,0:0:0:0:
192,192,66240,1,0,0:0:0:0:
64,192,66341,1,0,0:0:0:0:
448,192,66442,1,0,0:0:0:0:
448,192,66542,1,0,0:0:0:0:
64,192,66643,1,0,0:0:0:0:
64,192,66744,1,0,0:0:0:0:
320,192,66844,1,0,0:0:0:0:
320,192,66945,1,0,0:0:0:0:
192,192,67046,1,0,0:0:0:0:
192,192,67146,1,0,0:0:0:0:
448,192,67247,1,0,0:0:0:0:
448,192,67348,1,0,0:0:0:0:
64,192,67448,1,0,0:0:0:0:
64,192,67549,1,0,0:0:0:0:
192,192,67650,1,0,0:0:0:0:
192,192,67750,1,0,0:0:0:0:
448,192,67851,1,0,0:0:0:0:
448,192,67952,1,0,0:0:0:0:
192,192,68053,1,0,0:0:0:0:
320,192,68153,1,0,0:0:0:0:
448,192,68254,1,0,0:0:0:0:
64,192,68355,1,0,0:0:0:0:
192,192,68455,1,0,0:0:0:0:
192,192,68556,1,0,0:0:0:0:
448,192,68657,1,0,0:0:0:0:
192,192,68757,1,0,0:0:0:0:
192,192,68858,1,0,0:0:0:0:
320,192,68959,1,0,0:0:0:0:
448,192,69059,1,0,0:0:0:0:
320,192,69160,1,0,0:0:0:0:
192,192,69261,1,0,0:0:0:0:
64,192,69361,1,0,0:0:0:0:
192,192,69462,1,0,0:0:0:0:
320,192,69563,1,0,0:0:0:0:
448,192,69663,1,0,0:0:0:0:
192,192,69764,1,0,0:0:0:0:
320,192,69865,1,0,0:0:0:0:
192,192,69965,1,0,0:0:0:0:
64,192,70066,1,0,0:0:0:0:
448,192,70167,1,0,0:0:0:0:
192,192,70267,1,0,0:0:0:0:
320,192,70368,1,0,0:0:0:0:
64,192,70469,128,0,71073:0:0:0:0:
448,192,70469,128,0,71073:0:0:0:0:
320,192,70871,1,0,0:0:0:0:
192,192,70972,1,0,0:0:0:0:
320,192,71073,1,0,0:0:0:0:
64,192,71274,1,0,0:0:0:0:
448,192,71274,1,0,0:0:0:0:
192,192,71475,1,0,0:0:0:0:
320,192,71475,1,0,0:0:0:0:
64,192,71677,1,0,0:0:0:0:
448,192,71677,1,0,0:0:0:0:
192,192,71878,1,0,0:0:0:0:
320,192,71878,1,0,0:0:0:0:
64,192,72079,1,0,0:0:0:0:
448,192,72079,1,0,0:0:0:0:
64,192,72281,1,0,0:0:0:0:
192,192,72281,1,0,0:0:0:0:
320,192,72381,1,0,0:0:0:0:
448,192,72381,1,0,0:0:0:0:
64,192,72482,1,0,0:0:0:0:
448,192,72482,1,0,0:0:0:0:
192,192,72683,1,0,0:0:0:0:
320,192,72683,1,0,0:0:0:0:
448,192,72885,1,0,0:0:0:0:
64,192,72885,1,0,0:0:0:0:
192,192,73086,1,0,0:0:0:0:
448,192,73086,1,0,0:0:0:0:
64,192,73287,1,0,0:0:0:0:
448,192,73287,1,0,0:0:0:0:
320,192,73287,1,0,0:0:0:0:
64,192,73489,1,0,0:0:0:0:
320,192,73489,1,0,0:0:0:0:
64,192,73690,1,0,0:0:0:0:
448,192,73690,1,0,0:0:0:0:
192,192,73891,1,0,0:0:0:0:
448,192,73891,1,0,0:0:0:0:
320,192,73992,1,0,0:0:0:0:
64,192,73992,1,0,0:0:0:0:
64,192,74093,1,0,0:0:0:0:
448,192,74093,1,0,0:0:0:0:
192,192,74294,1,0,0:0:0:0:
320,192,74294,1,0,0:0:0:0:
64,192,74495,1,0,0:0:0:0:
448,192,74495,1,0,0:0:0:0:
64,192,74697,1,0,0:0:0:0:
192,192,74697,1,0,0:0:0:0:
448,192,74697,1,0,0:0:0:0:
64,192,74898,1,0,0:0:0:0:
448,192,74898,1,0,0:0:0:0:
192,192,75099,1,0,0:0:0:0:
320,192,75099,1,0,0:0:0:0:
448,192,75099,1,0,0:0:0:0:
64,192,75301,1,0,0:0:0:0:
448,192,75301,1,0,0:0:0:0:
192,192,75502,1,0,0:0:0:0:
448,192,75502,1,0,0:0:0:0:
320,192,75603,1,0,0:0:0:0:
64,192,75603,1,0,0:0:0:0:
64,192,75704,1,0,0:0:0:0:
448,192,75704,1,0,0:0:0:0:
192,192,75905,1,0,0:0:0:0:
320,192,75905,1,0,0:0:0:0:
64,192,76106,1,0,0:0:0:0:
448,192,76106,1,0,0:0:0:0:
192,192,76308,1,0,0:0:0:0:
320,192,76308,1,0,0:0:0:0:
192,192,76509,1,0,0:0:0:0:
448,192,76509,1,0,0:0:0:0:
64,192,76710,1,0,0:0:0:0:
448,192,76710,1,0,0:0:0:0:
448,192,76912,1,0,0:0:0:0:
192,192,76912,1,0,0:0:0:0:
192,192,77113,1,0,0:0:0:0:
448,192,77113,1,0,0:0:0:0:
64,192,77214,1,0,0:0:0:0:
448,192,77214,1,0,0:0:0:0:
448,192,77314,1,0,0:0:0:0:
320,192,77314,1,0,0:0:0:0:
192,192,77516,1,0,0:0:0:0:
448,192,77516,1,0,0:0:0:0:
320,192,77717,1,0,0:0:0:0:
64,192,77717,1,0,0:0:0:0:
192,192,77918,1,0,0:0:0:0:
448,192,77918,1,0,0:0:0:0:
64,192,78019,1,0,0:0:0:0:
320,192,78019,1,0,0:0:0:0:
448,192,78321,1,0,0:0:0:0:
320,192,78321,1,0,0:0:0:0:
64,192,78321,1,0,0:0:0:0:
192,192,78724,1,0,0:0:0:0:
320,192,78724,1,0,0:0:0:0:
448,192,78724,1,0,0:0:0:0:
64,192,78824,1,0,0:0:0:0:
192,192,78824,1,0,0:0:0:0:
448,192,79126,1,0,0:0:0:0:
320,192,79126,1,0,0:0:0:0:
192,192,79126,1,0,0:0:0:0:
64,192,79227,1,0,0:0:0:0:
64,192,79328,1,0,0:0:0:0:
448,192,79328,1,0,0:0:0:0:
192,192,79529,1,0,0:0:0:0:
448,192,79529,1,0,0:0:0:0:
320,192,79730,1,0,0:0:0:0:
64,192,79730,1,0,0:0:0:0:
320,192,79932,1,0,0:0:0:0:
192,192,79932,1,0,0:0:0:0:
64,192,79932,1,0,0:0:0:0:
448,192,80334,1,0,0:0:0:0:
64,192,80334,1,0,0:0:0:0:
320,192,80334,1,0,0:0:0:0:
320,192,80435,1,0,0:0:0:0:
64,192,80435,1,0,0:0:0:0:
192,192,80737,1,0,0:0:0:0:
320,192,80737,1,0,0:0:0:0:
448,192,80737,1,0,0:0:0:0:
192,192,80838,1,0,0:0:0:0:
64,192,80938,1,0,0:0:0:0:
448,192,80938,1,0,0:0:0:0:
320,192,80938,1,0,0:0:0:0:
64,192,81140,1,0,0:0:0:0:
192,192,81140,1,0,0:0:0:0:
320,192,81542,1,0,0:0:0:0:
64,192,81542,1,0,0:0:0:0:
448,192,81542,1,0,0:0:0:0:
192,192,81744,1,0,0:0:0:0:
320,192,81744,1,0,0:0:0:0:
64,192,81744,1,0,0:0:0:0:
192,192,81945,1,0,0:0:0:0:
320,192,81945,1,0,0:0:0:0:
192,192,82046,1,0,0:0:0:0:
320,192,82046,1,0,0:0:0:0:
448,192,82348,1,0,0:0:0:0:
192,192,82348,1,0,0:0:0:0:
64,192,82348,1,0,0:0:0:0:
320,192,82549,1,0,0:0:0:0:
448,192,82549,1,0,0:0:0:0:
320,192,82750,1,0,0:0:0:0:
448,192,82750,1,0,0:0:0:0:
192,192,82952,1,0,0:0:0:0:
320,192,83053,1,0,0:0:0:0:
192,192,83153,1,0,0:0:0:0:
448,192,83153,1,0,0:0:0:0:
320,192,83254,1,0,0:0:0:0:
448,192,83355,1,0,0:0:0:0:
320,192,83455,1,0,0:0:0:0:
448,192,83556,1,0,0:0:0:0:
192,192,83556,1,0,0:0:0:0:
448,192,83657,1,0,0:0:0:0:
64,192,83657,1,0,0:0:0:0:
192,192,83757,1,0,0:0:0:0:
64,192,83858,1,0,0:0:0:0:
192,192,83959,1,0,0:0:0:0:
64,192,84059,1,0,0:0:0:0:
448,192,84160,1,0,0:0:0:0:
64,192,84160,1,0,0:0:0:0:
192,192,84361,1,0,0:0:0:0:
320,192,84462,1,0,0:0:0:0:
448,192,84563,1,0,0:0:0:0:
320,192,84663,1,0,0:0:0:0:
64,192,84764,1,0,0:0:0:0:
448,192,84764,1,0,0:0:0:0:
192,192,84965,1,0,0:0:0:0:
320,192,84965,1,0,0:0:0:0:
64,192,85167,1,0,0:0:0:0:
192,192,85167,1,0,0:0:0:0:
448,192,85368,1,0,0:0:0:0:
320,192,85368,1,0,0:0:0:0:
64,192,85569,1,0,0:0:0:0:
192,192,85670,1,0,0:0:0:0:
320,192,85771,1,0,0:0:0:0:
64,192,85972,1,0,0:0:0:0:
192,192,85972,1,0,0:0:0:0:
320,192,86073,1,0,0:0:0:0:
448,192,86073,1,0,0:0:0:0:
320,192,86274,1,0,0:0:0:0:
448,192,86375,1,0,0:0:0:0:
192,192,86475,1,0,0:0:0:0:
64,192,86576,1,0,0:0:0:0:
192,192,86777,1,0,0:0:0:0:
448,192,86777,1,0,0:0:0:0:
320,192,86979,1,0,0:0:0:0:
64,192,86979,1,0,0:0:0:0:
448,192,87180,1,0,0:0:0:0:
192,192,87180,1,0,0:0:0:0:
192,192,87381,1,0,0:0:0:0:
320,192,87381,1,0,0:0:0:0:
64,192,87583,1,0,0:0:0:0:
320,192,87683,1,0,0:0:0:0:
192,192,87784,1,0,0:0:0:0:
448,192,87885,1,0,0:0:0:0:
320,192,87985,1,0,0:0:0:0:
64,192,88086,1,0,0:0:0:0:
320,192,88187,128,0,88489:0:0:0:0:
64,192,88589,1,0,0:0:0:0:
448,192,88589,1,0,0:0:0:0:
192,192,88791,1,0,0:0:0:0:
320,192,88891,1,0,0:0:0:0:
448,192,88992,1,0,0:0:0:0:
192,192,89193,1,0,0:0:0:0:
64,192,89193,1,0,0:0:0:0:
320,192,89395,1,0,0:0:0:0:
448,192,89395,1,0,0:0:0:0:
192,192,89596,1,0,0:0:0:0:
320,192,89596,1,0,0:0:0:0:
320,192,89797,128,0,90301:0:0:0:0:
448,192,89797,128,0,90301:0:0:0:0:
448,192,90603,1,0,0:0:0:0:
64,192,90603,1,0,0:0:0:0:
192,192,90804,1,0,0:0:0:0:
320,192,90905,1,0,0:0:0:0:
64,192,91006,1,0,0:0:0:0:
448,192,91106,1,0,0:0:0:0:
320,192,91207,1,0,0:0:0:0:
192,192,91408,1,0,0:0:0:0:
64,192,91408,1,0,0:0:0:0:
320,192,91610,1,0,0:0:0:0:
448,192,91610,1,0,0:0:0:0:
192,192,91811,1,0,0:0:0:0:
320,192,91811,1,0,0:0:0:0:
448,192,92012,1,0,0:0:0:0:
320,192,92113,1,0,0:0:0:0:
192,192,92214,1,0,0:0:0:0:
64,192,92415,1,0,0:0:0:0:
192,192,92516,1,0,0:0:0:0:
448,192,92616,1,0,0:0:0:0:
320,192,92717,1,0,0:0:0:0:
192,192,92818,1,0,0:0:0:0:
448,192,93019,1,0,0:0:0:0:
320,192,93019,1,0,0:0:0:0:
64,192,93220,1,0,0:0:0:0:
192,192,93220,1,0,0:0:0:0:
192,192,93422,1,0,0:0:0:0:
320,192,93422,1,0,0:0:0:0:
448,192,93623,1,0,0:0:0:0:
448,192,93724,1,0,0:0:0:0:
320,192,93824,1,0,0:0:0:0:
64,192,94026,1,0,0:0:0:0:
192,192,94126,1,0,0:0:0:0:
64,192,94227,1,0,0:0:0:0:
448,192,94428,1,0,0:0:0:0:
320,192,94529,1,0,0:0:0:0:
448,192,94630,1,0,0:0:0:0:
192,192,94831,1,0,0:0:0:0:
448,192,94932,1,0,0:0:0:0:
192,192,95032,1,0,0:0:0:0:
64,192,95234,1,0,0:0:0:0:
320,192,95334,1,0,0:0:0:0:
192,192,95435,1,0,0:0:0:0:
192,192,95636,1,0,0:0:0:0:
192,192,95838,1,0,0:0:0:0:
192,192,96039,1,0,0:0:0:0:
192,192,96240,1,0,0:0:0:0:
192,192,96341,1,0,0:0:0:0:
192,192,96442,1,0,0:0:0:0:
192,192,96542,1,0,0:0:0:0:
192,192,96643,1,0,0:0:0:0:
192,192,96744,1,0,0:0:0:0:
192,192,96844,1,0,0:0:0:0:
192,192,96945,1,0,0:0:0:0:
64,192,97146,128,0,97348:0:0:0:0:
448,192,97146,128,0,97348:0:0:0:0:
192,192,97348,128,0,97549:0:0:0:0:
320,192,97348,128,0,97549:0:0:0:0:
64,192,97549,1,0,0:0:0:0:
448,192,97549,1,0,0:0:0:0:
448,192,97851,128,0,99059:0:0:0:0:
64,192,97851,128,0,99563:0:0:0:0:
320,192,98657,1,0,0:0:0:0:
192,192,98757,1,0,0:0:0:0:
320,192,98858,1,0,0:0:0:0:
192,192,98959,1,0,0:0:0:0:
320,192,99059,1,0,0:0:0:0:
192,192,99160,1,0,0:0:0:0:
320,192,99261,1,0,0:0:0:0:
192,192,99361,1,0,0:0:0:0:
64,192,100267,1,0,0:0:0:0:
448,192,100267,1,0,0:0:0:0:
320,192,100267,1,0,0:0:0:0:
64,192,100469,1,0,0:0:0:0:
448,192,100469,1,0,0:0:0:0:
192,192,100469,1,0,0:0:0:0:
320,192,100569,1,0,0:0:0:0:
192,192,100670,1,0,0:0:0:0:
448,192,100670,1,0,0:0:0:0:
320,192,100771,1,0,0:0:0:0:
448,192,100871,1,0,0:0:0:0:
192,192,100871,1,0,0:0:0:0:
192,192,101073,1,0,0:0:0:0:
320,192,101073,1,0,0:0:0:0:
64,192,101274,1,0,0:0:0:0:
320,192,101274,1,0,0:0:0:0:
192,192,101475,1,0,0:0:0:0:
448,192,101475,1,0,0:0:0:0:
64,192,101677,1,0,0:0:0:0:
320,192,101677,1,0,0:0:0:0:
448,192,101777,1,0,0:0:0:0:
192,192,101878,1,0,0:0:0:0:
320,192,101878,1,0,0:0:0:0:
448,192,102079,1,0,0:0:0:0:
64,192,102079,1,0,0:0:0:0:
192,192,102180,1,0,0:0:0:0:
320,192,102180,1,0,0:0:0:0:
192,192,102381,1,0,0:0:0:0:
320,192,102381,1,0,0:0:0:0:
64,192,102482,1,0,0:0:0:0:
448,192,102482,1,0,0:0:0:0:
320,192,102583,1,0,0:0:0:0:
64,192,102683,1,0,0:0:0:0:
320,192,102683,1,0,0:0:0:0:
64,192,102885,1,0,0:0:0:0:
320,192,102885,1,0,0:0:0:0:
448,192,103086,1,0,0:0:0:0:
320,192,103086,1,0,0:0:0:0:
448,192,103287,1,0,0:0:0:0:
192,192,103287,1,0,0:0:0:0:
192,192,103489,1,0,0:0:0:0:
320,192,103489,1,0,0:0:0:0:
448,192,103690,1,0,0:0:0:0:
64,192,103690,1,0,0:0:0:0:
192,192,103791,1,0,0:0:0:0:
320,192,103891,1,0,0:0:0:0:
64,192,103891,1,0,0:0:0:0:
448,192,103992,1,0,0:0:0:0:
64,192,104093,1,0,0:0:0:0:
320,192,104093,1,0,0:0:0:0:
192,192,104193,1,0,0:0:0:0:
448,192,104193,1,0,0:0:0:0:
320,192,104294,1,0,0:0:0:0:
448,192,104294,1,0,0:0:0:0:
64,192,104495,1,0,0:0:0:0:
320,192,104495,1,0,0:0:0:0:
192,192,104697,1,0,0:0:0:0:
448,192,104697,1,0,0:0:0:0:
192,192,104898,1,0,0:0:0:0:
320,192,104898,1,0,0:0:0:0:
64,192,104999,1,0,0:0:0:0:
448,192,105099,1,0,0:0:0:0:
320,192,105099,1,0,0:0:0:0:
192,192,105301,1,0,0:0:0:0:
448,192,105301,1,0,0:0:0:0:
64,192,105502,1,0,0:0:0:0:
192,192,105502,1,0,0:0:0:0:
448,192,105704,1,0,0:0:0:0:
64,192,105704,1,0,0:0:0:0:
192,192,105905,1,0,0:0:0:0:
320,192,105905,1,0,0:0:0:0:
192,192,106006,1,0,0:0:0:0:
448,192,106106,1,0,0:0:0:0:
320,192,106106,1,0,0:0:0:0:
320,192,106207,1,0,0:0:0:0:
192,192,106308,1,0,0:0:0:0:
448,192,106308,1,0,0:0:0:0:
192,192,106509,1,0,0:0:0:0:
64,192,106509,1,0,0:0:0:0:
320,192,106610,1,0,0:0:0:0:
320,192,106710,1,0,0:0:0:0:
448,192,106710,1,0,0:0:0:0:
192,192,106912,1,0,0:0:0:0:
448,192,106912,1,0,0:0:0:0:
320,192,107012,1,0,0:0:0:0:
192,192,107113,1,0,0:0:0:0:
448,192,107214,1,0,0:0:0:0:
64,192,107214,1,0,0:0:0:0:
64,192,107314,1,0,0:0:0:0:
448,192,107314,1,0,0:0:0:0:
320,192,107516,1,0,0:0:0:0:
448,192,107717,1,0,0:0:0:0:
64,192,107717,1,0,0:0:0:0:
192,192,107918,1,0,0:0:0:0:
448,192,107918,1,0,0:0:0:0:
64,192,108120,1,0,0:0:0:0:
448,192,108120,1,0,0:0:0:0:
320,192,108220,1,0,0:0:0:0:
320,192,108321,1,0,0:0:0:0:
192,192,108321,1,0,0:0:0:0:
448,192,108522,1,0,0:0:0:0:
192,192,108522,1,0,0:0:0:0:
64,192,108623,1,0,0:0:0:0:
320,192,108623,1,0,0:0:0:0:
192,192,108824,1,0,0:0:0:0:
320,192,108824,1,0,0:0:0:0:
192,192,108925,1,0,0:0:0:0:
320,192,108925,1,0,0:0:0:0:
320,192,109026,1,0,0:0:0:0:
448,192,109126,1,0,0:0:0:0:
320,192,109227,1,0,0:0:0:0:
448,192,109328,1,0,0:0:0:0:
192,192,109328,1,0,0:0:0:0:
64,192,109428,1,0,0:0:0:0:
64,192,109529,1,0,0:0:0:0:
448,192,109529,1,0,0:0:0:0:
320,192,109630,1,0,0:0:0:0:
192,192,109730,1,0,0:0:0:0:
320,192,109730,1,0,0:0:0:0:
64,192,109831,1,0,0:0:0:0:
192,192,109932,128,0,110334:0:0:0:0:
448,192,109932,128,0,110334:0:0:0:0:
320,192,110133,1,0,0:0:0:0:
64,192,110133,1,0,0:0:0:0:
64,192,110435,1,0,0:0:0:0:
448,192,110435,1,0,0:0:0:0:
448,192,110536,1,0,0:0:0:0:
64,192,110536,1,0,0:0:0:0:
192,192,110737,128,0,111140:0:0:0:0:
320,192,110737,128,0,111140:0:0:0:0:
448,192,110938,1,0,0:0:0:0:
64,192,110938,1,0,0:0:0:0:
448,192,111240,1,0,0:0:0:0:
192,192,111240,1,0,0:0:0:0:
192,192,111341,1,0,0:0:0:0:
448,192,111341,1,0,0:0:0:0:
320,192,111442,1,0,0:0:0:0:
448,192,111542,1,0,0:0:0:0:
320,192,111744,1,0,0:0:0:0:
64,192,111744,1,0,0:0:0:0:
320,192,111945,1,0,0:0:0:0:
448,192,111945,1,0,0:0:0:0:
320,192,112146,1,0,0:0:0:0:
192,192,112146,1,0,0:0:0:0:
64,192,112348,128,0,113053:0:0:0:0:
320,192,112348,128,0,113053:0:0:0:0:
448,192,112348,128,0,113053:0:0:0:0:
64,192,113153,1,0,0:0:0:0:
192,192,113153,1,0,0:0:0:0:
320,192,113153,1,0,0:0:0:0:
448,192,113153,1,0,0:0:0:0:
