osu file format v9

[General]
AudioFilename: 123.mp3
AudioLeadIn: 0
PreviewTime: 45215
Countdown: 0
SampleSet: Soft
StackLeniency: 0.7
Mode: 0
LetterboxInBreaks: 1

[Editor]
Bookmarks: 23543,27243
DistanceSpacing: 1
BeatDivisor: 4
GridSize: 8

[Metadata]
Title: Haigoku Lullaby
Artist:ZUN
Creator:latias380
Version:Hard
Source:Touhou
Tags:Happy606510 Metallugy fysh555 latios381

[Difficulty]
HPDrainRate:6
CircleSize:5
OverallDifficulty:6
ApproachRate:7
SliderMultiplier:1.4
SliderTickRate:2

[Events]
//Background and Video events
0,0,"BG(1).jpg"
//Break Periods
2,65009,74294
//Storyboard Layer 0 (Background)
//Storyboard Layer 1 (Fail)
//Storyboard Layer 2 (Pass)
//Storyboard Layer 3 (Foreground)
//Storyboard Sound Samples
//Background Colour Transformations
3,100,163,162,255

[TimingPoints]
15194,384.615384615385,3,2,0,100,1,0
24040,-100,3,1,2,100,0,0
24424,-100,3,2,2,100,0,0
24809,-100,3,2,1,100,0,0
45197,-100,3,2,0,100,0,1
62501,-200,3,2,0,100,0,1
62508,-100,3,2,0,100,0,1
63270,-100,3,2,0,100,0,1
63277,-100,3,2,0,100,0,1
64809,-100,3,1,1,100,0,0
75194,-100,3,2,2,100,0,0
75770,-100,3,2,1,100,0,0
76347,-100,3,2,2,100,0,0
76924,-100,3,2,1,100,0,0
77501,-100,3,2,2,100,0,0
78078,-100,3,2,1,100,0,0
78655,-100,3,2,2,100,0,0
79232,-100,3,2,1,100,0,0
79809,-100,3,2,2,100,0,0
80001,-100,3,2,1,100,0,0
80194,-100,3,1,2,100,0,0
80386,-100,3,2,1,100,0,0
80578,-100,3,1,2,100,0,0
80770,-100,3,2,1,100,0,0
80963,-100,3,2,2,100,0,0
81155,-100,3,2,1,100,0,0
81347,-100,3,1,2,100,0,0
81540,-100,3,2,1,100,0,0
81732,-100,3,1,2,100,0,0
81924,-100,3,2,1,100,0,0
82117,-100,3,2,2,100,0,0
82213,-100,3,2,1,100,0,0
82501,-100,3,1,2,100,0,0
82597,-100,3,2,1,100,0,0
82694,-100,3,1,2,100,0,0
82790,-100,3,2,1,100,0,0
82886,-100,3,1,2,100,0,0
82982,-100,3,2,1,100,0,0
83078,-100,3,1,2,100,0,0
83270,-100,3,2,2,100,0,0
83319,-100,3,2,1,100,0,0
83847,-100,3,1,2,100,0,0
83895,-100,3,2,1,100,0,0
83944,-100,3,1,2,100,0,0
83992,-100,3,2,1,100,0,0
84040,-100,3,1,2,100,0,0
84424,-100,3,2,0,100,0,1
94809,-100,3,2,0,75,0,1
94905,-100,3,2,0,100,0,1
96732,-100,3,2,0,75,0,1
100578,-200,3,2,0,100,0,1
101347,-100,3,2,0,100,0,1
101732,-200,3,2,0,100,0,1
102501,-100,3,2,0,100,0,1
123655,-200,3,2,0,100,0,1
124809,-100,3,2,0,100,0,1
125963,-100,3,2,0,85,0,0
162886,-200,3,2,0,100,0,0
163655,-100,3,2,0,100,0,0
164040,-200,3,2,0,100,0,0
166347,-100,3,2,0,100,0,0
167501,-100,3,2,0,100,0,0
168655,810.810810810811,3,2,0,100,1,0
168655,-100,3,2,0,100,0,0
169871,-200,3,2,0,100,0,0
170884,-200,3,2,0,50,0,0
171087,-100,3,1,1,65,0,0
171898,-100,3,2,1,60,0,0
172303,-100,3,2,1,50,0,0
173519,-100,3,2,1,40,0,0
174330,-100,3,2,1,30,0,0
174736,-100,3,2,1,20,0,0
176357,-200,3,1,1,40,0,0

[Colours]
Combo1 : 255,155,55
Combo2 : 45,45,255
Combo3 : 255,128,128
Combo4 : 128,128,128

[HitObjects]
160,112,24041,1,0
224,112,24233,1,0
192,168,24425,2,0,B|192:312,2,140,0|0|0
264,168,25387,1,0
336,168,25579,2,0,B|480:168,2,140
336,96,26541,1,0
336,24,26733,6,0,B|192:24,2,140,4|0|0
344,160,27887,2,0,B|344:320,2,140,4|0|0
344,128,28751,1,0
344,96,28847,1,2
344,32,29040,2,0,B|192:32,2,140,4|0|0
416,32,30001,1,2
416,104,30194,2,0,B|416:160|336:224|272:256|192:256,1,280
64,264,31347,6,0,B|64:104,1,140,4|0
136,120,31924,1,2
208,120,32117,1,0
347,120,32501,2,0,B|208:121,1,140,4|0
136,120,33078,1,2
136,192,33270,1,0
136,328,33655,1,4
280,328,34040,2,0,B|352:328,4,70,0|0|0|2|4
344,208,35194,5,2
344,72,35578,1,2
224,48,35963,2,0,B|80:48,1,140,4|0
64,120,36540,1,0
104,176,36732,2,0,B|192:176,1,70
174,176,37117,2,0,B|246:208,1,70,4|0
237,204,37501,2,0,B|238:305,2,70
384,256,38270,6,0,B|440:192|376:128,2,140,2|0|0
312,256,39232,1,2
240,256,39424,2,0,B|184:192|242:128,2,140,2|0|0
312,136,40578,1,4
40,128,41347,5,0
40,200,41540,1,2
112,200,41732,2,0,B|256:200,2,140
40,128,42886,2,0,B|40:296,2,140
256,192,44040,12,4,45194
320,192,45963,5,0
320,192,46155,1,0
320,192,46347,1,0
328,56,46732,1,0
328,56,46924,1,0
328,56,47117,1,0
184,56,47501,2,0,B|104:88|104:192,2,140,4|0|0
328,56,48655,2,0,B|408:96|408:192,2,140
256,176,49809,6,0,B|256:344,1,140,4|0
152,224,50578,1,0
96,272,50770,1,0
88,200,50963,2,0,B|88:32,2,140
232,192,52117,2,0,B|232:120,4,70,4|0|0|0|0
376,192,53270,2,0,B|472:192,4,70
256,192,54424,12,4,55578
136,104,55963,5,0
248,192,56347,1,0
352,288,56732,2,0,B|352:284|352:144,2,140,4|0|0
248,192,57886,2,0,B|96:192,2,140,4|0|0
248,48,59040,2,0,B|344:48,1,70
318,48,59424,2,0,B|320:144,1,70
319,117,59809,1,4
320,256,60194,6,0,B|224:256,1,70,4|0
250,256,60578,2,0,B|250:181,1,70,0|0
250,186,60963,2,0,B|158:186,1,70,0|0
176,256,61347,6,0,B|32:256,2,140,4|0|0
178,325,62309,1,2
247,327,62501,6,0,B|332:327,2,70,4|0|0
256,192,63655,12,0,64809
256,189,75194,5,0
465,187,75770,1,2
394,189,75963,1,0
254,189,76347,5,0
43,189,76924,1,2
113,189,77117,1,0
252,189,77501,5,0
423,309,78078,1,2
371,261,78270,1,0
252,189,78655,5,0
81,312,79232,1,0
137,270,79424,1,2
194,230,79617,1,0
252,191,79809,5,0
302,239,80001,1,0
352,192,80194,1,0
304,141,80386,1,0
251,190,80578,1,0
306,141,80770,1,0
260,88,80963,5,0
211,37,81155,1,0
160,80,81347,1,0
204,131,81540,1,0
152,176,81732,1,0
204,129,81924,1,0
161,81,82117,6,0,B|113:81,10,35,0|0|0|0|0|0|0|0|0|0|0
120,140,83270,6,0,B|120:168,20,17.5,0|0|0|0|0|0|0|0|0|0|0|0|0|0|0|0|0|0|0|0|0
184,168,84424,6,0,B|264:168,2,70,4|0|0
184,240,85001,1,2
184,312,85194,2,0,B|88:312,2,70
328,312,85963,1,0
400,312,86155,1,0
472,312,86347,1,0
400,192,86732,6,0,B|360:136|360:56,2,140,4|0|0
328,192,87694,1,2
256,200,87886,2,0,B|304:256|304:344,2,140,4|0|0
256,56,89040,2,0,B|416:56,2,140
224,56,89905,1,0
192,56,90001,1,0
160,56,90097,1,0
128,56,90194,6,0,B|56:128|0:192|72:240|144:288,1,280,4|0
184,304,91347,2,0,B|184:208,2,70
184,304,91924,2,0,B|264:304,2,70
184,304,92501,2,0,B|104:304,2,70
184,232,93078,1,0
184,160,93270,1,0
184,88,93463,1,0
184,16,93655,6,0,B|280:16,6,70,4|0|0|0|0|0|4
40,24,95194,5,0
40,160,95578,1,0
40,304,95963,2,0,B|128:304,1,70
112,232,96347,2,0,B|200:232,1,70
248,232,96732,1,4
248,88,97117,6,0,B|328:88,1,70
392,88,97501,1,0
392,160,97694,1,0
392,232,97886,1,4
248,232,98270,6,0,B|248:64,2,140
176,232,99232,1,0
176,304,99424,2,0,B|16:304,2,140
177,233,100578,6,0,B|177:185|201:153|233:137|273:137,1,140,4|0
328,136,101540,1,0
328,64,101732,2,0,B|408:64,2,70
336,200,102886,6,0,B|256:200,1,70
264,128,103270,2,0,B|352:128,1,70
336,56,103655,2,0,B|240:56,1,70
192,56,104040,1,4
96,160,104424,2,0,B|96:216,6,35
168,152,105194,6,0,B|448:152,1,280,4|0
448,80,106155,1,0
448,152,106347,1,0
328,80,106732,1,0
256,96,106924,1,0
304,144,107117,1,0
168,136,107501,6,0,B|96:192|168:256,2,140,4|0|0
200,136,108367,1,0
232,136,108463,1,2
264,136,108559,1,0
296,136,108655,2,0,B|464:136,2,140
312,280,109809,1,4
168,280,110194,5,0
168,208,110386,1,0
168,136,110578,1,0
168,64,110770,1,0
240,64,110963,2,2,B|384:64,2,140
243,204,112117,2,0,B|331:204,1,70,4|0
383,205,112501,2,0,B|295:205,1,70
313,205,112886,1,4
320,65,113270,6,0,B|224:65,1,70,4|0
179,65,113655,2,0,B|267:65,1,70
249,65,114040,1,4
248,200,114424,2,0,B|248:368,2,140,4|0|0
112,192,115578,1,4
112,48,115963,5,0
248,48,116347,1,0
388,49,116732,2,0,B|428:97|460:169,2,140,4|0|0
248,48,117886,2,0,B|248:192,2,140
112,40,119040,2,0,B|112:120,1,70
112,110,119424,2,0,B|184:112,1,70
181,111,119809,2,0,B|184:192,1,70
184,256,120194,5,4
288,344,120578,1,0
400,256,120963,1,4
400,112,121347,2,0,B|248:112,2,140
472,112,122309,1,0
472,184,122501,2,0,B|472:328,2,140
256,192,123655,12,4,124809
256,104,125578,5,0
328,104,125770,1,0
400,104,125963,2,0,B|400:256,2,140,4|0|0
400,104,126924,1,2
400,104,127117,1,0
264,104,127501,2,0,B|264:192,2,70
120,104,128270,2,0,B|120:264,2,140,4|0|0
248,136,129424,2,0,B|336:136,1,70
320,208,129809,2,0,B|232:208,1,70
248,280,130194,2,0,B|392:280,1,140,0|4
256,24,131347,5,0
184,24,131540,1,0
112,24,131732,2,0,B|40:80|112:144,2,140
224,104,132886,2,0,B|224:176,4,70
368,104,134040,2,0,B|280:104,4,70
368,248,135194,5,4
224,248,135578,1,0
224,248,135770,1,0
224,248,135963,1,0
224,248,136155,1,0
224,248,136347,1,4
80,248,136732,5,0
80,112,137117,1,0
224,112,137501,2,0,B|312:144,1,70,4|0
289,135,137886,2,0,B|288:232,1,70
288,205,138270,1,4
432,208,138655,6,0,B|432:128,1,70,4|0
432,64,139040,2,0,B|336:64,1,70
360,136,139424,1,4
240,64,139809,6,0,B|240:144,2,70
168,64,140386,2,0,B|88:64,2,70
168,136,140963,1,4
56,224,141347,1,4
160,312,141732,1,4
296,304,142117,2,0,B|456:304,2,140,4|0|0
296,232,143078,1,2
296,160,143270,2,0,B|152:160,2,140,4|0|0
192,64,144424,6,0,B|280:64,1,70
336,64,144809,2,0,B|416:64,1,70
472,64,145194,1,0
256,192,145578,12,0,146539
272,96,146732,6,0,B|216:48,2,70,4|0|0
272,168,147309,1,0
272,240,147501,2,0,B|192:304,2,70
392,168,148270,2,0,B|352:168,4,35
248,168,149040,6,0,B|168:168,1,70,4|0
112,168,149424,1,0
41,168,149617,2,0,B|121:168,1,70
40,288,150194,6,0,B|120:288,1,70,4|0
176,288,150578,1,0
245,288,150770,2,0,B|173:288,1,70
264,176,151347,2,0,B|264:32,2,140
192,176,152309,1,0
120,176,152501,1,2
112,312,152886,1,2
112,32,153270,1,2
256,24,153655,5,2
328,40,153847,1,0
384,80,154040,1,2
432,136,154232,2,0,B|464:176,2,35
312,208,154809,5,2
263,257,155001,1,0
206,296,155194,1,2
137,307,155386,2,0,B|89:307,2,35
256,192,155963,12,4,157117
208,128,157501,5,0
352,128,157886,1,0
280,248,158270,2,0,B|280:88,2,140,4|0|0
200,128,159424,2,0,B|200:288,2,140
344,128,160578,2,0,B|344:288,2,140
256,16,161732,1,4
176,128,162117,1,4
320,128,162501,1,4
248,128,162886,6,0,B|248:280,1,140
184,272,163847,1,0
113,273,164040,2,0,B|113:193,2,70
256,192,165194,12,0,166348
256,192,167117,5,0
256,56,167501,2,0,B|224:40|160:24|128:24|64:32|24:64|0:96,1,280
47,143,168655,2,0,B|47:223,2,70
256,192,169871,12,0,171087
184,264,171898,5,0
220,230,172100,1,0
256,264,172303,2,0,B|400:264,1,140
384,176,173519,2,0,B|384:96,2,70
256,192,174736,12,0,176357
