osu file format v6

[General]
AudioFilename: 09 Plastic Method.mp3
AudioLeadIn: 3000
PreviewTime: -1
Countdown: 1
SampleSet: Soft
StackLeniency: 0.7
Mode: 0
LetterboxInBreaks: 1

[Editor]
DistanceSpacing: 0.800000011920929
BeatDivisor: 4
GridSize: 32

[Metadata]
Title:Plastic Method
Artist:ZTS
Creator:Diokatsu
Version:8-key
Source:DJ MAX
Tags:techno, electronic, trance, ZTS, doujin

[Difficulty]
HPDrainRate:5
CircleSize:5
OverallDifficulty:5
SliderMultiplier:1.4
SliderTickRate:1

[Events]
//Background and Video events
0,0,"plasticmethod-BG.png"
//Break Periods
2,24796,31593
2,57264,64124
2,98055,112921
//Storyboard Layer 0 (Background)
//Storyboard Layer 1 (Fail)
//Storyboard Layer 2 (Pass)
//Storyboard Layer 3 (Foreground)
//Storyboard Sound Samples
//Background Colour Transformations
3,100,163,162,255

[TimingPoints]
262,508.302270416808,4,2,0,100,1,0
114121,-50,4,2,0,100,0,0

[HitObjects]
96,192,262,1,0
128,160,389,1,0
160,192,516,1,0
192,224,643,1,0
224,160,897,1,0
256,192,1024,1,0
288,160,1151,1,0
320,192,1278,1,0
352,160,1405,1,0
384,128,1532,1,0
416,160,1659,1,0
448,192,1786,1,0
480,224,1913,1,0
448,256,2041,1,0
416,224,2168,1,0
416,192,2295,5,0
384,160,2422,1,0
352,192,2549,1,0
320,224,2676,1,0
288,160,2930,1,0
256,192,3057,1,0
224,160,3184,1,0
192,192,3311,1,0
160,160,3438,1,0
128,128,3565,1,0
96,160,3692,1,0
64,192,3819,1,0
32,224,3946,1,0
64,256,4074,1,0
96,224,4201,1,0
96,192,4328,5,0
128,160,4455,1,0
160,192,4582,1,0
192,224,4709,1,0
224,160,4963,1,0
256,192,5090,1,0
288,160,5217,1,0
320,192,5344,1,0
352,160,5471,1,0
384,128,5598,1,0
416,160,5725,1,0
448,192,5852,1,0
480,224,5979,1,0
448,256,6107,1,0
416,224,6234,1,0
416,192,6361,5,0
384,160,6488,1,0
352,192,6615,1,0
320,224,6742,1,0
288,160,6996,1,0
256,192,7123,1,0
224,160,7250,1,0
192,192,7377,1,0
160,160,7504,1,0
128,128,7631,1,0
96,160,7758,1,0
64,192,7885,1,0
32,224,8012,1,0
64,256,8140,2,4,L|64:192,1,35
96,192,8394,6,4,L|128:224,1,35
160,192,8648,1,0
192,224,8775,1,0
224,160,9029,1,0
256,192,9156,1,0
288,160,9283,1,0
320,192,9410,1,0
352,160,9537,1,0
384,128,9664,1,0
416,160,9791,1,0
448,192,9918,1,0
480,224,10045,1,0
448,256,10173,1,0
416,224,10300,1,0
416,192,10427,5,0
384,160,10554,1,0
352,192,10681,1,0
320,224,10808,1,0
288,160,11062,1,0
256,192,11189,1,0
224,160,11316,1,0
192,192,11443,1,0
160,160,11570,1,0
128,128,11697,1,0
96,160,11824,1,0
64,192,11951,1,0
32,224,12078,1,0
64,256,12206,1,0
96,224,12333,1,0
96,192,12461,5,0
128,160,12588,1,0
160,192,12715,1,0
192,224,12842,1,0
224,160,13096,1,0
256,192,13223,1,0
288,160,13350,1,0
320,192,13477,1,0
352,160,13604,1,0
384,128,13731,1,0
416,160,13858,1,0
448,192,13985,1,0
480,224,14112,1,0
448,256,14240,1,0
416,224,14367,1,0
416,192,14494,5,0
384,160,14621,1,0
352,192,14748,1,0
320,224,14875,1,0
288,160,15129,1,0
256,192,15256,1,0
224,160,15383,1,0
192,192,15510,1,0
160,160,15637,1,0
128,128,15764,1,0
96,160,15891,1,0
64,192,16019,2,8,B|32:192|0:128,1,70
0,96,16527,5,0
64,128,16781,1,8
128,96,17035,1,0
192,64,17290,1,0
256,96,17544,1,0
320,64,17798,1,0
384,96,18052,1,0
416,160,18306,2,2,C|416:256,1,70
384,288,18815,5,0
320,320,19069,1,8
256,288,19323,1,0
192,320,19577,1,0
128,288,19831,1,0
96,224,20085,2,2,C|96:128,1,70
128,96,20594,5,0
192,64,20848,1,8
256,96,21102,1,0
320,64,21356,1,0
384,96,21610,1,0
416,160,21864,1,0
416,224,22118,2,8,B|416:288,1,35
384,288,22373,2,8,B|352:320,1,35
320,320,22627,5,4
256,288,22881,2,8,B|192:320,1,70
160,288,23262,1,8
128,320,23389,1,0
96,288,23516,1,8
128,256,23643,1,8
128,224,23770,1,8
128,192,23898,2,2,B|160:160|224:192,1,70
192,160,24215,2,4,B|224:128,3,35
256,192,32793,6,2,C|256:96,1,70
320,96,33301,1,0
384,64,33555,1,0
448,96,33809,1,0
480,160,34064,1,0
448,224,34318,1,0
384,256,34572,1,0
320,288,34826,1,4
256,320,35080,1,0
192,352,35334,1,0
128,320,35589,1,0
192,288,35843,1,0
256,256,36097,1,0
192,224,36351,1,0
256,192,36605,2,2,C|256:128,3,35
288,128,37113,1,0
320,64,37368,1,0
352,64,37495,2,2,C|416:64,3,35
448,64,38130,1,0
480,128,38384,1,0
480,192,38638,1,0
416,192,38892,6,2,C|416:288,1,70
352,288,39401,1,0
288,288,39655,2,2,C|192:288,1,70
160,256,40163,1,8
192,192,40417,1,8
256,160,40672,1,8
320,192,40926,6,2,C|352:128,1,70
416,128,41434,1,0
448,64,41688,1,0
384,32,41942,1,0
320,32,42196,1,0
256,64,42451,1,0
224,128,42705,1,0
160,96,42959,1,4
96,64,43213,1,0
64,128,43467,1,0
32,192,43721,1,0
64,256,43975,1,0
128,288,44230,1,0
192,320,44484,1,0
256,320,44738,6,2,C|320:320,3,35
320,320,45246,1,8
352,256,45500,2,2,C|416:256,3,35
384,224,46009,1,8
384,160,46263,1,0
448,160,46517,1,0
448,224,46771,1,0
448,256,46898,2,2,C|352:256,1,70
352,288,47279,1,0
320,320,47534,1,8
256,320,47788,1,8
192,288,48042,1,8
128,256,48296,1,8
96,192,48550,2,2,C|96:96,1,70
96,64,49059,6,4,C|192:64,1,70
192,96,49440,1,0
224,128,49567,1,0
256,128,49694,1,0
288,160,49821,1,0
256,192,49948,6,4,C|352:192,1,70
352,192,50329,1,0
384,224,50456,1,0
416,256,50583,1,0
448,288,50711,1,0
416,320,50838,1,0
384,352,50965,1,0
352,352,51092,1,0
320,352,51219,1,0
288,320,51346,1,0
256,288,51473,1,0
224,256,51600,1,0
224,224,51727,1,0
224,192,51854,1,0
256,160,51981,6,4,C|352:160,1,70
352,160,52362,1,0
384,128,52490,1,0
384,96,52617,1,0
352,64,52744,1,0
320,64,52871,1,0
288,64,52998,1,0
256,64,53125,1,0
224,96,53252,1,0
192,128,53379,1,0
160,160,53506,1,0
160,192,53633,1,0
160,224,53760,1,0
192,256,53887,1,0
224,288,54014,6,4,C|224:192,1,70
256,192,54396,1,0
288,224,54523,1,0
320,256,54650,1,0
352,288,54777,1,0
320,320,54904,1,0
352,352,55031,1,0
384,320,55158,1,4
416,288,55285,1,4
416,256,55412,1,0
384,224,55539,1,0
352,192,55666,1,0
320,160,55794,1,0
288,160,55921,1,0
256,160,56048,6,4,C|160:160,1,70
160,160,56429,1,0
128,192,56556,1,0
96,224,56683,1,8
96,256,56810,1,8
128,288,56937,1,8
160,288,57064,1,8
128,128,65324,5,0
384,128,68120,1,0
256,192,68247,1,0
128,128,68374,1,0
256,64,68628,5,0
256,192,68882,1,0
256,320,69136,1,0
256,192,69391,1,0
192,160,71170,1,0
320,160,71424,1,0
160,256,72695,5,0
352,256,72949,1,0
256,320,73203,1,0
256,192,73457,1,0
192,192,74982,5,0
320,192,75490,1,0
256,64,76253,1,0
256,224,76761,1,0
192,288,77015,1,0
320,288,77269,1,0
256,352,77523,1,0
256,160,78286,1,0
256,320,79048,1,0
256,192,79557,1,0
160,160,80319,1,0
352,160,80827,1,0
288,256,81336,1,0
256,64,81590,5,4
352,128,83369,1,0
256,128,83496,1,0
160,128,83623,1,0
256,352,84640,1,0
256,32,85656,1,0
256,192,86419,1,0
224,160,89341,5,0
288,160,89468,1,0
288,224,89595,1,0
224,224,89722,1,4
192,160,91248,5,0
320,160,91756,1,4
256,96,92264,1,0
256,224,92773,1,0
256,96,93281,1,0
256,224,93789,1,4
192,288,94552,1,4
320,288,95314,1,4
256,192,96076,1,4
192,128,96839,1,4
288,128,97347,2,0,B|320:96|352:128|352:128|384:96|416:128,1,140
32,256,114121,5,0
64,192,114248,1,0
96,128,114375,1,0
160,96,114502,1,0
224,96,114630,1,0
288,96,114757,1,0
256,160,114884,1,0
192,192,115011,1,0
224,256,115138,1,0
288,288,115265,1,0
320,224,115392,1,0
384,192,115519,1,0
416,256,115646,1,0
448,320,115773,1,0
416,384,115900,1,0
352,352,116027,2,4,L|320:320,1,35
288,352,116154,5,0
224,352,116281,1,0
160,352,116409,1,0
96,320,116536,1,0
64,256,116663,1,0
64,192,116790,1,0
96,128,116917,1,0
160,96,117044,1,0
224,96,117171,1,0
288,96,117298,1,0
352,128,117425,1,0
320,192,117552,1,0
256,224,117679,1,0
288,288,117806,1,0
352,288,117933,1,0
384,256,118061,2,4,L|416:224,1,35
416,192,118188,5,0
416,128,118315,1,0
384,64,118442,1,0
320,64,118569,1,0
256,64,118696,1,0
192,96,118823,1,0
160,160,118950,1,0
96,128,119077,1,0
64,192,119204,1,0
64,256,119331,1,0
96,320,119458,1,0
160,320,119585,1,0
224,320,119713,1,0
288,288,119840,1,0
352,320,119967,1,0
416,320,120094,2,4,L|448:288,1,35
448,256,120221,5,0
480,192,120348,1,0
480,128,120475,1,0
416,160,120602,1,0
384,224,120729,1,0
320,256,120856,1,0
256,288,120983,1,0
192,288,121110,1,0
128,288,121237,1,0
64,256,121365,1,0
64,192,121492,1,0
96,128,121619,1,0
160,128,121746,1,0
224,160,121873,1,0
224,224,122000,1,0
192,288,122127,2,4,L|128:288,1,35
128,288,122254,5,0
64,256,122381,1,0
64,192,122508,1,0
96,128,122635,1,0
160,128,122762,1,0
224,128,122889,1,0
288,128,123016,1,0
352,128,123144,1,0
416,160,123271,1,0
416,224,123398,1,0
384,288,123525,1,0
320,288,123652,1,0
256,288,123779,1,0
192,320,123906,1,0
128,320,124033,1,0
64,288,124160,2,4,L|64:224,1,35
64,224,124287,5,0
64,160,124414,1,0
96,96,124541,1,0
160,96,124668,1,0
224,96,124796,1,0
288,128,124923,1,0
352,160,125050,1,0
320,224,125177,1,0
256,224,125304,1,0
192,224,125431,1,0
160,160,125558,1,0
160,96,125685,1,0
224,64,125812,1,0
288,64,125939,1,0
352,64,126066,1,0
416,96,126193,2,4,L|384:128,1,35
384,160,126320,5,0
352,224,126448,1,0
320,288,126575,1,0
256,320,126702,1,0
192,320,126829,1,0
128,320,126956,1,0
64,288,127083,1,0
64,224,127210,1,0
64,160,127337,1,0
128,128,127464,1,0
192,96,127591,1,0
256,96,127718,1,0
320,96,127845,1,0
384,128,127972,1,0
448,160,128100,1,0
480,224,128227,2,4,L|416:224,1,35
416,256,128354,5,0
384,320,128481,1,0
320,320,128608,1,0
256,288,128735,1,0
256,224,128862,1,0
288,160,128989,1,0
352,128,129116,1,0
320,64,129243,1,0
256,64,129370,1,0
192,64,129497,1,0
128,96,129624,1,0
96,160,129752,1,0
96,224,129879,1,0
96,288,130006,1,0
160,320,130133,1,0
192,256,130260,1,0
160,192,130387,2,4,L|448:192,1,280
