osu file format v14

[General]
AudioFilename: [SDVX II ] Verse IV [NOFX].mp3
AudioLeadIn: 0
PreviewTime: 85983
Countdown: 0
SampleSet: Soft
StackLeniency: 0.7
Mode: 3
LetterboxInBreaks: 0
SpecialStyle: 0
WidescreenStoryboard: 0

[Editor]
Bookmarks: 51180
DistanceSpacing: 1
BeatDivisor: 16
GridSize: 4
TimelineZoom: 4.699998

[Metadata]
Title:Verse IV
TitleUnicode:Verse IV
Artist:ZOGRAPHOS (Yu_Asahina+Yamajet)
ArtistUnicode:ZOGRAPHOS (Yu_Asahina+Yamajet)
Creator:Ichigaki
Version:EXHAUST
Source:SOUND VOLTEX II -infinite infection-
Tags:SDVX KAC2013 Original Song Contest BEMANI
BeatmapID:603737
BeatmapSetID:264749

[Difficulty]
HPDrainRate:8
CircleSize:4
OverallDifficulty:8
ApproachRate:5
SliderMultiplier:1.4
SliderTickRate:1

[Events]
//Background and Video events
0,0,"spc.jpg",0,0
//Break Periods
//Storyboard Layer 0 (Background)
//Storyboard Layer 1 (Fail)
//Storyboard Layer 2 (Pass)
//Storyboard Layer 3 (Foreground)
//Storyboard Sound Samples

[TimingPoints]
804,283.018867924528,6,2,1,40,1,0
4058,283.018867924528,6,2,1,40,1,0
7029,283.018867924528,6,2,1,40,1,0
7524,283.018867924528,6,2,1,40,1,0
7877,283.018867924528,5,2,1,40,1,0
9292,283.018867924528,6,2,1,40,1,0
12546,283.018867924528,6,2,1,40,1,0
13253,283.018867924528,6,2,2,40,1,0
14668,283.018867924528,7,2,2,40,1,0
16507,-100,7,2,1,40,0,0
16649,283.018867924528,5,2,1,40,1,0
18064,283.018867924528,7,2,1,40,1,0
20045,283.018867924528,5,2,1,40,1,0
21460,283.018867924528,6,2,1,40,1,0
24856,283.018867924528,7,2,1,40,1,0
26837,283.018867924528,6,2,1,40,1,0
44950,283.018867924528,3,2,1,40,1,0
45799,283.018867924528,6,2,1,40,1,0
50327,283.018867924528,3,2,1,40,1,0
51176,283.018867924528,6,2,1,40,1,0
55704,283.018867924528,3,2,1,40,1,0
56553,283.018867924528,6,2,1,40,1,0
61081,283.018867924528,3,2,1,40,1,0
61930,283.018867924528,6,2,1,40,1,0
62213,-100,6,2,2,40,0,0
63062,-100,6,2,1,40,0,0
63203,-100,6,2,2,40,0,0
63628,-100,6,2,1,40,0,0
63911,-100,6,2,2,40,0,0
64760,-100,6,2,1,40,0,0
64830,-100,6,2,2,40,0,0
65326,-100,6,2,1,40,0,0
68156,283.018867924528,6,2,1,40,1,0
71269,283.018867924528,6,2,1,40,1,0
76221,283.018867924528,6,2,1,40,1,0
77777,283.018867924528,6,2,1,40,1,0
79333,283.018867924528,6,2,1,40,1,0
80889,283.018867924528,6,2,1,40,1,0
85417,283.018867924528,4,2,1,40,1,0
86266,283.018867924528,6,2,1,40,1,1
87964,283.018867924528,4,2,1,40,1,1
90228,283.018867924528,6,2,1,40,1,1
91926,283.018867924528,4,2,1,40,1,1
94190,283.018867924528,5,2,1,40,1,1
95605,283.018867924528,4,2,1,40,1,1
97869,283.018867924528,7,2,1,40,1,1
100982,-100,7,2,1,40,0,0
101548,283.018867924528,7,2,1,40,1,1
109472,283.018867924528,3,2,1,40,1,0
112726,283.018867924528,4,2,1,40,1,0
117254,283.018867924528,7,2,1,40,1,0

[HitObjects]
64,192,804,5,2,0:0:0:0:
320,192,804,1,4,0:0:0:0:
448,192,804,128,0,2502:0:0:0:0:
64,192,2502,1,0,0:0:0:0:
192,192,2572,1,0,0:0:0:0:
320,192,2643,1,0,0:0:0:0:
448,192,2714,1,0,0:0:0:0:
320,192,2785,1,0,0:0:0:0:
192,192,2855,1,0,0:0:0:0:
320,192,2926,1,0,0:0:0:0:
448,192,2997,1,0,0:0:0:0:
64,192,3068,1,0,0:0:0:0:
192,192,3138,1,0,0:0:0:0:
320,192,3209,1,0,0:0:0:0:
448,192,3280,1,0,0:0:0:0:
64,192,3421,1,2,0:0:0:0:
320,192,3492,1,2,0:0:0:0:
64,192,3563,1,2,0:0:0:0:
192,192,3634,1,2,0:0:0:0:
320,192,3669,1,2,0:0:0:0:
448,192,3704,1,2,0:0:0:0:
320,192,3775,1,2,0:0:0:0:
64,192,3846,1,2,0:0:0:0:
192,192,3917,1,2,0:0:0:0:
448,192,3987,1,2,0:0:0:0:
320,192,4023,1,2,0:0:0:0:
192,192,4058,1,0,0:0:0:0:
64,192,4128,1,0,0:0:0:0:
320,192,4199,1,0,0:0:0:0:
192,192,4270,1,0,0:0:0:0:
448,192,4341,1,0,0:0:0:0:
64,192,4411,1,0,0:0:0:0:
320,192,4482,1,0,0:0:0:0:
448,192,4553,1,0,0:0:0:0:
64,192,4624,1,0,0:0:0:0:
192,192,4694,1,0,0:0:0:0:
320,192,4765,1,0,0:0:0:0:
192,192,4836,1,0,0:0:0:0:
448,192,4907,1,0,0:0:0:0:
320,192,4977,1,0,0:0:0:0:
64,192,5013,1,2,0:0:0:0:
192,192,5083,1,2,0:0:0:0:
448,192,5154,1,2,0:0:0:0:
320,192,5225,1,2,0:0:0:0:
192,192,5260,1,2,0:0:0:0:
64,192,5331,1,2,0:0:0:0:
192,192,5402,1,2,0:0:0:0:
448,192,5473,1,2,0:0:0:0:
64,192,5543,1,2,0:0:0:0:
320,192,5614,1,2,0:0:0:0:
192,192,5685,1,2,0:0:0:0:
64,192,5756,1,0,0:0:0:0:
320,192,5826,1,0,0:0:0:0:
192,192,5897,1,0,0:0:0:0:
448,192,5968,1,0,0:0:0:0:
320,192,6039,1,0,0:0:0:0:
64,192,6109,1,0,0:0:0:0:
448,192,6180,1,0,0:0:0:0:
192,192,6251,1,0,0:0:0:0:
320,192,6322,1,0,0:0:0:0:
64,192,6392,1,0,0:0:0:0:
192,192,6463,1,0,0:0:0:0:
320,192,6534,1,0,0:0:0:0:
192,192,6605,1,0,0:0:0:0:
448,192,6675,1,2,0:0:0:0:
64,192,6746,1,2,0:0:0:0:
192,192,6817,1,2,0:0:0:0:
448,192,6888,1,2,0:0:0:0:
320,192,6923,1,2,0:0:0:0:
64,192,6994,1,2,0:0:0:0:
192,192,7029,1,2,0:0:0:0:
320,192,7064,1,2,0:0:0:0:
448,192,7099,1,0,0:0:0:0:
192,192,7170,1,0,0:0:0:0:
64,192,7241,1,0,0:0:0:0:
192,192,7312,1,0,0:0:0:0:
448,192,7382,1,0,0:0:0:0:
192,192,7524,1,8,0:0:0:0:
64,192,7524,1,0,0:0:0:0:
320,192,7524,1,0,0:0:0:0:
64,192,7877,1,0,0:0:0:0:
192,192,7877,1,2,0:0:0:0:
320,192,8018,1,2,0:0:0:0:
448,192,8018,1,0,0:0:0:0:
192,192,8160,1,8,0:0:0:0:
64,192,8160,1,0,0:0:0:0:
448,192,8584,1,2,0:0:0:0:
64,192,8584,1,0,0:0:0:0:
192,192,8655,1,2,0:0:0:0:
448,192,8726,1,0,0:0:0:0:
64,192,8726,1,2,0:0:0:0:
192,192,8867,1,2,0:0:0:0:
320,192,8867,1,0,0:0:0:0:
320,192,9009,1,2,0:0:0:0:
64,192,9009,1,0,0:0:0:0:
448,192,9079,1,2,0:0:0:0:
192,192,9079,1,0,0:0:0:0:
320,192,9150,1,2,0:0:0:0:
64,192,9150,1,0,0:0:0:0:
192,192,9221,1,2,0:0:0:0:
448,192,9221,1,0,0:0:0:0:
320,192,9292,1,2,0:0:0:0:
192,192,9339,1,2,0:0:0:0:
64,192,9386,1,2,0:0:0:0:
448,192,9480,1,2,0:0:0:0:
192,192,9575,1,2,0:0:0:0:
320,192,9622,1,2,0:0:0:0:
448,192,9669,1,2,0:0:0:0:
64,192,9763,1,2,0:0:0:0:
192,192,9810,1,2,0:0:0:0:
320,192,9858,1,2,0:0:0:0:
448,192,9905,1,2,0:0:0:0:
64,192,9952,1,2,0:0:0:0:
320,192,10046,1,2,0:0:0:0:
192,192,10141,1,2,0:0:0:0:
64,192,10235,1,2,0:0:0:0:
448,192,10329,1,2,0:0:0:0:
320,192,10376,1,2,0:0:0:0:
192,192,10424,1,2,0:0:0:0:
64,192,10471,1,2,0:0:0:0:
448,192,10518,1,2,0:0:0:0:
64,192,10612,128,0,10707:0:0:0:0:
192,192,10612,128,2,10707:0:0:0:0:
320,192,10707,128,2,10801:0:0:0:0:
448,192,10707,128,0,10801:0:0:0:0:
192,192,10801,128,2,10895:0:0:0:0:
64,192,10801,128,0,10895:0:0:0:0:
320,192,10895,128,2,10990:0:0:0:0:
448,192,10895,128,0,10990:0:0:0:0:
64,192,10990,128,8,12263:0:0:0:0:
192,192,10990,1,0,0:0:0:0:
192,192,11343,1,0,0:0:0:0:
448,192,11414,1,0,0:0:0:0:
320,192,11485,1,0,0:0:0:0:
448,192,11697,1,0,0:0:0:0:
320,192,11839,1,0,0:0:0:0:
192,192,11980,1,0,0:0:0:0:
320,192,12122,1,0,0:0:0:0:
448,192,12192,1,0,0:0:0:0:
192,192,12405,1,0,0:0:0:0:
320,192,12405,1,2,0:0:0:0:
448,192,12546,1,4,0:0:0:0:
192,192,12546,1,0,0:0:0:0:
64,192,12546,128,0,12829:0:0:0:0:
64,192,13253,1,0,0:0:0:0:
448,192,13253,1,4,0:0:0:0:
320,192,13253,1,0,0:0:0:0:
192,192,13323,1,0,0:0:0:0:
448,192,13394,1,0,0:0:0:0:
320,192,13465,1,0,0:0:0:0:
64,192,13536,1,0,0:0:0:0:
320,192,13677,1,0,0:0:0:0:
448,192,13748,1,0,0:0:0:0:
192,192,13889,1,0,0:0:0:0:
320,192,13960,1,0,0:0:0:0:
192,192,14102,1,0,0:0:0:0:
64,192,14243,1,0,0:0:0:0:
448,192,14385,1,0,0:0:0:0:
64,192,14526,1,0,0:0:0:0:
192,192,14668,1,0,0:0:0:0:
448,192,14738,1,0,0:0:0:0:
320,192,14809,1,0,0:0:0:0:
64,192,14880,1,0,0:0:0:0:
320,192,14951,1,0,0:0:0:0:
448,192,15092,1,0,0:0:0:0:
192,192,15163,1,0,0:0:0:0:
320,192,15304,1,0,0:0:0:0:
64,192,15375,1,0,0:0:0:0:
192,192,15517,1,0,0:0:0:0:
448,192,15658,1,0,0:0:0:0:
64,192,15800,1,0,0:0:0:0:
320,192,15870,1,0,0:0:0:0:
192,192,15941,1,0,0:0:0:0:
448,192,16083,1,0,0:0:0:0:
64,192,16224,1,0,0:0:0:0:
192,192,16366,1,0,0:0:0:0:
320,192,16436,1,0,0:0:0:0:
192,192,16507,1,2,0:0:0:0:
64,192,16507,1,0,0:0:0:0:
320,192,16578,1,2,0:0:0:0:
448,192,16578,1,0,0:0:0:0:
192,192,16649,1,2,0:0:0:0:
64,192,16649,1,0,0:0:0:0:
320,192,16790,1,0,0:0:0:0:
448,192,16861,1,0,0:0:0:0:
192,192,16932,1,2,0:0:0:0:
64,192,16932,1,0,0:0:0:0:
448,192,17002,1,0,0:0:0:0:
320,192,17073,1,0,0:0:0:0:
64,192,17215,1,0,0:0:0:0:
192,192,17215,1,2,0:0:0:0:
448,192,17356,1,0,0:0:0:0:
192,192,17498,1,2,0:0:0:0:
64,192,17498,1,0,0:0:0:0:
320,192,17639,1,0,0:0:0:0:
64,192,17781,1,0,0:0:0:0:
192,192,17781,1,2,0:0:0:0:
448,192,17922,1,0,0:0:0:0:
192,192,18064,1,2,0:0:0:0:
64,192,18064,1,0,0:0:0:0:
320,192,18134,1,0,0:0:0:0:
448,192,18276,1,0,0:0:0:0:
64,192,18347,1,0,0:0:0:0:
192,192,18347,1,2,0:0:0:0:
448,192,18488,1,0,0:0:0:0:
320,192,18559,1,0,0:0:0:0:
192,192,18630,1,2,0:0:0:0:
64,192,18630,1,0,0:0:0:0:
320,192,18771,1,0,0:0:0:0:
448,192,18842,1,0,0:0:0:0:
64,192,18913,1,0,0:0:0:0:
192,192,18913,1,2,0:0:0:0:
448,192,19054,1,2,0:0:0:0:
320,192,19101,1,2,0:0:0:0:
64,192,19125,1,0,0:0:0:0:
192,192,19196,1,0,0:0:0:0:
448,192,19266,1,0,0:0:0:0:
320,192,19337,1,0,0:0:0:0:
192,192,19408,1,0,0:0:0:0:
448,192,19479,1,2,0:0:0:0:
64,192,19479,1,0,0:0:0:0:
192,192,19549,1,0,0:0:0:0:
448,192,19620,1,0,0:0:0:0:
320,192,19691,1,2,0:0:0:0:
64,192,19762,1,2,0:0:0:0:
192,192,19832,1,0,0:0:0:0:
448,192,19903,1,2,0:0:0:0:
320,192,19950,1,2,0:0:0:0:
192,192,19997,1,2,0:0:0:0:
448,192,20045,1,4,0:0:0:0:
320,192,20045,1,2,0:0:0:0:
64,192,20045,1,0,0:0:0:0:
192,192,20115,1,0,0:0:0:0:
64,192,20257,1,0,0:0:0:0:
192,192,20328,1,8,0:0:0:0:
448,192,20328,1,0,0:0:0:0:
320,192,20469,1,0,0:0:0:0:
448,192,20540,1,0,0:0:0:0:
64,192,20611,1,0,0:0:0:0:
192,192,20611,1,2,0:0:0:0:
320,192,20681,1,0,0:0:0:0:
64,192,20752,1,0,0:0:0:0:
192,192,20894,1,0,0:0:0:0:
448,192,20894,1,8,0:0:0:0:
320,192,21035,1,0,0:0:0:0:
64,192,21177,1,0,0:0:0:0:
192,192,21177,1,2,0:0:0:0:
448,192,21247,1,0,0:0:0:0:
320,192,21318,1,0,0:0:0:0:
64,192,21460,1,8,0:0:0:0:
448,192,21460,1,0,0:0:0:0:
192,192,21530,1,0,0:0:0:0:
320,192,21672,1,0,0:0:0:0:
64,192,21743,1,0,0:0:0:0:
192,192,21743,1,2,0:0:0:0:
448,192,21884,1,0,0:0:0:0:
320,192,21955,1,0,0:0:0:0:
192,192,22026,1,8,0:0:0:0:
64,192,22026,1,0,0:0:0:0:
320,192,22096,1,0,0:0:0:0:
448,192,22167,1,0,0:0:0:0:
192,192,22309,1,0,0:0:0:0:
320,192,22309,1,2,0:0:0:0:
64,192,22450,1,0,0:0:0:0:
192,192,22592,1,0,0:0:0:0:
448,192,22592,1,8,0:0:0:0:
64,192,22662,1,0,0:0:0:0:
320,192,22733,1,0,0:0:0:0:
192,192,22875,1,2,0:0:0:0:
64,192,22875,1,0,0:0:0:0:
448,192,23016,1,0,0:0:0:0:
320,192,23016,1,2,0:0:0:0:
64,192,23158,1,0,0:0:0:0:
192,192,23158,1,8,0:0:0:0:
448,192,23228,1,0,0:0:0:0:
320,192,23370,1,0,0:0:0:0:
448,192,23441,1,2,0:0:0:0:
64,192,23441,1,0,0:0:0:0:
192,192,23582,1,0,0:0:0:0:
320,192,23653,1,0,0:0:0:0:
64,192,23724,1,0,0:0:0:0:
192,192,23724,1,8,0:0:0:0:
448,192,23794,1,0,0:0:0:0:
320,192,23865,1,0,0:0:0:0:
64,192,24007,1,2,0:0:0:0:
192,192,24007,1,0,0:0:0:0:
320,192,24148,1,0,0:0:0:0:
448,192,24290,1,8,0:0:0:0:
64,192,24290,1,0,0:0:0:0:
192,192,24360,1,0,0:0:0:0:
320,192,24431,1,0,0:0:0:0:
448,192,24573,1,2,0:0:0:0:
192,192,24573,1,0,0:0:0:0:
64,192,24714,1,0,0:0:0:0:
320,192,24856,1,8,0:0:0:0:
192,192,24856,1,0,0:0:0:0:
64,192,24926,1,0,0:0:0:0:
192,192,25068,1,0,0:0:0:0:
320,192,25139,1,2,0:0:0:0:
448,192,25139,1,0,0:0:0:0:
64,192,25280,1,0,0:0:0:0:
320,192,25351,1,0,0:0:0:0:
192,192,25351,1,2,0:0:0:0:
192,192,25492,1,0,0:0:0:0:
448,192,25563,1,2,0:0:0:0:
64,192,25563,1,0,0:0:0:0:
320,192,25634,1,0,0:0:0:0:
64,192,25775,1,0,0:0:0:0:
192,192,25775,1,2,0:0:0:0:
448,192,25846,1,0,0:0:0:0:
192,192,25917,1,0,0:0:0:0:
320,192,25988,1,2,0:0:0:0:
448,192,25988,1,0,0:0:0:0:
64,192,26058,1,0,0:0:0:0:
192,192,26129,1,0,0:0:0:0:
448,192,26200,1,2,0:0:0:0:
192,192,26271,1,0,0:0:0:0:
320,192,26341,1,2,0:0:0:0:
64,192,26412,1,0,0:0:0:0:
320,192,26483,1,2,0:0:0:0:
448,192,26554,1,2,0:0:0:0:
192,192,26624,1,0,0:0:0:0:
64,192,26695,1,2,0:0:0:0:
192,192,26742,1,2,0:0:0:0:
320,192,26789,1,2,0:0:0:0:
448,192,26837,128,0,28252:0:0:0:0:
64,192,26837,1,4,0:0:0:0:
192,192,26837,1,2,0:0:0:0:
320,192,27120,1,0,0:0:0:0:
192,192,27120,1,2,0:0:0:0:
64,192,27403,1,0,0:0:0:0:
192,192,27403,1,2,0:0:0:0:
64,192,27686,1,2,0:0:0:0:
320,192,27686,1,0,0:0:0:0:
320,192,27969,1,0,0:0:0:0:
192,192,27969,1,2,0:0:0:0:
64,192,28252,1,2,0:0:0:0:
192,192,28252,128,0,28535:0:0:0:0:
320,192,28393,1,2,0:0:0:0:
448,192,28464,1,2,0:0:0:0:
320,192,28535,128,0,28818:0:0:0:0:
64,192,28535,1,2,0:0:0:0:
64,192,28818,128,0,29101:0:0:0:0:
448,192,28818,1,2,0:0:0:0:
192,192,29101,128,0,29384:0:0:0:0:
448,192,29101,1,2,0:0:0:0:
320,192,29384,128,0,30091:0:0:0:0:
64,192,29384,1,2,0:0:0:0:
64,192,29667,1,2,0:0:0:0:
448,192,29667,1,0,0:0:0:0:
192,192,29808,1,2,0:0:0:0:
448,192,29808,1,0,0:0:0:0:
192,192,29950,1,0,0:0:0:0:
64,192,29950,1,2,0:0:0:0:
448,192,30091,128,2,30516:0:0:0:0:
64,192,30091,1,0,0:0:0:0:
192,192,30162,1,2,0:0:0:0:
320,192,30233,1,2,0:0:0:0:
64,192,30233,1,4,0:0:0:0:
64,192,30516,128,0,31082:0:0:0:0:
192,192,30516,1,2,0:0:0:0:
448,192,30799,1,2,0:0:0:0:
320,192,30799,1,0,0:0:0:0:
192,192,31082,1,4,0:0:0:0:
448,192,31082,128,0,31931:0:0:0:0:
320,192,31082,1,2,0:0:0:0:
64,192,31365,1,2,0:0:0:0:
320,192,31365,1,0,0:0:0:0:
64,192,31648,1,2,0:0:0:0:
192,192,31648,1,0,0:0:0:0:
192,192,31931,1,2,0:0:0:0:
320,192,32072,128,0,32780:0:0:0:0:
64,192,32072,1,4,0:0:0:0:
448,192,32355,1,0,0:0:0:0:
64,192,32497,1,2,0:0:0:0:
192,192,32497,1,0,0:0:0:0:
64,192,32638,1,0,0:0:0:0:
448,192,32780,128,0,32921:0:0:0:0:
192,192,32921,1,2,0:0:0:0:
64,192,32921,1,0,0:0:0:0:
320,192,32992,1,2,0:0:0:0:
64,192,33063,1,0,0:0:0:0:
192,192,33063,1,2,0:0:0:0:
320,192,33134,1,0,0:0:0:0:
64,192,33204,1,2,0:0:0:0:
448,192,33204,1,0,0:0:0:0:
192,192,33275,1,2,0:0:0:0:
448,192,33346,1,0,0:0:0:0:
64,192,33346,1,2,0:0:0:0:
320,192,33417,1,0,0:0:0:0:
64,192,33487,1,2,0:0:0:0:
192,192,33535,1,2,0:0:0:0:
320,192,33582,1,2,0:0:0:0:
64,192,33629,1,0,0:0:0:0:
448,192,33629,1,2,0:0:0:0:
320,192,33700,1,0,0:0:0:0:
64,192,33841,1,0,0:0:0:0:
320,192,33912,1,0,0:0:0:0:
448,192,33912,1,8,0:0:0:0:
192,192,34053,1,0,0:0:0:0:
64,192,34124,1,0,0:0:0:0:
192,192,34195,1,0,0:0:0:0:
320,192,34195,1,2,0:0:0:0:
448,192,34266,1,0,0:0:0:0:
320,192,34336,1,0,0:0:0:0:
64,192,34478,1,0,0:0:0:0:
448,192,34478,1,8,0:0:0:0:
192,192,34620,1,0,0:0:0:0:
320,192,34761,1,2,0:0:0:0:
448,192,34761,1,0,0:0:0:0:
64,192,34832,1,0,0:0:0:0:
192,192,34903,1,0,0:0:0:0:
320,192,35044,1,8,0:0:0:0:
448,192,35044,1,0,0:0:0:0:
64,192,35115,1,0,0:0:0:0:
192,192,35256,1,0,0:0:0:0:
320,192,35327,1,2,0:0:0:0:
448,192,35327,1,0,0:0:0:0:
64,192,35469,1,0,0:0:0:0:
320,192,35539,1,0,0:0:0:0:
192,192,35610,1,0,0:0:0:0:
448,192,35610,1,8,0:0:0:0:
64,192,35681,1,0,0:0:0:0:
320,192,35752,1,0,0:0:0:0:
192,192,35893,1,2,0:0:0:0:
64,192,35893,1,0,0:0:0:0:
448,192,35964,1,0,0:0:0:0:
320,192,36105,1,0,0:0:0:0:
192,192,36176,1,8,0:0:0:0:
64,192,36176,1,0,0:0:0:0:
448,192,36247,1,0,0:0:0:0:
192,192,36318,1,0,0:0:0:0:
320,192,36388,1,2,0:0:0:0:
448,192,36388,1,0,0:0:0:0:
64,192,36459,1,0,0:0:0:0:
192,192,36459,1,2,0:0:0:0:
320,192,36530,1,0,0:0:0:0:
448,192,36601,1,2,0:0:0:0:
64,192,36601,1,0,0:0:0:0:
192,192,36671,1,0,0:0:0:0:
448,192,36742,1,8,0:0:0:0:
320,192,36742,1,0,0:0:0:0:
192,192,36813,1,0,0:0:0:0:
448,192,36884,1,2,0:0:0:0:
64,192,36884,1,0,0:0:0:0:
320,192,36954,1,2,0:0:0:0:
448,192,37025,1,4,0:0:0:0:
192,192,37025,1,0,0:0:0:0:
64,192,37025,1,2,0:0:0:0:
320,192,37167,1,2,0:0:0:0:
64,192,37167,1,0,0:0:0:0:
448,192,37237,1,0,0:0:0:0:
192,192,37308,1,0,0:0:0:0:
320,192,37379,1,0,0:0:0:0:
64,192,37450,1,0,0:0:0:0:
448,192,37450,1,2,0:0:0:0:
192,192,37520,1,0,0:0:0:0:
320,192,37591,1,0,0:0:0:0:
448,192,37591,1,2,0:0:0:0:
192,192,37662,1,0,0:0:0:0:
320,192,37733,1,2,0:0:0:0:
64,192,37733,1,0,0:0:0:0:
192,192,37803,1,0,0:0:0:0:
448,192,37874,1,0,0:0:0:0:
320,192,37945,1,0,0:0:0:0:
192,192,38016,1,2,0:0:0:0:
64,192,38016,1,0,0:0:0:0:
448,192,38086,1,0,0:0:0:0:
192,192,38157,1,2,0:0:0:0:
320,192,38157,1,0,0:0:0:0:
64,192,38228,1,0,0:0:0:0:
320,192,38299,1,0,0:0:0:0:
448,192,38370,1,0,0:0:0:0:
192,192,38440,1,2,0:0:0:0:
64,192,38440,1,0,0:0:0:0:
448,192,38511,1,0,0:0:0:0:
320,192,38582,1,0,0:0:0:0:
192,192,38582,1,2,0:0:0:0:
64,192,38653,1,0,0:0:0:0:
448,192,38723,1,4,0:0:0:0:
320,192,38723,1,0,0:0:0:0:
192,192,38723,1,2,0:0:0:0:
64,192,38794,1,0,0:0:0:0:
192,192,38865,1,2,0:0:0:0:
64,192,39006,1,2,0:0:0:0:
448,192,39006,1,0,0:0:0:0:
320,192,39077,1,0,0:0:0:0:
192,192,39219,1,0,0:0:0:0:
320,192,39289,1,2,0:0:0:0:
64,192,39289,1,0,0:0:0:0:
320,192,39431,1,0,0:0:0:0:
448,192,39431,1,2,0:0:0:0:
192,192,39502,1,0,0:0:0:0:
64,192,39714,1,2,0:0:0:0:
448,192,39714,1,0,0:0:0:0:
192,192,39855,1,2,0:0:0:0:
320,192,39855,1,0,0:0:0:0:
64,192,39926,1,2,0:0:0:0:
448,192,39997,128,0,40421:0:0:0:0:
320,192,39997,1,2,0:0:0:0:
192,192,40421,1,4,0:0:0:0:
64,192,40421,1,0,0:0:0:0:
320,192,40421,1,0,0:0:0:0:
320,192,40563,128,0,40987:0:0:0:0:
64,192,40987,1,8,0:0:0:0:
192,192,40987,128,0,41129:0:0:0:0:
448,192,41129,128,0,41200:0:0:0:0:
64,192,41200,128,0,41270:0:0:0:0:
320,192,41270,128,0,41412:0:0:0:0:
192,192,41412,128,0,41483:0:0:0:0:
192,192,41695,128,0,41836:0:0:0:0:
320,192,41836,1,0,0:0:0:0:
448,192,41836,1,2,0:0:0:0:
64,192,41978,128,0,42120:0:0:0:0:
448,192,42120,1,2,0:0:0:0:
320,192,42120,1,0,0:0:0:0:
192,192,42261,128,0,42686:0:0:0:0:
320,192,42403,1,0,0:0:0:0:
64,192,42544,1,2,0:0:0:0:
448,192,42544,1,0,0:0:0:0:
448,192,42686,1,0,0:0:0:0:
320,192,42686,1,8,0:0:0:0:
64,192,42827,128,0,42898:0:0:0:0:
192,192,42969,128,0,43110:0:0:0:0:
448,192,43110,128,0,43181:0:0:0:0:
64,192,43252,1,0,0:0:0:0:
320,192,43252,1,2,0:0:0:0:
192,192,43393,128,0,43535:0:0:0:0:
448,192,43535,128,0,43605:0:0:0:0:
64,192,43535,1,2,0:0:0:0:
64,192,43676,1,0,0:0:0:0:
320,192,43747,1,0,0:0:0:0:
192,192,43747,1,2,0:0:0:0:
448,192,43818,1,0,0:0:0:0:
320,192,43888,1,0,0:0:0:0:
64,192,43959,1,0,0:0:0:0:
192,192,43959,1,2,0:0:0:0:
448,192,44030,1,0,0:0:0:0:
320,192,44101,1,8,0:0:0:0:
64,192,44101,1,0,0:0:0:0:
192,192,44171,1,0,0:0:0:0:
448,192,44242,128,0,44384:0:0:0:0:
64,192,44384,1,0,0:0:0:0:
320,192,44454,1,0,0:0:0:0:
192,192,44525,1,0,0:0:0:0:
448,192,44596,1,0,0:0:0:0:
64,192,44667,1,0,0:0:0:0:
320,192,44737,1,0,0:0:0:0:
192,192,44808,1,0,0:0:0:0:
448,192,44879,1,0,0:0:0:0:
64,192,44950,128,0,45233:0:0:0:0:
320,192,44950,1,2,0:0:0:0:
192,192,45233,1,2,0:0:0:0:
448,192,45233,128,0,45374:0:0:0:0:
64,192,45374,1,2,0:0:0:0:
320,192,45445,1,2,0:0:0:0:
64,192,45516,128,0,45799:0:0:0:0:
192,192,45516,1,2,0:0:0:0:
320,192,45586,1,2,0:0:0:0:
448,192,45657,1,2,0:0:0:0:
320,192,45728,1,2,0:0:0:0:
192,192,45799,1,0,0:0:0:0:
448,192,45799,128,4,45940:0:0:0:0:
192,192,45940,128,0,46082:0:0:0:0:
448,192,46082,128,0,46223:0:0:0:0:
64,192,46082,1,2,0:0:0:0:
192,192,46223,128,0,46648:0:0:0:0:
448,192,46365,1,2,0:0:0:0:
64,192,46365,1,0,0:0:0:0:
320,192,46506,1,0,0:0:0:0:
448,192,46648,1,0,0:0:0:0:
64,192,46648,1,2,0:0:0:0:
320,192,46789,1,0,0:0:0:0:
192,192,46860,1,0,0:0:0:0:
64,192,46931,1,0,0:0:0:0:
448,192,46931,1,2,0:0:0:0:
192,192,47072,1,0,0:0:0:0:
320,192,47143,1,0,0:0:0:0:
448,192,47214,1,0,0:0:0:0:
64,192,47214,1,2,0:0:0:0:
320,192,47284,1,0,0:0:0:0:
192,192,47355,1,0,0:0:0:0:
448,192,47426,1,2,0:0:0:0:
320,192,47426,1,0,0:0:0:0:
192,192,47497,1,2,0:0:0:0:
64,192,47497,1,0,0:0:0:0:
448,192,47638,128,0,47780:0:0:0:0:
64,192,47780,1,0,0:0:0:0:
192,192,47780,1,2,0:0:0:0:
192,192,47921,1,2,0:0:0:0:
320,192,47921,128,0,48063:0:0:0:0:
448,192,48063,1,0,0:0:0:0:
64,192,48063,1,8,0:0:0:0:
320,192,48204,1,2,0:0:0:0:
192,192,48204,128,0,48346:0:0:0:0:
448,192,48346,1,2,0:0:0:0:
64,192,48346,128,0,48487:0:0:0:0:
192,192,48487,1,0,0:0:0:0:
448,192,48558,1,0,0:0:0:0:
192,192,48629,1,2,0:0:0:0:
320,192,48629,128,0,48770:0:0:0:0:
64,192,48770,1,0,0:0:0:0:
192,192,48841,1,0,0:0:0:0:
448,192,48912,1,0,0:0:0:0:
192,192,49053,128,0,49195:0:0:0:0:
320,192,49053,1,4,0:0:0:0:
448,192,49195,1,0,0:0:0:0:
64,192,49195,1,2,0:0:0:0:
192,192,49336,1,0,0:0:0:0:
320,192,49407,1,0,0:0:0:0:
64,192,49478,1,2,0:0:0:0:
448,192,49478,1,0,0:0:0:0:
192,192,49619,1,0,0:0:0:0:
448,192,49690,1,0,0:0:0:0:
64,192,49761,1,0,0:0:0:0:
192,192,49761,1,2,0:0:0:0:
320,192,49832,1,0,0:0:0:0:
64,192,49902,1,0,0:0:0:0:
448,192,49973,1,0,0:0:0:0:
320,192,50044,1,0,0:0:0:0:
192,192,50044,1,2,0:0:0:0:
64,192,50185,1,0,0:0:0:0:
448,192,50327,1,0,0:0:0:0:
192,192,50327,1,2,0:0:0:0:
64,192,50397,1,0,0:0:0:0:
320,192,50468,1,0,0:0:0:0:
192,192,50539,1,0,0:0:0:0:
448,192,50610,1,4,0:0:0:0:
320,192,50610,1,0,0:0:0:0:
64,192,50680,1,0,0:0:0:0:
192,192,50751,1,0,0:0:0:0:
448,192,50822,1,0,0:0:0:0:
320,192,50893,1,0,0:0:0:0:
64,192,50963,1,0,0:0:0:0:
192,192,51034,1,0,0:0:0:0:
64,192,51176,1,0,0:0:0:0:
448,192,51176,1,2,0:0:0:0:
320,192,51176,1,4,0:0:0:0:
64,192,51317,1,0,0:0:0:0:
192,192,51317,1,2,0:0:0:0:
448,192,51388,1,0,0:0:0:0:
320,192,51388,1,2,0:0:0:0:
192,192,51459,1,2,0:0:0:0:
64,192,51459,1,0,0:0:0:0:
320,192,51600,1,2,0:0:0:0:
448,192,51600,1,0,0:0:0:0:
192,192,51671,1,2,0:0:0:0:
64,192,51671,1,0,0:0:0:0:
320,192,51742,1,2,0:0:0:0:
448,192,51742,1,0,0:0:0:0:
64,192,51883,1,0,0:0:0:0:
320,192,51883,1,2,0:0:0:0:
448,192,51954,1,0,0:0:0:0:
192,192,51954,1,2,0:0:0:0:
64,192,52025,1,0,0:0:0:0:
320,192,52025,1,2,0:0:0:0:
192,192,52166,1,2,0:0:0:0:
448,192,52166,1,0,0:0:0:0:
320,192,52237,1,2,0:0:0:0:
64,192,52237,1,0,0:0:0:0:
448,192,52308,1,0,0:0:0:0:
192,192,52308,1,2,0:0:0:0:
64,192,52449,1,0,0:0:0:0:
192,192,52449,1,2,0:0:0:0:
448,192,52520,1,0,0:0:0:0:
320,192,52520,1,2,0:0:0:0:
64,192,52591,1,0,0:0:0:0:
192,192,52591,1,2,0:0:0:0:
320,192,52732,1,2,0:0:0:0:
448,192,52732,1,0,0:0:0:0:
192,192,52803,1,2,0:0:0:0:
64,192,52803,1,0,0:0:0:0:
320,192,52874,1,2,0:0:0:0:
448,192,52874,1,0,0:0:0:0:
64,192,53015,1,0,0:0:0:0:
320,192,53015,1,2,0:0:0:0:
448,192,53086,1,0,0:0:0:0:
192,192,53086,1,2,0:0:0:0:
64,192,53157,1,0,0:0:0:0:
320,192,53157,1,2,0:0:0:0:
192,192,53298,1,2,0:0:0:0:
448,192,53298,1,0,0:0:0:0:
320,192,53369,1,2,0:0:0:0:
64,192,53369,1,0,0:0:0:0:
448,192,53440,1,0,0:0:0:0:
192,192,53440,1,2,0:0:0:0:
64,192,53581,1,0,0:0:0:0:
192,192,53581,1,2,0:0:0:0:
320,192,53652,1,2,0:0:0:0:
448,192,53652,1,0,0:0:0:0:
192,192,53723,1,2,0:0:0:0:
64,192,53723,1,0,0:0:0:0:
448,192,53864,1,0,0:0:0:0:
320,192,53864,1,2,0:0:0:0:
192,192,53935,1,2,0:0:0:0:
64,192,53935,1,0,0:0:0:0:
320,192,54006,1,2,0:0:0:0:
448,192,54006,1,0,0:0:0:0:
64,192,54147,1,0,0:0:0:0:
448,192,54147,1,2,0:0:0:0:
192,192,54218,1,0,0:0:0:0:
320,192,54218,1,2,0:0:0:0:
448,192,54289,1,2,0:0:0:0:
64,192,54289,1,0,0:0:0:0:
192,192,54430,1,0,0:0:0:0:
320,192,54430,1,2,0:0:0:0:
64,192,54501,1,0,0:0:0:0:
448,192,54501,1,2,0:0:0:0:
192,192,54572,1,0,0:0:0:0:
320,192,54572,1,2,0:0:0:0:
192,192,54713,1,2,0:0:0:0:
64,192,54713,1,0,0:0:0:0:
320,192,54784,1,2,0:0:0:0:
448,192,54784,1,0,0:0:0:0:
64,192,54855,1,0,0:0:0:0:
192,192,54855,1,2,0:0:0:0:
448,192,54996,1,0,0:0:0:0:
320,192,54996,1,2,0:0:0:0:
64,192,55067,1,0,0:0:0:0:
192,192,55067,1,2,0:0:0:0:
448,192,55138,1,0,0:0:0:0:
320,192,55138,1,2,0:0:0:0:
320,192,55279,1,2,0:0:0:0:
64,192,55279,1,0,0:0:0:0:
448,192,55350,1,0,0:0:0:0:
192,192,55350,1,2,0:0:0:0:
64,192,55421,1,0,0:0:0:0:
320,192,55421,1,2,0:0:0:0:
192,192,55562,1,2,0:0:0:0:
448,192,55562,1,0,0:0:0:0:
320,192,55633,1,2,0:0:0:0:
64,192,55633,1,0,0:0:0:0:
448,192,55704,1,0,0:0:0:0:
192,192,55704,1,2,0:0:0:0:
192,192,55845,1,2,0:0:0:0:
320,192,55845,1,0,0:0:0:0:
64,192,55916,1,2,0:0:0:0:
448,192,55916,1,0,0:0:0:0:
192,192,55987,1,8,0:0:0:0:
320,192,55987,128,0,56128:0:0:0:0:
448,192,56199,1,8,0:0:0:0:
192,192,56199,128,0,56340:0:0:0:0:
64,192,56411,1,8,0:0:0:0:
320,192,56411,128,0,56553:0:0:0:0:
448,192,56553,1,0,0:0:0:0:
192,192,56553,1,4,0:0:0:0:
64,192,56553,1,0,0:0:0:0:
192,192,56694,128,0,56836:0:0:0:0:
320,192,56836,1,0,0:0:0:0:
448,192,56836,1,8,0:0:0:0:
64,192,56977,128,0,57119:0:0:0:0:
448,192,57119,1,0,0:0:0:0:
192,192,57119,1,2,0:0:0:0:
320,192,57260,128,0,57402:0:0:0:0:
192,192,57402,1,0,0:0:0:0:
64,192,57402,1,8,0:0:0:0:
448,192,57543,128,0,57685:0:0:0:0:
320,192,57685,1,0,0:0:0:0:
64,192,57685,1,2,0:0:0:0:
192,192,57826,128,0,57968:0:0:0:0:
320,192,57968,1,0,0:0:0:0:
448,192,57968,1,8,0:0:0:0:
64,192,58109,128,0,58251:0:0:0:0:
192,192,58251,1,2,0:0:0:0:
448,192,58251,1,0,0:0:0:0:
320,192,58392,128,0,58534:0:0:0:0:
192,192,58534,1,0,0:0:0:0:
64,192,58534,1,8,0:0:0:0:
448,192,58675,128,0,58817:0:0:0:0:
320,192,58817,1,2,0:0:0:0:
64,192,58817,1,0,0:0:0:0:
192,192,58958,128,0,59100:0:0:0:0:
64,192,59100,1,0,0:0:0:0:
448,192,59100,1,8,0:0:0:0:
320,192,59241,128,0,59383:0:0:0:0:
192,192,59383,1,2,0:0:0:0:
64,192,59383,1,0,0:0:0:0:
448,192,59524,128,0,59666:0:0:0:0:
320,192,59666,1,8,0:0:0:0:
64,192,59666,1,0,0:0:0:0:
192,192,59807,128,0,59949:0:0:0:0:
64,192,59949,1,0,0:0:0:0:
320,192,59949,1,2,0:0:0:0:
448,192,60090,128,0,60232:0:0:0:0:
320,192,60232,1,0,0:0:0:0:
192,192,60232,1,8,0:0:0:0:
64,192,60373,128,0,60515:0:0:0:0:
192,192,60515,1,2,0:0:0:0:
448,192,60515,1,0,0:0:0:0:
320,192,60656,128,0,60798:0:0:0:0:
64,192,60798,1,8,0:0:0:0:
192,192,60798,128,0,60939:0:0:0:0:
448,192,60939,128,0,61081:0:0:0:0:
320,192,61081,1,0,0:0:0:0:
64,192,61081,1,2,0:0:0:0:
192,192,61151,1,0,0:0:0:0:
320,192,61222,1,0,0:0:0:0:
192,192,61293,1,0,0:0:0:0:
64,192,61364,1,8,0:0:0:0:
448,192,61364,1,0,0:0:0:0:
320,192,61434,1,0,0:0:0:0:
192,192,61505,1,0,0:0:0:0:
320,192,61576,1,0,0:0:0:0:
448,192,61647,1,2,0:0:0:0:
64,192,61647,1,0,0:0:0:0:
192,192,61717,1,0,0:0:0:0:
320,192,61788,1,0,0:0:0:0:
448,192,61859,1,0,0:0:0:0:
192,192,61930,1,0,0:0:0:0:
64,192,61930,1,4,0:0:0:0:
320,192,61930,1,0,0:0:0:0:
448,192,62213,1,0,0:0:0:0:
448,192,62354,1,2,0:0:0:0:
64,192,62354,1,0,0:0:0:0:
192,192,62372,1,0,0:0:0:0:
320,192,62496,1,0,0:0:0:0:
192,192,62637,1,0,0:0:0:0:
64,192,62779,1,0,0:0:0:0:
448,192,62779,1,2,0:0:0:0:
192,192,62920,1,0,0:0:0:0:
320,192,62991,1,0,0:0:0:0:
448,192,63062,1,0,0:0:0:0:
64,192,63062,1,8,0:0:0:0:
192,192,63062,1,0,0:0:0:0:
320,192,63203,1,0,0:0:0:0:
64,192,63345,1,0,0:0:0:0:
192,192,63486,1,0,0:0:0:0:
320,192,63628,1,8,0:0:0:0:
448,192,63628,1,0,0:0:0:0:
64,192,63628,1,0,0:0:0:0:
64,192,63911,1,0,0:0:0:0:
448,192,64052,1,2,0:0:0:0:
192,192,64052,1,0,0:0:0:0:
320,192,64194,1,0,0:0:0:0:
64,192,64300,1,0,0:0:0:0:
192,192,64335,1,0,0:0:0:0:
448,192,64477,1,2,0:0:0:0:
64,192,64477,1,0,0:0:0:0:
320,192,64618,1,0,0:0:0:0:
192,192,64760,1,0,0:0:0:0:
64,192,64760,1,0,0:0:0:0:
448,192,64760,1,8,0:0:0:0:
320,192,64854,1,0,0:0:0:0:
448,192,64901,1,0,0:0:0:0:
64,192,64948,1,0,0:0:0:0:
192,192,65043,1,0,0:0:0:0:
320,192,65043,1,2,0:0:0:0:
448,192,65137,1,0,0:0:0:0:
64,192,65184,1,0,0:0:0:0:
320,192,65231,1,0,0:0:0:0:
192,192,65326,1,0,0:0:0:0:
64,192,65326,1,8,0:0:0:0:
448,192,65326,1,0,0:0:0:0:
320,192,65467,1,0,0:0:0:0:
320,192,65609,1,0,0:0:0:0:
192,192,65750,1,2,0:0:0:0:
448,192,65750,1,0,0:0:0:0:
64,192,65892,1,0,0:0:0:0:
320,192,66033,1,0,0:0:0:0:
192,192,66175,1,2,0:0:0:0:
448,192,66175,1,0,0:0:0:0:
64,192,66316,1,0,0:0:0:0:
320,192,66458,1,0,0:0:0:0:
448,192,66599,1,2,0:0:0:0:
64,192,66599,1,0,0:0:0:0:
192,192,66741,1,0,0:0:0:0:
448,192,66882,1,2,0:0:0:0:
320,192,66882,1,0,0:0:0:0:
64,192,67024,1,2,0:0:0:0:
192,192,67024,1,0,0:0:0:0:
448,192,67165,1,0,0:0:0:0:
64,192,67307,1,0,0:0:0:0:
320,192,67307,1,2,0:0:0:0:
448,192,67401,1,0,0:0:0:0:
320,192,67448,1,0,0:0:0:0:
192,192,67496,1,0,0:0:0:0:
448,192,67590,1,0,0:0:0:0:
64,192,67590,1,2,0:0:0:0:
320,192,67684,1,0,0:0:0:0:
192,192,67731,1,0,0:0:0:0:
64,192,67779,1,0,0:0:0:0:
448,192,67873,1,0,0:0:0:0:
192,192,67873,1,2,0:0:0:0:
320,192,67967,1,0,0:0:0:0:
64,192,68014,1,0,0:0:0:0:
192,192,68085,1,0,0:0:0:0:
320,192,68156,1,4,0:0:0:0:
448,192,68156,1,0,0:0:0:0:
64,192,68156,1,0,0:0:0:0:
192,192,68297,1,0,0:0:0:0:
320,192,68332,1,0,0:0:0:0:
64,192,68439,1,0,0:0:0:0:
448,192,68439,1,2,0:0:0:0:
320,192,68509,1,0,0:0:0:0:
192,192,68580,1,0,0:0:0:0:
448,192,68722,1,0,0:0:0:0:
320,192,68722,1,2,0:0:0:0:
192,192,68863,1,0,0:0:0:0:
64,192,69005,1,0,0:0:0:0:
448,192,69005,1,2,0:0:0:0:
192,192,69146,1,2,0:0:0:0:
320,192,69181,1,0,0:0:0:0:
192,192,69288,1,2,0:0:0:0:
64,192,69288,1,0,0:0:0:0:
448,192,69288,1,0,0:0:0:0:
320,192,69429,1,0,0:0:0:0:
64,192,69500,1,0,0:0:0:0:
320,192,69571,1,2,0:0:0:0:
448,192,69571,1,0,0:0:0:0:
192,192,69712,1,2,0:0:0:0:
448,192,69854,1,0,0:0:0:0:
320,192,69854,1,0,0:0:0:0:
64,192,69854,1,4,0:0:0:0:
192,192,69995,1,2,0:0:0:0:
448,192,70066,1,0,0:0:0:0:
320,192,70137,1,0,0:0:0:0:
448,192,70278,1,2,0:0:0:0:
64,192,70278,1,0,0:0:0:0:
192,192,70420,1,0,0:0:0:0:
448,192,70561,1,0,0:0:0:0:
64,192,70561,1,2,0:0:0:0:
320,192,70703,1,0,0:0:0:0:
64,192,70703,1,4,0:0:0:0:
448,192,70703,1,0,0:0:0:0:
192,192,70844,1,0,0:0:0:0:
320,192,70915,1,2,0:0:0:0:
448,192,70915,1,0,0:0:0:0:
64,192,70986,1,0,0:0:0:0:
192,192,70986,1,2,0:0:0:0:
320,192,71127,1,2,0:0:0:0:
192,192,71198,1,2,0:0:0:0:
448,192,71269,1,8,0:0:0:0:
320,192,71269,1,0,0:0:0:0:
64,192,71269,1,0,0:0:0:0:
192,192,71339,1,0,0:0:0:0:
64,192,71410,1,0,0:0:0:0:
448,192,71481,1,0,0:0:0:0:
320,192,71552,1,0,0:0:0:0:
192,192,71552,1,2,0:0:0:0:
64,192,71622,1,0,0:0:0:0:
320,192,71693,1,0,0:0:0:0:
192,192,71764,1,0,0:0:0:0:
448,192,71835,1,0,0:0:0:0:
320,192,71905,1,0,0:0:0:0:
64,192,71976,1,2,0:0:0:0:
192,192,72047,1,0,0:0:0:0:
448,192,72118,1,2,0:0:0:0:
320,192,72188,1,0,0:0:0:0:
64,192,72259,1,8,0:0:0:0:
448,192,72259,1,0,0:0:0:0:
192,192,72330,1,0,0:0:0:0:
320,192,72401,1,0,0:0:0:0:
64,192,72471,1,0,0:0:0:0:
448,192,72542,1,0,0:0:0:0:
320,192,72542,1,2,0:0:0:0:
192,192,72613,1,0,0:0:0:0:
64,192,72684,1,8,0:0:0:0:
448,192,72684,1,0,0:0:0:0:
320,192,72754,1,0,0:0:0:0:
192,192,72825,1,2,0:0:0:0:
64,192,72825,1,0,0:0:0:0:
448,192,72896,1,0,0:0:0:0:
192,192,72967,1,8,0:0:0:0:
320,192,72967,1,0,0:0:0:0:
64,192,73037,1,0,0:0:0:0:
320,192,73108,1,0,0:0:0:0:
64,192,73179,1,2,0:0:0:0:
448,192,73179,1,0,0:0:0:0:
320,192,73250,1,0,0:0:0:0:
192,192,73320,1,0,0:0:0:0:
448,192,73391,1,0,0:0:0:0:
320,192,73391,1,8,0:0:0:0:
64,192,73462,1,0,0:0:0:0:
192,192,73533,1,2,0:0:0:0:
320,192,73603,1,2,0:0:0:0:
192,192,73674,1,2,0:0:0:0:
448,192,73745,1,0,0:0:0:0:
320,192,73816,1,0,0:0:0:0:
64,192,73816,1,8,0:0:0:0:
192,192,73886,1,0,0:0:0:0:
320,192,73957,1,0,0:0:0:0:
448,192,74028,1,2,0:0:0:0:
320,192,74063,1,2,0:0:0:0:
192,192,74099,1,2,0:0:0:0:
64,192,74099,1,0,0:0:0:0:
320,192,74193,1,2,0:0:0:0:
448,192,74193,1,0,0:0:0:0:
192,192,74287,1,2,0:0:0:0:
64,192,74287,1,0,0:0:0:0:
320,192,74382,1,2,0:0:0:0:
448,192,74382,1,0,0:0:0:0:
192,192,74476,1,2,0:0:0:0:
64,192,74476,1,0,0:0:0:0:
448,192,74570,1,0,0:0:0:0:
320,192,74570,1,2,0:0:0:0:
192,192,74665,1,8,0:0:0:0:
448,192,74665,1,0,0:0:0:0:
64,192,74665,128,0,74948:0:0:0:0:
320,192,74948,1,8,0:0:0:0:
192,192,74948,128,0,75231:0:0:0:0:
448,192,74948,1,0,0:0:0:0:
320,192,75231,1,8,0:0:0:0:
448,192,75231,128,0,75514:0:0:0:0:
64,192,75231,1,0,0:0:0:0:
192,192,75514,1,8,0:0:0:0:
320,192,75514,128,0,75797:0:0:0:0:
64,192,75514,1,0,0:0:0:0:
192,192,75797,1,8,0:0:0:0:
448,192,75797,1,0,0:0:0:0:
64,192,75797,128,0,76080:0:0:0:0:
192,192,76080,1,2,0:0:0:0:
320,192,76151,1,2,0:0:0:0:
64,192,76221,1,2,0:0:0:0:
448,192,76221,128,0,76504:0:0:0:0:
192,192,76221,1,8,0:0:0:0:
320,192,76504,1,0,0:0:0:0:
192,192,76504,128,0,76787:0:0:0:0:
64,192,76504,1,8,0:0:0:0:
64,192,76787,1,8,0:0:0:0:
320,192,76787,128,0,77070:0:0:0:0:
448,192,76787,1,0,0:0:0:0:
448,192,77070,1,0,0:0:0:0:
192,192,77070,128,0,77353:0:0:0:0:
64,192,77070,1,8,0:0:0:0:
448,192,77353,1,0,0:0:0:0:
64,192,77353,1,8,0:0:0:0:
320,192,77353,1,0,0:0:0:0:
448,192,77494,1,2,0:0:0:0:
320,192,77565,1,2,0:0:0:0:
64,192,77636,1,2,0:0:0:0:
192,192,77706,1,2,0:0:0:0:
448,192,77777,1,2,0:0:0:0:
64,192,77777,128,0,78060:0:0:0:0:
320,192,77777,1,8,0:0:0:0:
448,192,78060,1,8,0:0:0:0:
320,192,78060,128,0,78343:0:0:0:0:
192,192,78060,1,0,0:0:0:0:
64,192,78343,1,0,0:0:0:0:
192,192,78343,128,0,78626:0:0:0:0:
448,192,78343,1,8,0:0:0:0:
320,192,78626,1,0,0:0:0:0:
448,192,78626,128,0,78909:0:0:0:0:
64,192,78626,1,8,0:0:0:0:
320,192,78909,1,2,0:0:0:0:
64,192,78909,1,0,0:0:0:0:
192,192,78909,1,8,0:0:0:0:
448,192,78979,1,2,0:0:0:0:
192,192,79050,1,2,0:0:0:0:
320,192,79121,1,2,0:0:0:0:
64,192,79192,1,2,0:0:0:0:
192,192,79262,1,2,0:0:0:0:
448,192,79333,1,2,0:0:0:0:
320,192,79333,128,0,79616:0:0:0:0:
64,192,79333,1,8,0:0:0:0:
64,192,79616,1,0,0:0:0:0:
192,192,79616,128,0,79899:0:0:0:0:
448,192,79616,1,8,0:0:0:0:
320,192,79899,1,0,0:0:0:0:
64,192,79899,1,0,0:0:0:0:
448,192,79899,128,8,80182:0:0:0:0:
192,192,80040,1,2,0:0:0:0:
320,192,80111,1,2,0:0:0:0:
192,192,80182,1,8,0:0:0:0:
64,192,80182,1,2,0:0:0:0:
320,192,80252,1,2,0:0:0:0:
64,192,80323,1,2,0:0:0:0:
192,192,80394,1,2,0:0:0:0:
320,192,80465,1,2,0:0:0:0:
448,192,80465,1,8,0:0:0:0:
64,192,80535,1,2,0:0:0:0:
320,192,80606,1,2,0:0:0:0:
192,192,80677,1,2,0:0:0:0:
448,192,80748,1,2,0:0:0:0:
192,192,80818,1,2,0:0:0:0:
320,192,80889,1,2,0:0:0:0:
448,192,80889,128,4,84851:0:0:0:0:
64,192,80889,128,0,82304:0:0:0:0:
192,192,82304,1,2,0:0:0:0:
64,192,82587,1,2,0:0:0:0:
192,192,82657,1,2,0:0:0:0:
320,192,82728,1,2,0:0:0:0:
192,192,82799,1,2,0:0:0:0:
64,192,82870,1,2,0:0:0:0:
320,192,82940,1,2,0:0:0:0:
192,192,83011,1,2,0:0:0:0:
64,192,83082,1,2,0:0:0:0:
192,192,83153,1,2,0:0:0:0:
320,192,83223,1,2,0:0:0:0:
64,192,83294,1,2,0:0:0:0:
192,192,83365,1,2,0:0:0:0:
320,192,83436,1,2,0:0:0:0:
192,192,83506,1,2,0:0:0:0:
64,192,83577,1,2,0:0:0:0:
320,192,83648,1,2,0:0:0:0:
192,192,83719,1,2,0:0:0:0:
64,192,83789,1,2,0:0:0:0:
192,192,83860,1,2,0:0:0:0:
320,192,83931,1,2,0:0:0:0:
64,192,84002,1,2,0:0:0:0:
192,192,84072,1,2,0:0:0:0:
320,192,84143,1,2,0:0:0:0:
192,192,84214,1,2,0:0:0:0:
64,192,84285,1,2,0:0:0:0:
320,192,84355,1,2,0:0:0:0:
192,192,84426,1,2,0:0:0:0:
64,192,84497,1,2,0:0:0:0:
192,192,84568,1,2,0:0:0:0:
320,192,84639,1,2,0:0:0:0:
64,192,84709,1,2,0:0:0:0:
192,192,84780,1,2,0:0:0:0:
320,192,84851,1,2,0:0:0:0:
64,192,84922,1,2,0:0:0:0:
448,192,84992,1,2,0:0:0:0:
192,192,85063,1,2,0:0:0:0:
320,192,85134,1,2,0:0:0:0:
64,192,85205,1,2,0:0:0:0:
448,192,85275,1,2,0:0:0:0:
192,192,85346,1,2,0:0:0:0:
448,192,85417,1,0,0:0:0:0:
64,192,85417,1,4,0:0:0:0:
320,192,85417,1,2,0:0:0:0:
64,192,85983,1,2,0:0:0:0:
192,192,86053,1,2,0:0:0:0:
320,192,86124,1,2,0:0:0:0:
448,192,86195,1,2,0:0:0:0:
192,192,86266,1,4,0:0:0:0:
64,192,86266,128,0,87398:0:0:0:0:
320,192,86266,1,0,0:0:0:0:
320,192,86549,1,2,0:0:0:0:
448,192,86549,1,0,0:0:0:0:
448,192,86690,1,0,0:0:0:0:
320,192,86690,1,2,0:0:0:0:
320,192,86973,1,2,0:0:0:0:
192,192,86973,1,0,0:0:0:0:
192,192,87115,1,0,0:0:0:0:
320,192,87115,1,2,0:0:0:0:
320,192,87398,1,2,0:0:0:0:
448,192,87398,1,0,0:0:0:0:
448,192,87539,1,2,0:0:0:0:
192,192,87539,128,0,87610:0:0:0:0:
64,192,87610,128,0,87681:0:0:0:0:
320,192,87681,128,0,87751:0:0:0:0:
64,192,87822,1,2,0:0:0:0:
192,192,87822,128,0,87893:0:0:0:0:
320,192,87964,1,2,0:0:0:0:
448,192,87964,128,0,88247:0:0:0:0:
64,192,88105,1,2,0:0:0:0:
192,192,88176,1,0,0:0:0:0:
64,192,88247,128,0,88388:0:0:0:0:
320,192,88247,1,2,0:0:0:0:
320,192,88388,128,0,88530:0:0:0:0:
192,192,88530,1,2,0:0:0:0:
448,192,88530,1,0,0:0:0:0:
448,192,88671,128,0,88813:0:0:0:0:
64,192,88671,1,2,0:0:0:0:
192,192,88813,1,0,0:0:0:0:
64,192,88954,128,0,89237:0:0:0:0:
320,192,88954,1,2,0:0:0:0:
192,192,89096,1,0,0:0:0:0:
448,192,89096,1,2,0:0:0:0:
320,192,89237,128,0,89379:0:0:0:0:
64,192,89379,1,2,0:0:0:0:
448,192,89379,128,0,89662:0:0:0:0:
192,192,89520,1,0,0:0:0:0:
64,192,89520,1,2,0:0:0:0:
192,192,89662,128,0,89850:0:0:0:0:
320,192,89803,1,2,0:0:0:0:
448,192,89803,1,0,0:0:0:0:
64,192,89850,128,0,90039:0:0:0:0:
192,192,89945,1,2,0:0:0:0:
448,192,89945,1,0,0:0:0:0:
320,192,90039,128,0,90228:0:0:0:0:
192,192,90086,1,2,0:0:0:0:
64,192,90157,1,2,0:0:0:0:
192,192,90228,1,2,0:0:0:0:
448,192,90228,128,0,90511:0:0:0:0:
320,192,90369,1,0,0:0:0:0:
64,192,90511,1,0,0:0:0:0:
192,192,90511,1,2,0:0:0:0:
320,192,90581,1,0,0:0:0:0:
192,192,90652,1,2,0:0:0:0:
64,192,90652,1,0,0:0:0:0:
448,192,90723,1,0,0:0:0:0:
192,192,90794,1,0,0:0:0:0:
64,192,90864,1,0,0:0:0:0:
320,192,90935,1,2,0:0:0:0:
448,192,90935,1,0,0:0:0:0:
192,192,91006,1,0,0:0:0:0:
448,192,91077,1,0,0:0:0:0:
320,192,91077,1,2,0:0:0:0:
64,192,91147,1,0,0:0:0:0:
192,192,91218,1,0,0:0:0:0:
448,192,91289,1,0,0:0:0:0:
192,192,91360,1,2,0:0:0:0:
320,192,91360,1,0,0:0:0:0:
64,192,91430,1,0,0:0:0:0:
320,192,91501,1,0,0:0:0:0:
192,192,91501,1,2,0:0:0:0:
448,192,91572,1,0,0:0:0:0:
192,192,91643,1,0,0:0:0:0:
448,192,91784,1,0,0:0:0:0:
64,192,91784,1,2,0:0:0:0:
64,192,91926,1,2,0:0:0:0:
320,192,91926,128,0,92492:0:0:0:0:
192,192,92067,1,2,0:0:0:0:
64,192,92138,1,2,0:0:0:0:
448,192,92209,1,2,0:0:0:0:
192,192,92350,1,0,0:0:0:0:
64,192,92492,1,0,0:0:0:0:
448,192,92492,1,2,0:0:0:0:
64,192,92633,1,0,0:0:0:0:
448,192,92633,1,2,0:0:0:0:
192,192,92775,1,0,0:0:0:0:
448,192,92845,1,0,0:0:0:0:
64,192,92916,1,0,0:0:0:0:
320,192,92916,1,2,0:0:0:0:
192,192,92987,1,0,0:0:0:0:
320,192,93058,1,2,0:0:0:0:
64,192,93058,1,0,0:0:0:0:
448,192,93128,1,0,0:0:0:0:
192,192,93199,1,0,0:0:0:0:
448,192,93270,1,0,0:0:0:0:
320,192,93341,1,2,0:0:0:0:
64,192,93341,1,0,0:0:0:0:
192,192,93411,1,0,0:0:0:0:
448,192,93482,1,0,0:0:0:0:
192,192,93553,1,0,0:0:0:0:
320,192,93624,1,2,0:0:0:0:
64,192,93624,1,0,0:0:0:0:
448,192,93694,1,2,0:0:0:0:
320,192,93765,1,2,0:0:0:0:
192,192,93765,1,0,0:0:0:0:
64,192,93836,1,2,0:0:0:0:
192,192,93907,1,0,0:0:0:0:
448,192,93907,1,2,0:0:0:0:
320,192,93977,1,2,0:0:0:0:
192,192,94048,1,2,0:0:0:0:
64,192,94048,1,0,0:0:0:0:
448,192,94119,1,2,0:0:0:0:
320,192,94190,1,4,0:0:0:0:
64,192,94190,128,0,95322:0:0:0:0:
192,192,94190,1,2,0:0:0:0:
192,192,94473,1,0,0:0:0:0:
448,192,94473,1,2,0:0:0:0:
320,192,94756,1,0,0:0:0:0:
448,192,94756,1,2,0:0:0:0:
192,192,95039,1,2,0:0:0:0:
320,192,95039,1,0,0:0:0:0:
192,192,95322,1,2,0:0:0:0:
448,192,95322,1,0,0:0:0:0:
320,192,95463,1,0,0:0:0:0:
448,192,95605,128,0,95746:0:0:0:0:
64,192,95605,1,2,0:0:0:0:
192,192,95746,128,0,96171:0:0:0:0:
448,192,95888,1,0,0:0:0:0:
320,192,95888,1,2,0:0:0:0:
64,192,96171,128,0,96312:0:0:0:0:
448,192,96171,1,2,0:0:0:0:
320,192,96312,128,0,96737:0:0:0:0:
448,192,96454,1,2,0:0:0:0:
192,192,96454,1,0,0:0:0:0:
64,192,96737,1,2,0:0:0:0:
448,192,96737,1,0,0:0:0:0:
192,192,96807,1,0,0:0:0:0:
448,192,96878,1,0,0:0:0:0:
320,192,96949,1,0,0:0:0:0:
192,192,97020,1,2,0:0:0:0:
64,192,97020,1,0,0:0:0:0:
448,192,97090,1,0,0:0:0:0:
64,192,97161,1,0,0:0:0:0:
320,192,97232,1,0,0:0:0:0:
192,192,97303,1,2,0:0:0:0:
448,192,97303,1,0,0:0:0:0:
64,192,97373,1,0,0:0:0:0:
320,192,97444,1,0,0:0:0:0:
192,192,97515,1,0,0:0:0:0:
64,192,97586,1,0,0:0:0:0:
448,192,97586,1,2,0:0:0:0:
320,192,97656,1,0,0:0:0:0:
192,192,97727,1,0,0:0:0:0:
448,192,97798,1,0,0:0:0:0:
320,192,97869,1,0,0:0:0:0:
64,192,97869,128,2,98222:0:0:0:0:
320,192,98152,1,2,0:0:0:0:
192,192,98152,1,0,0:0:0:0:
448,192,98222,1,0,0:0:0:0:
192,192,98293,1,0,0:0:0:0:
64,192,98364,1,0,0:0:0:0:
320,192,98435,1,2,0:0:0:0:
448,192,98435,1,0,0:0:0:0:
64,192,98505,1,0,0:0:0:0:
192,192,98576,1,0,0:0:0:0:
320,192,98647,1,0,0:0:0:0:
448,192,98718,1,0,0:0:0:0:
64,192,98718,1,2,0:0:0:0:
192,192,98788,1,0,0:0:0:0:
448,192,98859,1,0,0:0:0:0:
320,192,98930,1,0,0:0:0:0:
192,192,99001,1,2,0:0:0:0:
64,192,99001,1,0,0:0:0:0:
448,192,99071,1,0,0:0:0:0:
192,192,99142,1,0,0:0:0:0:
320,192,99213,1,0,0:0:0:0:
64,192,99284,1,0,0:0:0:0:
448,192,99284,1,2,0:0:0:0:
320,192,99354,1,0,0:0:0:0:
64,192,99425,1,0,0:0:0:0:
448,192,99496,1,0,0:0:0:0:
192,192,99567,1,2,0:0:0:0:
320,192,99567,128,0,99661:0:0:0:0:
64,192,99661,128,0,99755:0:0:0:0:
448,192,99708,1,0,0:0:0:0:
192,192,99755,128,0,99850:0:0:0:0:
64,192,99850,1,4,0:0:0:0:
448,192,99850,128,0,100982:0:0:0:0:
192,192,99991,1,0,0:0:0:0:
320,192,100062,1,0,0:0:0:0:
64,192,100133,1,2,0:0:0:0:
192,192,100203,1,0,0:0:0:0:
320,192,100274,1,2,0:0:0:0:
64,192,100345,1,0,0:0:0:0:
320,192,100416,1,0,0:0:0:0:
192,192,100486,1,0,0:0:0:0:
320,192,100557,1,2,0:0:0:0:
64,192,100628,1,0,0:0:0:0:
320,192,100699,1,2,0:0:0:0:
192,192,100769,1,0,0:0:0:0:
64,192,100840,1,0,0:0:0:0:
320,192,100911,1,0,0:0:0:0:
64,192,100982,1,2,0:0:0:0:
192,192,100982,1,0,0:0:0:0:
320,192,101052,1,0,0:0:0:0:
448,192,101123,1,0,0:0:0:0:
320,192,101194,1,0,0:0:0:0:
192,192,101265,1,0,0:0:0:0:
64,192,101335,1,0,0:0:0:0:
192,192,101406,1,0,0:0:0:0:
320,192,101477,1,0,0:0:0:0:
448,192,101548,1,0,0:0:0:0:
64,192,101548,1,2,0:0:0:0:
192,192,101548,1,4,0:0:0:0:
192,192,101689,1,0,0:0:0:0:
64,192,101689,1,2,0:0:0:0:
448,192,101831,1,0,0:0:0:0:
320,192,101831,1,2,0:0:0:0:
320,192,101972,1,2,0:0:0:0:
448,192,101972,1,0,0:0:0:0:
320,192,102114,1,2,0:0:0:0:
192,192,102114,1,0,0:0:0:0:
192,192,102255,1,0,0:0:0:0:
320,192,102255,1,2,0:0:0:0:
64,192,102397,1,0,0:0:0:0:
448,192,102397,1,2,0:0:0:0:
64,192,102538,1,0,0:0:0:0:
448,192,102538,1,2,0:0:0:0:
192,192,102680,1,0,0:0:0:0:
448,192,102680,1,2,0:0:0:0:
448,192,102821,1,2,0:0:0:0:
192,192,102821,1,0,0:0:0:0:
64,192,102963,1,2,0:0:0:0:
320,192,102963,1,0,0:0:0:0:
320,192,103104,1,0,0:0:0:0:
64,192,103104,1,2,0:0:0:0:
64,192,103246,1,2,0:0:0:0:
192,192,103246,1,0,0:0:0:0:
192,192,103387,1,0,0:0:0:0:
64,192,103387,1,2,0:0:0:0:
320,192,103529,1,2,0:0:0:0:
448,192,103529,1,4,0:0:0:0:
64,192,103529,1,0,0:0:0:0:
448,192,103670,1,0,0:0:0:0:
320,192,103670,1,2,0:0:0:0:
192,192,103812,1,0,0:0:0:0:
320,192,103812,1,2,0:0:0:0:
320,192,103953,1,2,0:0:0:0:
192,192,103953,1,0,0:0:0:0:
64,192,104095,1,2,0:0:0:0:
448,192,104095,1,0,0:0:0:0:
448,192,104236,1,0,0:0:0:0:
64,192,104236,1,2,0:0:0:0:
192,192,104378,1,0,0:0:0:0:
64,192,104378,1,2,0:0:0:0:
64,192,104519,1,2,0:0:0:0:
192,192,104519,1,0,0:0:0:0:
192,192,104661,1,2,0:0:0:0:
320,192,104661,1,0,0:0:0:0:
192,192,104802,1,2,0:0:0:0:
320,192,104802,1,0,0:0:0:0:
448,192,104944,1,0,0:0:0:0:
192,192,104944,1,2,0:0:0:0:
192,192,105085,1,2,0:0:0:0:
448,192,105085,1,0,0:0:0:0:
64,192,105227,1,2,0:0:0:0:
320,192,105227,1,0,0:0:0:0:
320,192,105368,1,0,0:0:0:0:
64,192,105368,1,2,0:0:0:0:
64,192,105510,1,2,0:0:0:0:
448,192,105510,1,4,0:0:0:0:
192,192,105510,1,0,0:0:0:0:
192,192,105651,1,0,0:0:0:0:
64,192,105651,1,2,0:0:0:0:
320,192,105793,1,0,0:0:0:0:
448,192,105793,1,2,0:0:0:0:
448,192,105934,1,2,0:0:0:0:
320,192,105934,1,0,0:0:0:0:
448,192,106076,1,2,0:0:0:0:
64,192,106076,1,0,0:0:0:0:
448,192,106217,1,2,0:0:0:0:
64,192,106217,1,0,0:0:0:0:
320,192,106359,1,2,0:0:0:0:
64,192,106359,1,0,0:0:0:0:
64,192,106500,1,0,0:0:0:0:
320,192,106500,1,2,0:0:0:0:
192,192,106642,1,0,0:0:0:0:
448,192,106642,1,2,0:0:0:0:
448,192,106783,1,2,0:0:0:0:
192,192,106783,1,0,0:0:0:0:
64,192,106925,1,0,0:0:0:0:
192,192,106925,1,2,0:0:0:0:
192,192,107066,1,2,0:0:0:0:
64,192,107066,1,0,0:0:0:0:
320,192,107208,1,2,0:0:0:0:
448,192,107208,1,0,0:0:0:0:
448,192,107349,1,0,0:0:0:0:
320,192,107349,1,2,0:0:0:0:
320,192,107491,1,0,0:0:0:0:
64,192,107491,1,2,0:0:0:0:
448,192,107491,1,4,0:0:0:0:
320,192,107632,1,0,0:0:0:0:
64,192,107632,1,2,0:0:0:0:
192,192,107774,1,2,0:0:0:0:
448,192,107774,1,0,0:0:0:0:
448,192,107915,1,0,0:0:0:0:
192,192,107915,1,2,0:0:0:0:
320,192,108057,1,2,0:0:0:0:
448,192,108057,1,0,0:0:0:0:
448,192,108198,1,0,0:0:0:0:
320,192,108198,1,2,0:0:0:0:
64,192,108340,1,0,0:0:0:0:
192,192,108340,1,2,0:0:0:0:
192,192,108481,1,2,0:0:0:0:
64,192,108481,1,0,0:0:0:0:
448,192,108623,1,0,0:0:0:0:
320,192,108623,1,2,0:0:0:0:
192,192,108694,1,2,0:0:0:0:
64,192,108764,1,0,0:0:0:0:
320,192,108764,1,2,0:0:0:0:
448,192,108835,1,2,0:0:0:0:
320,192,108906,1,0,0:0:0:0:
192,192,108906,1,2,0:0:0:0:
64,192,108977,1,2,0:0:0:0:
192,192,109048,1,2,0:0:0:0:
448,192,109048,1,0,0:0:0:0:
320,192,109118,1,2,0:0:0:0:
64,192,109189,1,0,0:0:0:0:
448,192,109189,128,2,109260:0:0:0:0:
192,192,109260,128,2,109331:0:0:0:0:
320,192,109331,128,2,109401:0:0:0:0:
64,192,109401,128,2,109472:0:0:0:0:
320,192,109472,1,8,0:0:0:0:
448,192,109472,1,0,0:0:0:0:
192,192,109472,1,0,0:0:0:0:
448,192,109613,1,2,0:0:0:0:
320,192,109755,1,2,0:0:0:0:
448,192,109896,1,0,0:0:0:0:
192,192,109896,1,8,0:0:0:0:
64,192,109896,1,0,0:0:0:0:
64,192,110038,1,2,0:0:0:0:
192,192,110179,1,2,0:0:0:0:
64,192,110321,1,0,0:0:0:0:
320,192,110321,1,8,0:0:0:0:
448,192,110321,1,0,0:0:0:0:
448,192,110462,1,2,0:0:0:0:
320,192,110604,1,2,0:0:0:0:
448,192,110745,1,0,0:0:0:0:
192,192,110745,1,8,0:0:0:0:
64,192,110745,1,0,0:0:0:0:
64,192,110887,1,2,0:0:0:0:
192,192,111028,1,2,0:0:0:0:
64,192,111170,1,0,0:0:0:0:
320,192,111170,1,8,0:0:0:0:
448,192,111170,1,0,0:0:0:0:
192,192,111311,1,2,0:0:0:0:
320,192,111453,1,2,0:0:0:0:
192,192,111594,1,8,0:0:0:0:
448,192,111594,1,0,0:0:0:0:
64,192,111594,1,0,0:0:0:0:
320,192,111736,1,2,0:0:0:0:
192,192,111877,1,2,0:0:0:0:
320,192,112019,1,0,0:0:0:0:
64,192,112019,1,8,0:0:0:0:
448,192,112019,1,0,0:0:0:0:
192,192,112160,1,2,0:0:0:0:
320,192,112302,1,2,0:0:0:0:
192,192,112443,1,8,0:0:0:0:
64,192,112443,1,0,0:0:0:0:
448,192,112443,128,0,112585:0:0:0:0:
320,192,112585,1,2,0:0:0:0:
64,192,112726,128,0,113009:0:0:0:0:
192,192,112726,1,2,0:0:0:0:
448,192,112867,1,0,0:0:0:0:
320,192,112867,1,2,0:0:0:0:
192,192,113009,1,2,0:0:0:0:
320,192,113009,1,0,0:0:0:0:
448,192,113079,1,0,0:0:0:0:
192,192,113150,1,2,0:0:0:0:
320,192,113150,1,0,0:0:0:0:
448,192,113292,1,2,0:0:0:0:
64,192,113292,1,0,0:0:0:0:
192,192,113362,1,2,0:0:0:0:
448,192,113433,1,0,0:0:0:0:
320,192,113433,1,2,0:0:0:0:
192,192,113504,1,2,0:0:0:0:
64,192,113575,1,0,0:0:0:0:
320,192,113575,1,2,0:0:0:0:
192,192,113645,1,2,0:0:0:0:
448,192,113716,1,0,0:0:0:0:
320,192,113716,1,2,0:0:0:0:
192,192,113787,1,2,0:0:0:0:
64,192,113787,1,0,0:0:0:0:
448,192,113858,1,0,0:0:0:0:
320,192,113858,1,2,0:0:0:0:
192,192,113999,1,2,0:0:0:0:
64,192,113999,128,0,114141:0:0:0:0:
448,192,114141,1,2,0:0:0:0:
320,192,114141,128,0,114282:0:0:0:0:
64,192,114282,1,2,0:0:0:0:
192,192,114282,128,0,114424:0:0:0:0:
320,192,114424,1,2,0:0:0:0:
448,192,114424,128,0,114565:0:0:0:0:
64,192,114565,1,2,0:0:0:0:
192,192,114565,128,0,114707:0:0:0:0:
448,192,114707,1,2,0:0:0:0:
320,192,114707,128,0,114848:0:0:0:0:
192,192,114848,1,2,0:0:0:0:
64,192,114848,128,0,114990:0:0:0:0:
320,192,114990,1,2,0:0:0:0:
448,192,114990,128,0,115131:0:0:0:0:
64,192,115131,1,2,0:0:0:0:
192,192,115131,128,0,115273:0:0:0:0:
320,192,115273,1,2,0:0:0:0:
448,192,115273,128,0,115414:0:0:0:0:
192,192,115414,1,2,0:0:0:0:
64,192,115414,128,0,115556:0:0:0:0:
448,192,115556,1,2,0:0:0:0:
320,192,115556,128,0,115697:0:0:0:0:
64,192,115697,1,2,0:0:0:0:
192,192,115697,128,0,115839:0:0:0:0:
320,192,115839,1,2,0:0:0:0:
448,192,115839,128,0,115980:0:0:0:0:
64,192,115980,128,0,116122:0:0:0:0:
192,192,115980,1,2,0:0:0:0:
320,192,116122,1,2,0:0:0:0:
448,192,116122,1,0,0:0:0:0:
192,192,116192,1,2,0:0:0:0:
448,192,116263,1,2,0:0:0:0:
64,192,116263,1,0,0:0:0:0:
320,192,116334,1,2,0:0:0:0:
64,192,116405,1,0,0:0:0:0:
192,192,116405,1,2,0:0:0:0:
448,192,116476,1,2,0:0:0:0:
320,192,116546,1,2,0:0:0:0:
64,192,116546,1,0,0:0:0:0:
192,192,116617,1,2,0:0:0:0:
448,192,116688,1,0,0:0:0:0:
320,192,116688,1,2,0:0:0:0:
64,192,116759,1,2,0:0:0:0:
192,192,116829,1,2,0:0:0:0:
448,192,116829,1,0,0:0:0:0:
320,192,116900,1,2,0:0:0:0:
448,192,116971,1,2,0:0:0:0:
64,192,116971,1,0,0:0:0:0:
320,192,117018,1,2,0:0:0:0:
192,192,117065,1,2,0:0:0:0:
448,192,117112,1,0,0:0:0:0:
64,192,117112,1,2,0:0:0:0:
192,192,117183,1,2,0:0:0:0:
320,192,117254,1,0,0:0:0:0:
448,192,117254,1,4,0:0:0:0:
64,192,117254,1,2,0:0:0:0:
64,192,117537,1,0,0:0:0:0:
192,192,117607,1,0,0:0:0:0:
448,192,117678,1,0,0:0:0:0:
320,192,117749,1,0,0:0:0:0:
192,192,117820,1,0,0:0:0:0:
64,192,117890,1,0,0:0:0:0:
320,192,117961,1,0,0:0:0:0:
192,192,118032,1,0,0:0:0:0:
448,192,118103,1,0,0:0:0:0:
320,192,118173,1,0,0:0:0:0:
192,192,118244,1,0,0:0:0:0:
320,192,118315,1,0,0:0:0:0:
64,192,118386,1,0,0:0:0:0:
192,192,118456,1,0,0:0:0:0:
320,192,118527,1,0,0:0:0:0:
192,192,118598,1,0,0:0:0:0:
448,192,118669,1,0,0:0:0:0:
320,192,118739,1,0,0:0:0:0:
64,192,118810,1,2,0:0:0:0:
192,192,118810,1,0,0:0:0:0:
320,192,118881,1,0,0:0:0:0:
320,192,119235,1,8,0:0:0:0:
448,192,119235,128,0,120225:0:0:0:0:
64,192,119235,128,0,120225:0:0:0:0:
