osu file format v13

[General]
AudioFilename: Sword Girls - Duel BGM.mp3
AudioLeadIn: 2000
PreviewTime: 21346
Countdown: 0
SampleSet: Soft
StackLeniency: 0.7
Mode: 0
LetterboxInBreaks: 0
WidescreenStoryboard: 0

[Editor]
DistanceSpacing: 1.3
BeatDivisor: 4
GridSize: 4
TimelineZoom: 2

[Metadata]
Title:Duel BGM
TitleUnicode:Duel BGM
Artist:ZEONIX
ArtistUnicode:ZEONIX
Creator:Gaia
Version:Hard
Source:SWORD GIRLS
Tags:Online 소드 걸스 Background Music Card original soundtrack OST
BeatmapID:446100
BeatmapSetID:186773

[Difficulty]
HPDrainRate:6
CircleSize:4
OverallDifficulty:6
ApproachRate:7.5
SliderMultiplier:1.2
SliderTickRate:2

[Events]
//Background and Video events
0,0,"bg resized.jpg",0,0
//Break Periods
//Storyboard Layer 0 (Background)
//Storyboard Layer 1 (Fail)
//Storyboard Layer 2 (Pass)
//Storyboard Layer 3 (Foreground)
//Storyboard Sound Samples
//Background Colour Transformations
3,100,163,162,255

[TimingPoints]
13,333.333333333333,4,2,1,35,1,0
21346,-86.9565217391304,4,2,1,40,0,1
30012,-86.9565217391304,4,2,2,40,0,1
30096,-86.9565217391304,4,2,1,40,0,1
42679,-90.9090909090909,4,2,1,45,0,0
64012,-100,4,2,1,40,0,0

[Colours]
Combo1 : 255,55,61
Combo2 : 64,218,12
Combo3 : 0,128,255
Combo4 : 134,2,149

[HitObjects]
160,92,13,6,0,P|172:168|160:208,1,120,2|0,0:0|0:0,0:0:0:0:
108,268,512,1,0,0:0:0:0:
108,268,846,1,0,0:0:0:0:
160,208,1012,1,0,0:0:0:0:
236,192,1179,1,0,0:0:0:0:
308,224,1346,6,0,P|248:244|220:312,1,120,2|0,0:0|0:0,0:0:0:0:
300,300,1846,2,0,P|360:280|380:208,1,120,0|0,0:0|0:0,0:0:0:0:
378,111,2346,1,0,0:0:0:0:
378,111,2679,6,0,L|382:231,1,120,2|0,0:0|0:0,0:0:0:0:
404,308,3179,2,0,P|368:264|292:260,1,120,0|0,0:0|0:0,0:0:0:0:
232,276,3679,1,0,0:0:0:0:
160,304,3846,1,0,0:0:0:0:
84,328,4012,6,0,P|136:284|136:224,1,120,2|0,0:0|0:0,0:0:0:0:
96,172,4512,2,0,P|156:160|212:208,1,120,0|0,0:0|0:0,0:0:0:0:
276,328,5012,1,0,0:0:0:0:
276,328,5346,6,0,P|280:248|328:216,1,120,2|0,0:0|0:0,0:0:0:0:
374,188,5846,2,0,P|380:246|344:292,1,120,0|0,0:0|0:0,0:0:0:0:
272,256,6346,1,0,0:0:0:0:
208,212,6512,1,0,0:0:0:0:
160,152,6679,6,0,P|164:248|156:288,1,120,2|0,0:0|0:0,0:0:0:0:
156,348,7179,2,0,P|100:324|84:260,1,120,0|0,0:0|0:0,0:0:0:0:
80,140,7679,1,0,0:0:0:0:
80,140,8012,6,0,P|176:156|204:144,1,120,2|0,0:0|0:0,0:0:0:0:
252,96,8512,2,0,P|232:148|260:212,1,120,0|0,0:0|0:0,0:0:0:0:
416,256,9179,1,0,0:0:0:0:
416,256,9346,6,0,P|344:248|288:264,1,120,2|0,0:0|0:0,0:0:0:0:
240,312,9846,2,0,P|256:248|220:200,1,120,0|0,0:0|0:0,0:0:0:0:
160,168,10346,1,0,0:0:0:0:
84,192,10512,1,0,0:0:0:0:
44,260,10679,6,0,P|48:192|40:136,1,120,2|0,0:0|0:0,0:0:0:0:
20,64,11179,2,0,P|64:120|112:120,1,120,0|0,0:0|0:0,0:0:0:0:
180,92,11679,1,0,0:0:0:0:
256,84,11846,1,0,0:0:0:0:
304,144,12012,6,0,B|320:192|280:232|304:276,1,120,2|0,0:0|0:0,0:0:0:0:
376,268,12512,2,0,B|357:237|400:192|381:149,1,120,0|0,0:0|0:0,0:0:0:0:
312,28,13012,1,0,0:0:0:0:
312,28,13346,6,0,P|228:40|188:32,1,120,2|0,0:0|0:0,0:0:0:0:
144,92,13846,2,0,P|112:144|148:192,1,120,0|0,0:0|0:0,0:0:0:0:
220,180,14346,2,0,L|200:252,1,60,0|0,0:0|0:0,0:0:0:0:
208,356,14679,6,0,P|144:324|80:332,1,120,2|0,0:0|0:0,0:0:0:0:
52,260,15179,2,0,P|60:204|48:132,1,120,0|0,0:0|0:0,0:0:0:0:
60,64,15679,2,0,L|136:80,1,60,0|0,0:0|0:0,0:0:0:0:
176,20,16012,6,0,P|172:80|196:144,1,120,2|0,0:0|0:0,0:0:0:0:
264,164,16512,2,0,P|224:156|140:168,1,120,0|0,0:0|0:0,0:0:0:0:
76,196,17012,1,0,0:0:0:0:
44,268,17179,1,0,0:0:0:0:
32,344,17346,6,0,P|76:292|116:336,1,120,2|0,0:0|0:0,0:0:0:0:
168,364,17846,2,0,P|160:300|168:232,1,120,0|0,0:0|0:0,0:0:0:0:
172,168,18346,2,0,L|256:172,1,60,0|0,0:0|0:0,0:0:0:0:
280,108,18679,6,0,L|280:236,1,120,2|0,0:0|0:0,0:0:0:0:
296,304,19179,2,0,P|314:248|384:220,2,120,0|0|0,0:0|0:0|0:0,0:0:0:0:
376,300,20012,1,2,0:0:0:0:
376,300,20346,2,0,L|448:300,1,60,0|0,0:0|0:0,0:0:0:0:
396,124,20846,5,0,0:0:0:0:
324,80,21012,1,0,0:0:0:0:
240,80,21179,1,0,0:0:0:0:
164,116,21346,6,0,P|96:160|88:220,1,138.000002632141,10|8,0:0|0:0,0:0:0:0:
168,200,21846,1,0,0:0:0:0:
248,188,22012,1,4,0:0:0:0:
328,200,22179,2,0,P|356:224|372:280,1,69.0000013160706,0|8,0:0|0:0,0:0:0:0:
288,272,22512,1,0,0:0:0:0:
412,164,22679,6,0,P|416:100|348:44,1,138.000002632141,10|0,0:0|0:0,0:0:0:0:
280,64,23179,1,0,0:0:0:0:
336,128,23346,2,0,L|252:164,1,69.0000013160706,4|0,0:0|0:0,0:0:0:0:
180,232,23679,1,8,0:0:0:0:
40,56,24012,5,10,0:0:0:0:
40,56,24179,1,0,0:0:0:0:
92,120,24346,1,8,0:0:0:0:
36,184,24512,1,0,0:0:0:0:
100,236,24679,1,4,0:0:0:0:
68,312,24846,2,0,L|0:328,2,69.0000013160706,0|2|0,0:0|0:0|0:0,0:0:0:0:
148,292,25346,5,10,0:0:0:0:
188,220,25512,2,0,P|196:296|272:292,1,138.000002632141,0|2,0:0|0:0,0:0:0:0:
328,304,26012,1,4,0:0:0:0:
332,300,26346,1,8,0:0:0:0:
336,296,26679,6,0,P|332:232|340:144,1,138.000002632141,10|8,0:0|0:0,0:0:0:0:
280,96,27179,1,0,0:0:0:0:
256,176,27346,2,0,P|256:216|252:256,1,69.0000013160706,12|0,0:0|0:0,0:0:0:0:
216,328,27679,1,0,0:0:0:0:
216,328,27846,6,0,P|196:244|72:252,1,207.000003948212,2|8,0:0|0:0,0:0:0:0:
52,312,28512,1,0,0:0:0:0:
136,308,28679,2,0,P|216:304|300:316,1,138.000002632141,4|8,0:0|0:0,0:0:0:0:
456,308,29346,6,0,B|433:269|433:269|425:253|448:179|448:179|397:211|397:211|280:26|280:26|246:89|293:183|328:247|328:247|279:284|279:284|363:292|373:314|373:314|394:347,1,828.000015792847,10|4,0:0|0:0,0:0:0:0:
216,340,31679,1,8,0:0:0:0:
64,280,32012,5,10,0:0:0:0:
40,200,32179,2,0,L|56:128,1,69.0000013160706,0|8,0:0|0:0,0:0:0:0:
128,96,32512,1,0,0:0:0:0:
204,124,32679,2,0,L|216:204,1,69.0000013160706,6|0,0:0|0:0,0:0:0:0:
160,252,33012,2,0,P|248:240|320:268,1,138.000002632141,10|8,0:0|0:0,0:0:0:0:
364,296,33512,6,0,P|428:244|420:180,1,138.000002632141,2|0,0:0|0:0,0:0:0:0:
424,112,34012,2,0,L|328:88,1,69.0000013160706,6|0,0:0|0:0,0:0:0:0:
288,48,34346,2,0,P|256:84|220:108,1,69.0000013160706,10|0,0:0|0:0,0:0:0:0:
180,152,34679,6,0,P|188:200|188:228,1,69.0000013160706,10|0,0:0|0:0,0:0:0:0:
48,80,35179,2,0,P|36:128|40:164,1,69.0000013160706,0|4,0:0|0:0,0:0:0:0:
84,328,35679,1,8,0:0:0:0:
84,328,36012,6,0,P|116:268|204:268,1,138.000002632141,10|0,0:0|0:0,0:0:0:0:
264,264,36512,1,0,0:0:0:0:
340,296,36679,1,4,0:0:0:0:
344,300,37012,1,8,0:0:0:0:
348,304,37346,5,10,0:0:0:0:
420,260,37512,2,0,P|424:192|364:160,1,138.000002632141,0|0,0:0|0:0,0:0:0:0:
292,188,38012,1,6,0:0:0:0:
292,188,38346,2,0,P|200:180|172:132,1,138.000002632141,10|8,0:0|0:0,0:0:0:0:
252,116,38846,6,0,L|248:24,1,69.0000013160706,0|8,0:0|0:0,0:0:0:0:
168,64,39179,1,0,0:0:0:0:
84,68,39346,2,0,L|68:148,1,69.0000013160706,4|0,0:0|0:0,0:0:0:0:
112,208,39679,2,0,L|128:300,1,69.0000013160706,8|0,0:0|0:0,0:0:0:0:
248,336,40012,5,2,0:0:0:0:
256,192,40096,12,8,42679,0:0:0:0:
152,88,43012,6,0,P|124:136|128:172,1,66.0000020141602,10|0,0:0|0:0,0:0:0:0:
208,148,43346,2,0,L|300:124,1,66.0000020141602,4|0,0:0|0:0,0:0:0:0:
328,68,43679,2,0,L|396:92,1,66.0000020141602,8|2,0:0|0:0,0:0:0:0:
424,276,44179,6,0,P|404:232|312:212,1,132.00000402832,2|0,0:0|0:0,0:0:0:0:
340,292,44679,2,0,L|264:304,1,66.0000020141602,4|0,0:0|0:0,0:0:0:0:
200,344,45012,2,0,L|136:332,1,66.0000020141602,8|2,0:0|0:0,0:0:0:0:
28,196,45512,6,0,P|40:148|28:108,1,66.0000020141602,2|8,0:0|0:0,0:0:0:0:
88,60,45846,1,0,0:0:0:0:
168,32,46012,1,4,0:0:0:0:
252,48,46179,1,0,0:0:0:0:
304,116,46346,6,0,P|300:200|304:276,2,132.00000402832,10|10|8,0:0|0:0|0:0,0:0:0:0:
352,44,47179,2,0,P|384:80|388:124,1,66.0000020141602,2|4,0:0|0:0,0:0:0:0:
416,176,47512,1,0,0:0:0:0:
432,260,47679,1,8,0:0:0:0:
392,336,47846,1,2,0:0:0:0:
204,284,48179,5,2,0:0:0:0:
204,284,48512,2,0,P|204:244|188:204,1,66.0000020141602,0|4,0:0|0:0,0:0:0:0:
120,184,48846,1,0,0:0:0:0:
108,100,49012,2,0,P|124:64|160:32,1,66.0000020141602,8|2,0:0|0:0,0:0:0:0:
332,56,49512,5,2,0:0:0:0:
392,116,49679,1,8,0:0:0:0:
412,200,49846,1,0,0:0:0:0:
400,284,50012,2,0,L|468:332,2,66.0000020141602,4|0|8,0:0|0:0|0:0,0:0:0:0:
320,316,50512,1,2,0:0:0:0:
80,200,51012,6,0,P|84:164|80:116,2,66.0000020141602,10|0|4,0:0|0:0|0:0,0:0:0:0:
116,276,51512,1,0,0:0:0:0:
172,344,51679,2,0,P|200:312|248:296,1,66.0000020141602,10|8,0:0|0:0,0:0:0:0:
336,176,52179,5,2,0:0:0:0:
336,176,52512,1,0,0:0:0:0:
348,260,52679,1,4,0:0:0:0:
288,324,52846,1,0,0:0:0:0:
204,328,53012,1,8,0:0:0:0:
204,328,53179,1,2,0:0:0:0:
204,328,53346,6,0,P|140:288|224:144,1,264.000008056641,10|4,0:0|0:0,0:0:0:0:
332,236,54346,1,8,0:0:0:0:
332,236,54679,6,0,P|200:248|60:228,1,264.000008056641,10|4,0:0|0:0,0:0:0:0:
172,112,55679,1,8,0:0:0:0:
172,112,56012,6,0,P|164:188|216:188,1,132.00000402832,10|8,0:0|0:0,0:0:0:0:
288,188,56512,1,0,0:0:0:0:
288,188,56679,2,0,P|284:264|288:280,1,66.0000020141602,4|0,0:0|0:0,0:0:0:0:
352,304,57012,2,0,P|288:292|208:308,1,132.00000402832,10|10,0:0|0:0,0:0:0:0:
140,324,57512,5,0,0:0:0:0:
80,260,57679,1,8,0:0:0:0:
64,176,57846,2,0,P|80:140|84:96,1,66.0000020141602,0|4,0:0|0:0,0:0:0:0:
252,84,58346,1,8,0:0:0:0:
252,84,58679,6,0,L|212:148,1,66.0000020141602,10|0,0:0|0:0,0:0:0:0:
380,92,59179,2,0,L|328:172,1,66.0000020141602,0|6,0:0|0:0,0:0:0:0:
160,260,59679,1,10,0:0:0:0:
160,260,60012,6,0,L|180:184,1,66.0000020141602,8|0,0:0|0:0,0:0:0:0:
40,300,60512,2,0,L|64:216,1,66.0000020141602,0|6,0:0|0:0,0:0:0:0:
172,84,61012,1,10,0:0:0:0:
368,112,61346,6,0,P|416:108|444:92,2,66.0000020141602,10|0|8,0:0|0:0|0:0,0:0:0:0:
292,152,61846,1,0,0:0:0:0:
220,196,62012,2,0,P|172:212|136:236,1,66.0000020141602,6|0,0:0|0:0,0:0:0:0:
100,284,62346,1,10,0:0:0:0:
76,116,62679,6,0,L|92:200,1,66.0000020141602,10|0,0:0|0:0,0:0:0:0:
220,72,63179,2,0,L|276:128,1,66.0000020141602,0|6,0:0|0:0,0:0:0:0:
332,296,63679,1,10,0:0:0:0:
332,296,64012,6,0,P|264:284|200:304,1,120,2|0,0:0|0:0,0:0:0:0:
136,304,64512,2,0,P|120:248|144:184,1,120,0|0,0:0|0:0,0:0:0:0:
188,128,65012,1,0,0:0:0:0:
260,100,65179,1,0,0:0:0:0:
336,84,65346,6,0,P|328:144|344:212,1,120,2|0,0:0|0:0,0:0:0:0:
400,252,65846,2,0,P|340:240|276:256,1,120,0|0,0:0|0:0,0:0:0:0:
176,336,66346,1,0,0:0:0:0:
32,172,66679,6,0,P|88:164|132:228,1,120,2|0,0:0|0:0,0:0:0:0:
192,244,67179,2,0,P|264:252|332:228,1,120,0|0,0:0|0:0,0:0:0:0:
384,224,67679,1,0,0:0:0:0:
448,272,67846,1,0,0:0:0:0:
412,340,68013,6,0,P|360:324|272:336,1,120,2|0,0:0|0:0,0:0:0:0:
220,344,68513,2,0,P|160:348|103:332,1,120,0|0,0:0|0:0,0:0:0:0:
12,236,69013,1,0,0:0:0:0:
196,124,69346,6,0,P|204:180|200:244,1,120,2|0,0:0|0:0,0:0:0:0:
128,216,69846,2,0,P|204:212|252:216,1,120,0|0,0:0|0:0,0:0:0:0:
324,228,70346,1,0,0:0:0:0:
392,268,70513,1,0,0:0:0:0:
468,268,70679,6,0,P|412:240|408:180,1,120,2|0,0:0|0:0,0:0:0:0:
392,112,71179,2,0,P|384:164|320:136,1,120,0|0,0:0|0:0,0:0:0:0:
236,56,71679,1,0,0:0:0:0:
64,188,72013,6,0,L|-8:188,2,60,2|0|0,0:0|0:0|0:0,0:0:0:0:
140,208,72513,2,0,P|136:288|140:336,2,120,0|0|0,0:0|0:0|0:0,0:0:0:0:
188,144,73346,5,2,0:0:0:0:
264,164,73513,1,0,0:0:0:0:
316,224,73679,1,0,0:0:0:0:
336,296,73846,1,0,0:0:0:0:
336,296,74179,6,0,P|340:228|348:212,1,60,0|2,0:0|0:0,0:0:0:0:
