osu file format v13

[General]
AudioFilename: Sword Girls - Duel BGM.mp3
AudioLeadIn: 2000
PreviewTime: 21346
Countdown: 0
SampleSet: Soft
StackLeniency: 0.7
Mode: 0
LetterboxInBreaks: 0
WidescreenStoryboard: 0

[Editor]
DistanceSpacing: 1.4
BeatDivisor: 2
GridSize: 4
TimelineZoom: 1.6

[Metadata]
Title:Duel BGM
TitleUnicode:Duel BGM
Artist:ZEONIX
ArtistUnicode:ZEONIX
Creator:Gaia
Version:Easy
Source:SWORD GIRLS
Tags:Online 소드 걸스 Background Music Card original soundtrack OST
BeatmapID:446418
BeatmapSetID:186773

[Difficulty]
HPDrainRate:2
CircleSize:3
OverallDifficulty:2
ApproachRate:3
SliderMultiplier:0.6
SliderTickRate:1

[Events]
//Background and Video events
0,0,"cutegirls.jpg",0,0
//Break Periods
//Storyboard Layer 0 (Background)
//Storyboard Layer 1 (Fail)
//Storyboard Layer 2 (Pass)
//Storyboard Layer 3 (Foreground)
//Storyboard Sound Samples
//Background Colour Transformations
3,100,163,162,255

[TimingPoints]
13,333.333333333333,4,2,1,35,1,0
21346,-100,4,2,1,40,0,1
23346,-100,4,2,2,40,0,1
23512,-100,4,2,1,40,0,1
26012,-100,4,2,2,40,0,1
26179,-100,4,2,1,40,0,1
30012,-100,4,2,2,40,0,1
30179,-100,4,2,1,40,0,1
31346,-100,4,2,2,40,0,1
31512,-100,4,2,1,40,0,1
35346,-100,4,2,2,40,0,1
35512,-100,4,2,1,40,0,1
36679,-100,4,2,2,40,0,1
36846,-100,4,2,1,40,0,1
39346,-100,4,2,2,40,0,1
39512,-100,4,2,1,40,0,1
42679,-100,4,2,1,45,0,0
47346,-100,4,2,2,45,0,0
47512,-100,4,2,1,45,0,0
54012,-100,4,2,2,45,0,0
54179,-100,4,2,1,45,0,0
55346,-100,4,2,2,45,0,0
55512,-100,4,2,1,45,0,0
58012,-100,4,2,2,45,0,0
58179,-100,4,2,1,45,0,0
64012,-100,4,2,1,40,0,0

[Colours]
Combo1 : 255,55,61
Combo2 : 64,218,12
Combo3 : 0,128,255
Combo4 : 134,2,149

[HitObjects]
152,64,13,6,0,P|156:160|152:244,1,180,2|0,0:0|0:0,0:0:0:0:
112,316,1346,2,0,B|160:276|160:276|228:284|292:276,1,180,2|0,0:0|0:0,0:0:0:0:
360,296,2679,6,0,P|344:220|248:196,1,180,2|0,0:0|0:0,0:0:0:0:
176,220,4013,2,0,P|100:192|140:120,1,180,2|0,0:0|0:0,0:0:0:0:
220,116,5346,6,0,P|300:116|420:108,1,180,2|0,0:0|0:0,0:0:0:0:
452,44,6679,2,0,P|481:131|404:193,1,180,2|0,0:0|0:0,0:0:0:0:
356,236,8013,6,0,L|224:320,1,150,2|0,0:0|0:0,0:0:0:0:
104,300,9346,2,0,L|200:240,1,90,2|0,0:0|0:0,0:0:0:0:
276,168,10346,1,0,0:0:0:0:
352,136,10679,6,0,P|312:140|156:140,1,180,2|0,0:0|0:0,0:0:0:0:
92,124,12013,2,0,P|120:208|216:212,1,180,2|0,0:0|0:0,0:0:0:0:
220,136,13346,6,0,P|220:244|224:328,1,180,2|0,0:0|0:0,0:0:0:0:
140,320,14679,2,0,P|188:240|276:252,1,180,2|0,0:0|0:0,0:0:0:0:
296,324,16013,6,0,L|284:136,1,180,2|0,0:0|0:0,0:0:0:0:
244,68,17346,2,0,P|240:144|152:136,1,180,2|0,0:0|0:0,0:0:0:0:
84,92,18679,6,0,L|92:248,1,150,2|0,0:0|0:0,0:0:0:0:
188,324,20013,2,0,L|172:212,1,90,2|0,0:0|0:0,0:0:0:0:
132,116,21013,1,0,0:0:0:0:
68,60,21346,6,0,P|136:64|200:52,1,120,10|4,0:0|0:0,0:0:0:0:
260,96,22346,1,8,0:0:0:0:
336,128,22679,2,0,P|260:156|304:236,1,180,10|8,0:0|0:0,0:0:0:0:
332,304,24013,6,0,L|304:380,1,60,10|8,0:0|0:0,0:0:0:0:
228,360,24679,2,0,L|256:284,1,60,4|10,0:0|0:0,0:0:0:0:
288,228,25346,2,0,B|304:180|268:128|232:120|232:120|176:120,1,180,2|8,0:0|0:0,0:0:0:0:
208,200,26679,6,0,B|148:204|148:204|144:228|124:252|108:260,1,120,10|4,0:0|0:0,0:0:0:0:
68,184,27679,1,8,0:0:0:0:
0,132,28013,2,0,P|-14:194|16:252,1,120,10|4,0:0|0:0,0:0:0:0:
80,288,29013,1,8,0:0:0:0:
160,312,29346,6,0,B|192:280|240:280|268:312|268:312|272:220|432:164|284:56|232:108|224:172,1,420,10|8,0:0|0:0,0:0:0:0:
164,196,32013,6,0,L|96:212,1,60,10|8,0:0|0:0,0:0:0:0:
92,128,32679,2,0,L|168:108,1,60,4|8,0:0|0:0,0:0:0:0:
236,112,33346,2,0,L|244:40,1,60,10|8,0:0|0:0,0:0:0:0:
160,28,34013,2,0,L|101:43,1,60,4|8,0:0|0:0,0:0:0:0:
64,116,34679,6,0,P|64:172|60:212,2,90,10|0|8,0:0|0:0|0:0,0:0:0:0:
136,72,36013,2,0,P|184:72|240:64,2,90,10|0|8,0:0|0:0|0:0,0:0:0:0:
148,156,37346,6,0,P|212:192|216:244,1,120,10|4,0:0|0:0,0:0:0:0:
144,272,38346,2,0,P|216:272|296:280,2,150,8|0|2,0:0|0:0|0:0,0:0:0:0:
256,192,40179,12,8,42679,0:0:0:0:
184,328,44013,5,10,0:0:0:0:
340,268,44679,2,0,P|380:268|424:264,2,60,4|8|10,0:0|0:0|0:0,0:0:0:0:
184,204,46013,5,4,0:0:0:0:
140,132,46346,1,10,0:0:0:0:
60,108,46679,2,0,P|60:196|56:224,2,90,10|2|8,0:0|0:0|0:0,0:0:0:0:
124,52,48013,5,10,0:0:0:0:
280,112,48679,2,0,P|280:69|284:40,2,60,4|8|10,0:0|0:0|0:0,0:0:0:0:
220,268,50013,2,0,P|219:310|216:340,2,60,4|8|10,0:0|0:0|0:0,0:0:0:0:
92,160,51346,6,0,P|148:148|236:164,1,120,4|8,0:0|0:0,0:0:0:0:
292,136,52346,2,0,P|292:104|296:76,2,60,10|4|8,0:0|0:0|0:0,0:0:0:0:
268,216,53346,6,0,P|236:280|128:280,1,180,10|8,0:0|0:0,0:0:0:0:
51,282,54679,2,0,P|96:209|182:213,1,180,10|8,0:0|0:0,0:0:0:0:
240,272,56013,6,0,L|236:128,1,120,10|4,0:0|0:0,0:0:0:0:
204,76,57013,2,0,P|212:132|112:72,1,240,8|8,0:0|0:0,0:0:0:0:
16,112,58679,6,0,P|32:176|72:224,1,120,10|4,0:0|0:0,0:0:0:0:
132,268,59679,1,10,0:0:0:0:
212,296,60013,2,0,P|272:288|340:300,1,120,10|4,0:0|0:0,0:0:0:0:
416,304,61013,1,10,0:0:0:0:
444,224,61346,6,0,P|412:172|420:92,1,120,10|4,0:0|0:0,0:0:0:0:
332,92,62346,1,10,0:0:0:0:
248,88,62679,2,0,P|224:144|156:168,1,120,10|4,0:0|0:0,0:0:0:0:
92,192,63679,1,10,0:0:0:0:
28,248,64012,6,0,P|56:316|168:312,1,180,2|0,0:0|0:0,0:0:0:0:
220,276,65346,2,0,B|196:200|244:156|244:156|276:152|300:176,1,180,2|0,0:0|0:0,0:0:0:0:
344,236,66679,6,0,P|332:132|340:52,1,180,2|0,0:0|0:0,0:0:0:0:
424,52,68013,2,0,P|376:132|292:128,1,180,2|0,0:0|0:0,0:0:0:0:
212,140,69346,6,0,P|188:224|192:248,2,90,2|0|0,0:0|0:0|0:0,0:0:0:0:
248,64,70679,2,0,P|192:60|156:76,2,90,2|0|0,0:0|0:0|0:0,0:0:0:0:
296,132,72013,6,0,P|288:192|300:244,2,90,2|0|0,0:0|0:0|0:0,0:0:0:0:
332,56,73346,2,0,P|369:97|372:160,1,120,2|0,0:0|0:0,0:0:0:0:
368,244,74346,5,2,0:0:0:0:
