osu file format v13

[General]
AudioFilename: Sword Girls - Duel BGM.mp3
AudioLeadIn: 2000
PreviewTime: 21346
Countdown: 0
SampleSet: Soft
StackLeniency: 0.7
Mode: 0
LetterboxInBreaks: 0
WidescreenStoryboard: 0

[Editor]
DistanceSpacing: 1.8
BeatDivisor: 4
GridSize: 4
TimelineZoom: 2.3

[Metadata]
Title:Duel BGM
TitleUnicode:Duel BGM
Artist:ZEONIX
ArtistUnicode:ZEONIX
Creator:Gaia
Version:Allure
Source:SWORD GIRLS
Tags:Online 소드 걸스 Background Music Card original soundtrack OST
BeatmapID:446012
BeatmapSetID:186773

[Difficulty]
HPDrainRate:7.2
CircleSize:4.1
OverallDifficulty:7.6
ApproachRate:8.5
SliderMultiplier:1.5
SliderTickRate:2

[Events]
//Background and Video events
0,0,"sgo.jpg",0,0
//Break Periods
//Storyboard Layer 0 (Background)
//Storyboard Layer 1 (Fail)
//Storyboard Layer 2 (Pass)
//Storyboard Layer 3 (Foreground)
//Storyboard Sound Samples
//Background Colour Transformations
3,100,163,162,255

[TimingPoints]
13,333.333333333333,4,2,1,35,1,0
21346,-80,4,2,1,40,0,1
42679,-86.9565217391304,4,2,1,45,0,0
64012,-100,4,2,1,40,0,0

[Colours]
Combo1 : 255,55,61
Combo2 : 64,218,12
Combo3 : 0,128,255
Combo4 : 134,2,149

[HitObjects]
432,152,13,6,0,P|476:116|420:48,1,150,2|0,0:0|0:0,0:0:0:0:
356,180,513,2,0,P|360:244|352:336,1,150
228,212,1013,1,0,0:0:0:0:
240,340,1179,1,0,0:0:0:0:
228,212,1346,6,0,P|204:140|128:140,1,150,2|0,0:0|0:0,0:0:0:0:
172,312,1846,2,0,P|248:304|332:312,1,150
436,320,2346,1,0,0:0:0:0:
436,320,2679,6,0,P|400:256|464:224,1,150,2|0,0:0|0:0,0:0:0:0:
312,240,3179,2,0,P|236:244|148:236,1,150
56,148,3679,1,0,0:0:0:0:
104,288,3846,1,0,0:0:0:0:
132,116,4013,6,0,B|188:104|244:104|244:104|260:68,1,150,2|0,0:0|0:0,0:0:0:0:
368,200,4513,2,0,B|312:212|256:212|256:212|240:248,1,150
364,100,5013,1,0,0:0:0:0:
364,100,5346,6,0,P|320:152|384:200,1,150,2|0,0:0|0:0,0:0:0:0:
460,124,5846,2,0,L|364:264,1,150
232,292,6346,1,0,0:0:0:0:
380,328,6513,1,0,0:0:0:0:
256,200,6679,6,0,P|168:180|96:188,1,150,2|0,0:0|0:0,0:0:0:0:
236,96,7179,2,0,P|324:116|396:108,1,150
416,228,7679,1,0,0:0:0:0:
416,228,8013,6,0,P|376:304|296:280,1,150,2|0,0:0|0:0,0:0:0:0:
272,208,8513,2,0,P|280:296|272:360,2,150,0|0|0,0:0|0:0|0:0,0:0:0:0:
168,76,9346,5,2,0:0:0:0:
168,76,9679,1,0,0:0:0:0:
40,184,9846,1,0,0:0:0:0:
248,316,10179,1,0,0:0:0:0:
400,204,10346,1,0,0:0:0:0:
224,144,10512,1,0,0:0:0:0:
300,232,10679,6,0,P|300:304|372:324,1,150,2|0,0:0|0:0,0:0:0:0:
376,196,11179,2,0,P|288:212|196:204,1,150
84,92,11679,1,0,0:0:0:0:
172,256,11846,1,0,0:0:0:0:
224,72,12013,6,0,P|172:128|128:200,1,150,2|0,0:0|0:0,0:0:0:0:
80,344,12513,2,0,P|80:272|-4:260,1,150
188,304,13013,2,0,P|256:288|332:284,1,112.5
376,280,13346,6,0,P|292:264|272:180,1,150,2|0,0:0|0:0,0:0:0:0:
228,80,13846,2,0,L|224:244,1,150
100,304,14346,1,0,0:0:0:0:
260,336,14513,1,0,0:0:0:0:
152,163,14679,6,0,P|186:229|188:304,1,150,2|0,0:0|0:0,0:0:0:0:
64,236,15179,2,0,P|136:212|228:208,1,150
352,152,15679,2,0,P|332:224|348:268,1,112.5
392,316,16013,6,0,P|360:256|268:276,1,150,2|0,0:0|0:0,0:0:0:0:
188,344,16513,2,0,P|196:260|188:188,1,150
160,56,17013,1,0,0:0:0:0:
276,160,17179,1,0,0:0:0:0:
84,152,17346,6,0,P|80:240|140:256,1,150,2|0,0:0|0:0,0:0:0:0:
256,172,17846,2,0,P|260:84|276:8,1,150
352,116,18346,2,0,L|344:260,1,112.5
344,304,18679,6,0,P|336:248|244:240,1,150,2|0,0:0|0:0,0:0:0:0:
124,296,19179,2,0,P|92:312|44:316,2,75,0|0|0,0:0|0:0|0:0,0:0:0:0:
208,144,19679,1,0,0:0:0:0:
72,176,19846,1,0,0:0:0:0:
208,144,20013,6,0,P|256:96|336:128,1,150,2|0,0:0|0:0,0:0:0:0:
252,252,20513,2,0,P|180:248|84:256,1,150
32,144,21013,1,0,0:0:0:0:
148,60,21179,1,0,0:0:0:0:
308,92,21346,6,0,P|308:160|316:204,1,93.75,10|0,0:0|0:0,0:0:0:0:
420,104,21679,1,8,0:0:0:0:
228,148,21846,1,0,0:0:0:0:
428,216,22013,2,0,P|428:262|421:309,1,93.75,4|0,0:0|0:0,0:0:0:0:
260,332,22346,1,8,0:0:0:0:
300,168,22513,1,0,0:0:0:0:
128,144,22679,6,0,P|176:216|116:288,1,187.5,10|8,0:0|0:0,0:0:0:0:
32,188,23179,1,0,0:0:0:0:
256,264,23346,2,0,P|302:258|349:257,1,93.75,4|0,0:0|0:0,0:0:0:0:
320,116,23679,1,8,0:0:0:0:
320,116,24013,5,10,0:0:0:0:
272,224,24179,1,0,0:0:0:0:
204,40,24346,1,8,0:0:0:0:
216,152,24513,1,0,0:0:0:0:
56,120,24679,1,4,0:0:0:0:
140,204,24846,1,0,0:0:0:0:
252,304,25013,2,0,P|328:292|380:296,1,93.75,10|0,0:0|0:0,0:0:0:0:
112,324,25346,5,10,0:0:0:0:
252,304,25513,2,0,P|200:220|96:228,1,187.5,0|2,0:0|0:0,0:0:0:0:
180,84,26013,1,4,0:0:0:0:
184,88,26346,1,8,0:0:0:0:
188,92,26679,6,0,P|184:168|192:216,1,93.75,10|0,0:0|0:0,0:0:0:0:
364,148,27013,2,0,P|300:144|264:152,1,93.75,8|0,0:0|0:0,0:0:0:0:
140,272,27346,1,4,0:0:0:0:
328,264,27513,2,0,P|324:316|328:368,2,93.75,0|8|0,0:0|0:0|0:0,0:0:0:0:
296,28,28013,6,0,P|296:104|292:144,1,93.75,10|0,0:0|0:0,0:0:0:0:
256,280,28346,2,0,P|180:280|140:276,1,93.75,8|0,0:0|0:0,0:0:0:0:
168,108,28679,1,4,0:0:0:0:
76,212,28846,1,0,0:0:0:0:
280,180,29013,1,8,0:0:0:0:
280,180,29346,6,0,P|200:180|160:184,1,93.75,10|0,0:0|0:0,0:0:0:0:
116,316,29679,1,8,0:0:0:0:
40,208,29846,1,0,0:0:0:0:
116,316,30013,2,0,P|200:316|248:312,1,93.75,4|0,0:0|0:0,0:0:0:0:
368,300,30346,1,8,0:0:0:0:
232,232,30513,1,0,0:0:0:0:
404,216,30679,6,0,P|392:156|400:100,1,93.75,10|0,0:0|0:0,0:0:0:0:
268,32,31013,2,0,P|279:77|277:124,1,93.75,8|0,0:0|0:0,0:0:0:0:
120,144,31346,1,4,0:0:0:0:
276,204,31513,1,0,0:0:0:0:
200,88,31679,1,8,0:0:0:0:
200,88,32013,5,10,0:0:0:0:
240,228,32179,1,0,0:0:0:0:
68,176,32346,2,0,P|132:176|184:160,1,93.75,8|0,0:0|0:0,0:0:0:0:
316,80,32679,2,0,P|316:168|320:208,1,93.75,4|0,0:0|0:0,0:0:0:0:
420,300,33013,2,0,L|416:200,1,93.75,8|0,0:0|0:0,0:0:0:0:
376,40,33346,5,10,0:0:0:0:
324,196,33513,1,0,0:0:0:0:
240,68,33679,1,8,0:0:0:0:
412,120,33846,1,0,0:0:0:0:
216,156,34013,2,0,P|132:155|24:172,2,187.5,14|10|10,0:0|0:0|0:0,0:0:0:0:
388,200,34846,6,0,L|488:208,1,93.75,0|8,0:0|0:0,0:0:0:0:
308,320,35179,2,0,L|200:332,1,93.75,0|4,0:0|0:0,0:0:0:0:
404,220,35513,1,0,0:0:0:0:
404,220,35679,2,0,P|328:212|256:228,1,140.625,8|0,0:0|0:0,0:0:0:0:
244,300,36013,6,0,P|340:248|304:156,1,187.5,10|8,0:0|0:0,0:0:0:0:
248,60,36513,1,0,0:0:0:0:
84,128,36679,1,4,0:0:0:0:
336,132,37013,1,8,0:0:0:0:
340,136,37179,1,0,0:0:0:0:
344,140,37346,6,0,P|256:140|220:152,1,93.75,10|0,0:0|0:0,0:0:0:0:
100,272,37679,1,8,0:0:0:0:
152,148,37846,1,0,0:0:0:0:
240,316,38013,2,0,P|240:228|228:192,1,93.75,6|0,0:0|0:0,0:0:0:0:
152,56,38346,2,0,P|152:144|164:180,1,93.75,8|0,0:0|0:0,0:0:0:0:
320,256,38679,6,0,L|428:220,1,93.75,10|0,0:0|0:0,0:0:0:0:
232,132,39013,2,0,L|190:237,1,93.75,8|0,0:0|0:0,0:0:0:0:
368,112,39346,2,0,L|313:11,1,93.75,6|0,0:0|0:0,0:0:0:0:
196,220,39679,1,8,0:0:0:0:
412,184,39846,1,0,0:0:0:0:
304,204,40013,5,2,0:0:0:0:
256,192,40096,12,8,42679,0:0:0:0:
160,168,42846,37,2,0:0:0:0:
332,108,43013,1,8,0:0:0:0:
164,172,43179,1,0,0:0:0:0:
368,188,43346,1,4,0:0:0:0:
168,176,43513,1,0,0:0:0:0:
232,304,43679,1,8,0:0:0:0:
280,152,43846,2,0,L|288:248,1,86.2500016450882,2|8,0:0|0:0,0:0:0:0:
372,336,44179,5,2,0:0:0:0:
444,200,44346,1,8,0:0:0:0:
248,232,44513,1,0,0:0:0:0:
392,248,44679,1,4,0:0:0:0:
352,80,44846,1,0,0:0:0:0:
216,164,45013,1,8,0:0:0:0:
104,84,45179,2,0,P|164:80|212:64,1,86.2500016450882,2|8,0:0|0:0,0:0:0:0:
336,56,45513,5,2,0:0:0:0:
208,152,45679,1,8,0:0:0:0:
352,136,45846,1,0,0:0:0:0:
312,276,46013,1,4,0:0:0:0:
276,108,46179,1,0,0:0:0:0:
112,268,46346,2,0,P|172:244|236:260,1,129.375002467632,10|0,0:0|0:0,0:0:0:0:
300,292,46679,6,0,P|212:248|212:152,1,172.500003290176,10|8,0:0|0:0,0:0:0:0:
320,100,47179,2,0,L|316:220,1,86.2500016450882,2|4,0:0|0:0,0:0:0:0:
344,336,47513,1,0,0:0:0:0:
172,252,47679,1,8,0:0:0:0:
352,344,47846,2,0,L|252:336,1,86.2500016450882,2|8,0:0|0:0,0:0:0:0:
360,352,48179,5,2,0:0:0:0:
152,240,48346,2,0,L|237:246,1,86.2500016450882,8|0,0:0|0:0,0:0:0:0:
308,116,48679,1,4,0:0:0:0:
436,200,48846,2,0,P|432:260|444:312,1,86.2500016450882,0|8,0:0|0:0,0:0:0:0:
464,124,49179,2,0,P|408:128|340:128,1,86.2500016450882,2|8,0:0|0:0,0:0:0:0:
480,136,49513,5,2,0:0:0:0:
344,56,49679,1,8,0:0:0:0:
500,152,49846,1,0,0:0:0:0:
316,204,50013,2,0,P|244:220|208:236,1,86.2500016450882,4|0,0:0|0:0,0:0:0:0:
368,108,50346,1,8,0:0:0:0:
316,204,50513,1,2,0:0:0:0:
196,140,50679,2,0,P|168:88|124:44,1,86.2500016450882,8|0,0:0|0:0,0:0:0:0:
312,84,51013,5,10,0:0:0:0:
208,184,51179,1,0,0:0:0:0:
404,144,51346,1,4,0:0:0:0:
228,88,51513,1,0,0:0:0:0:
372,240,51679,2,0,L|376:332,2,86.2500016450882,10|0|8,0:0|0:0|0:0,0:0:0:0:
304,80,52179,5,2,0:0:0:0:
304,80,52513,1,0,0:0:0:0:
256,192,52679,1,4,0:0:0:0:
336,272,52846,1,0,0:0:0:0:
164,304,53013,1,8,0:0:0:0:
204,152,53179,1,2,0:0:0:0:
204,152,53263,1,0,0:0:0:0:
204,152,53346,6,0,P|216:72|132:68,1,172.500003290176,10|8,0:0|0:0,0:0:0:0:
100,184,53846,2,0,P|104:232|96:288,1,86.2500016450882,0|4,0:0|0:0,0:0:0:0:
224,260,54179,1,0,0:0:0:0:
72,344,54346,1,8,0:0:0:0:
224,260,54513,1,0,0:0:0:0:
400,228,54679,6,0,P|416:144|344:88,1,172.500003290176,10|8,0:0|0:0,0:0:0:0:
188,128,55179,1,0,0:0:0:0:
340,172,55346,1,4,0:0:0:0:
300,308,55513,2,0,L|208:348,1,86.2500016450882,0|8,0:0|0:0,0:0:0:0:
200,204,55846,1,0,0:0:0:0:
128,84,56013,6,0,P|240:88|316:56,1,172.500003290176,10|8,0:0|0:0,0:0:0:0:
416,136,56513,1,0,0:0:0:0:
432,256,56679,2,0,P|424:296|424:348,1,86.2500016450882,4|0,0:0|0:0,0:0:0:0:
312,276,57013,2,0,P|270:277|224:276,1,86.2500016450882,8|0,0:0|0:0,0:0:0:0:
148,176,57346,6,0,P|106:174|60:176,1,86.2500016450882,10|0,0:0|0:0,0:0:0:0:
164,96,57679,2,0,P|208:124|232:176,1,86.2500016450882,8|0,0:0|0:0,0:0:0:0:
316,296,58013,2,0,P|350:271|366:231,1,86.2500016450882,4|0,0:0|0:0,0:0:0:0:
372,48,58346,2,0,P|412:80|352:116,1,129.375002467632,8|0,0:0|0:0,0:0:0:0:
292,140,58679,6,0,P|292:200|277:255,2,86.2500016450882,10|0|8,0:0|0:0|0:0,0:0:0:0:
192,280,59179,1,0,0:0:0:0:
72,224,59346,2,0,P|68:164|68:48,2,172.500003290176,6|10|8,0:0|0:0|0:0,0:0:0:0:
164,320,60179,5,0,0:0:0:0:
248,192,60346,1,0,0:0:0:0:
260,352,60513,1,0,0:0:0:0:
172,148,60679,2,0,P|172:104|156:48,1,86.2500016450882,6|0,0:0|0:0,0:0:0:0:
264,148,61013,2,0,L|264:296,1,129.375002467632,10|0,0:0|0:0,0:0:0:0:
328,316,61346,6,0,P|372:312|432:316,2,86.2500016450882,10|0|8,0:0|0:0|0:0,0:0:0:0:
132,328,61846,1,0,0:0:0:0:
48,212,62013,2,0,P|96:172|96:92,1,129.375002467632,6|0,0:0|0:0,0:0:0:0:
120,32,62346,2,0,P|144:96|212:112,1,129.375002467632,10|0,0:0|0:0,0:0:0:0:
320,88,62679,5,10,0:0:0:0:
320,88,62846,2,0,P|280:132|284:252,1,172.500003290176
380,136,63346,2,0,P|308:136|220:120,1,129.375002467632,6|0,0:0|0:0,0:0:0:0:
204,52,63679,1,10,0:0:0:0:
104,252,64013,6,0,P|81:178|0:188,1,150,2|0,0:0|0:0,0:0:0:0:
172,160,64512,2,0,P|236:164|324:144,1,150
376,276,65012,1,0,0:0:0:0:
432,156,65179,1,0,0:0:0:0:
280,244,65346,6,0,P|208:248|200:332,1,150,2|0,0:0|0:0,0:0:0:0:
280,244,65846,2,0,P|280:128|276:84,1,150
104,120,66346,1,0,0:0:0:0:
104,120,66679,6,0,L|100:272,1,150,2|0,0:0|0:0,0:0:0:0:
220,276,67179,2,0,P|240:208|324:192,1,150
460,244,67679,1,0,0:0:0:0:
304,272,67846,1,0,0:0:0:0:
248,116,68013,6,0,P|184:140|104:112,1,150,2|0,0:0|0:0,0:0:0:0:
252,204,68513,2,0,P|321:179|391:203,1,150
328,84,69013,1,0,0:0:0:0:
328,84,69346,6,0,P|288:148|344:224,1,150,2|0,0:0|0:0,0:0:0:0:
400,112,69846,2,0,P|304:112|232:108,1,150
124,108,70346,1,0,0:0:0:0:
52,204,70513,1,0,0:0:0:0:
132,312,70679,6,0,P|160:256|248:240,1,150,2|0,0:0|0:0,0:0:0:0:
420,264,71179,2,0,P|392:320|304:336,1,150
328,180,71679,1,0,0:0:0:0:
92,124,72013,6,0,P|92:72|84:32,2,75,2|0|0,0:0|0:0|0:0,0:0:0:0:
88,264,72513,2,0,P|96:228|160:272,1,150
40,328,73013,1,0,0:0:0:0:
200,352,73179,1,0,0:0:0:0:
340,272,73346,6,0,P|412:272|440:268,2,75,2|0|0,0:0|0:0|0:0,0:0:0:0:
312,136,73846,1,0,0:0:0:0:
312,136,74179,5,0,0:0:0:0:
96,212,74346,1,2,0:0:0:0:
