osu file format v12

[General]
AudioFilename: ZE_A[] (The Ghost Of Wind) MV Full ver. - from YouTube by Offliberty.mp3
AudioLeadIn: 0
PreviewTime: 71936
Countdown: 0
SampleSet: Normal
StackLeniency: 0.7
Mode: 0
LetterboxInBreaks: 0
WidescreenStoryboard: 0

[Editor]
DistanceSpacing: 1.21
BeatDivisor: 4
GridSize: 4

[Metadata]
Title:The Ghost Of Wind
TitleUnicode:바람의 유령
Artist:ZE:A
ArtistUnicode:ZE:A
Creator:HabiHolic
Version:Easy
Source:
Tags:제국의 아이들 Children of Empire 스타제국 Star Empire
BeatmapID:292311
BeatmapSetID:112529

[Difficulty]
HPDrainRate:2
CircleSize:3
OverallDifficulty:2
ApproachRate:3
SliderMultiplier:0.8
SliderTickRate:1

[Events]
//Background and Video events
Video,0,"Video.avi"
0,0,"zea-showcase.jpg",0,0
//Break Periods
2,103570,109610
2,165010,174890
//Storyboard Layer 0 (Background)
//Storyboard Layer 1 (Fail)
//Storyboard Layer 2 (Pass)
//Storyboard Layer 3 (Foreground)
//Storyboard Sound Samples
//Background Colour Transformations
3,100,163,162,255

[TimingPoints]
18890,480,4,1,1,65,1,0
33770,-100,4,1,2,65,0,0
34250,-100,4,1,1,65,0,0
41450,-100,4,1,2,65,0,0
41930,-100,4,2,0,65,0,0
57296,-100,4,1,2,65,0,0
57536,-100,4,1,1,65,0,0
72650,-100,4,1,1,65,0,1
87530,-100,4,1,2,65,0,1
88010,-100,4,1,1,65,0,1
103370,-100,4,1,1,65,0,0
111050,-100,4,2,0,65,0,0
118490,-100,4,1,2,10,0,0
118730,-100,4,1,1,65,0,0
134090,-100,4,1,1,65,0,1
148970,-100,4,1,2,65,0,1
149450,-100,4,1,1,65,0,1
164810,-100,4,1,1,65,0,0
180170,-100,4,1,1,65,0,1
195050,-100,4,1,2,65,0,1
195530,-100,4,1,1,65,0,1
210890,-100,4,1,1,65,0,0
218090,-100,4,1,2,65,0,0
218570,-100,4,1,1,65,0,0
225770,-100,4,1,2,65,0,0
228170,-100,4,2,0,5,0,0

[Colours]
Combo1 : 105,105,105
Combo2 : 98,149,51
Combo3 : 191,191,234
Combo4 : 182,182,182

[HitObjects]
52,140,26570,2,0,P|32:216|60:300,1,160,4|8,0:0|0:0,0:0:0:0:
248,296,28490,2,0,P|268:220|240:136,1,160,0|0,0:0|0:0,0:0:0:0:
172,80,29930,1,8,0:0:0:0:
256,36,30410,6,0,P|340:24|420:48,1,160
472,120,31850,1,8,0:0:0:0:
448,212,32330,2,0,P|452:252|440:292,1,80,0|8,0:0|0:0,0:0:0:0:
360,336,33290,2,0,L|276:328,1,80,0|8,0:0|0:0,0:0:0:0:
184,304,34250,6,0,P|152:232|80:192,1,160,0|8,0:0|0:0,0:0:0:0:
232,68,36170,2,0,P|264:140|336:180,1,160,0|8,0:0|0:0,0:0:0:0:
196,320,38090,6,0,P|272:340|364:312,2,160,0|8|0,0:0|0:0|0:0,0:0:0:0:
108,284,40490,2,0,L|72:196,1,80,8|0,0:0|0:0,0:0:0:0:
48,116,41450,1,8,0:0:0:0:
120,52,41930,6,0,P|204:32|284:60,1,160,4|0,0:0|0:0,0:0:0:0:
324,136,43370,1,2,0:0:0:0:
380,208,43850,2,0,P|420:216|464:208,2,80,0|2|0,0:0|0:0|0:0,0:0:0:0:
284,216,45290,1,2,0:0:0:0:
208,152,45770,6,0,P|180:224|220:296,1,160,0|2,0:0|0:0,0:0:0:0:
392,268,47690,2,0,P|412:300|420:352,2,80,0|2|0,0:0|0:0|0:0,0:0:0:0:
304,292,49130,1,2,0:0:0:0:
256,208,49610,6,0,P|236:128|244:40,1,160,0|0,0:0|0:0,0:0:0:0:
344,52,51050,1,2,0:0:0:0:
432,96,51530,2,0,P|452:176|444:264,1,160,0|2,0:0|0:0,0:0:0:0:
256,204,53450,6,0,P|280:240|284:292,2,80,0|2|0,0:0|0:0|0:0,0:0:0:0:
168,252,54890,1,2,0:0:0:0:
80,216,55370,2,0,P|56:180|52:128,2,80,0|2|0,0:0|0:0|0:0,0:0:0:0:
184,52,57290,6,0,P|160:124|200:200,1,160,8|0,0:0|0:0,0:0:0:0:
260,124,58730,1,8,0:0:0:0:
324,196,59210,2,0,P|359:124|335:52,1,160,0|8,0:0|0:0,0:0:0:0:
464,200,61130,6,0,L|472:336,2,120,0|0|8,0:0|0:0|0:0,0:0:0:0:
368,208,63050,2,0,L|380:72,2,120,0|0|8,0:0|0:0|0:0,0:0:0:0:
320,292,64970,6,0,P|248:324|168:308,1,160,0|0,0:0|0:0,0:0:0:0:
108,236,66410,1,8,0:0:0:0:
156,152,66890,2,0,P|228:120|308:136,1,160,0|0,0:0|0:0,0:0:0:0:
356,216,68330,1,8,0:0:0:0:
256,192,68810,12,0,70730,0:0:0:0:
56,304,72650,6,0,P|96:232|88:152,1,160,4|0,0:0|0:0,0:0:0:0:
52,68,74090,1,8,0:0:0:0:
144,40,74570,2,0,P|224:32|300:64,1,160
372,120,76010,1,8,0:0:0:0:
392,212,76490,6,0,P|432:224|472:224,2,80,0|8|0,0:0|0:0|0:0,0:0:0:0:
304,176,77930,1,8,0:0:0:0:
220,128,78410,2,0,P|144:104|64:120,1,160
112,264,80330,6,0,L|116:344,2,80,0|8|0,0:0|0:0|0:0,0:0:0:0:
180,196,81770,1,8,0:0:0:0:
272,224,82250,2,0,P|288:160|280:64,1,160,0|0,0:0|0:0,0:0:0:0:
428,192,84170,5,0,0:0:0:0:
464,280,84650,1,8,0:0:0:0:
388,336,85130,2,0,P|308:356|232:324,2,160,0|8|0,0:0|0:0|0:0,0:0:0:0:
352,248,87530,1,8,0:0:0:0:
276,188,88010,6,0,P|260:148|264:104,1,80,4|8,0:0|0:0,0:0:0:0:
328,40,88970,2,0,P|368:28|408:32,1,80,0|8,0:0|0:0,0:0:0:0:
468,104,89930,2,0,P|472:188|440:264,1,160,0|8,0:0|0:0,0:0:0:0:
260,316,91850,6,0,P|276:276|272:236,1,80,0|8,0:0|0:0,0:0:0:0:
184,200,92810,2,0,P|176:164|184:116,1,80,0|8,0:0|0:0,0:0:0:0:
240,48,93770,2,0,P|320:48|380:108,1,160
424,184,95210,1,8,0:0:0:0:
348,256,95690,6,0,P|400:284|472:276,2,120,0|0|8,0:0|0:0|0:0,0:0:0:0:
276,196,97610,2,0,P|224:168|152:176,2,120,0|0|8,0:0|0:0|0:0,0:0:0:0:
256,192,99530,12,4,103370,0:0:0:0:
72,280,111050,6,0,P|136:224|140:148,1,160,0|0,0:0|0:0,0:0:0:0:
92,72,112490,1,2,0:0:0:0:
184,40,112970,2,0,P|264:24|344:56,1,160,0|2,0:0|0:0,0:0:0:0:
384,236,114890,6,0,P|424:224|464:228,2,80,0|2|0,0:0|0:0|0:0,0:0:0:0:
316,308,116330,1,2,0:0:0:0:
220,324,116810,2,0,P|180:336|132:332,2,80,0|2|0,0:0|0:0|0:0,0:0:0:0:
36,260,118730,6,0,P|88:192|88:108,1,160,4|0,0:0|0:0,0:0:0:0:
164,56,120170,1,8,0:0:0:0:
260,40,120650,2,0,P|308:32|344:40,1,80,0|8,0:0|0:0,0:0:0:0:
424,84,121610,2,0,P|444:124|444:172,1,80,0|8,0:0|0:0,0:0:0:0:
364,216,122570,6,0,P|400:272|460:284,2,120,0|0|8,0:0|0:0|0:0,0:0:0:0:
268,240,124490,2,0,P|240:168|160:132,1,160
72,128,125930,1,8,0:0:0:0:
32,216,126410,6,0,P|24:256|32:300,1,80,0|8,0:0|0:0,0:0:0:0:
108,348,127370,2,0,P|148:336|188:344,1,80,0|8,0:0|0:0,0:0:0:0:
280,340,128330,2,0,P|348:296|432:300,1,160,0|8,0:0|0:0,0:0:0:0:
408,104,130250,6,0,P|448:112|480:136,2,80,0|8|0,0:0|0:0|0:0,0:0:0:0:
312,128,131690,1,8,0:0:0:0:
248,200,132170,2,0,P|212:120|244:40,1,160,0|8,0:0|0:0,0:0:0:0:
60,160,134090,6,0,P|72:200|68:240,1,80,4|8,0:0|0:0,0:0:0:0:
128,316,135050,1,0,0:0:0:0:
220,344,135530,1,8,0:0:0:0:
308,300,136010,2,0,P|368:248|452:248,1,160
472,152,137450,1,8,0:0:0:0:
408,80,137930,6,0,P|348:132|264:132,1,160,0|0,0:0|0:0,0:0:0:0:
188,84,139370,1,8,0:0:0:0:
92,64,139850,2,0,L|72:144,1,80,0|8,0:0|0:0,0:0:0:0:
124,224,140810,2,0,L|104:304,1,80,0|8,0:0|0:0,0:0:0:0:
196,336,141770,6,0,P|272:356|360:320,2,160,0|8|0,0:0|0:0|0:0,0:0:0:0:
228,244,144170,2,0,L|220:156,1,80,8|0,0:0|0:0,0:0:0:0:
212,68,145130,1,8,0:0:0:0:
300,52,145610,6,0,P|380:36|460:60,1,160,0|8,0:0|0:0,0:0:0:0:
456,252,147530,2,0,P|376:268|296:244,1,160,0|0,0:0|0:0,0:0:0:0:
244,168,148970,1,8,0:0:0:0:
200,80,149450,6,0,L|120:68,1,80,0|8,0:0|0:0,0:0:0:0:
36,116,150410,2,0,P|44:156|36:196,1,80,0|8,0:0|0:0,0:0:0:0:
40,292,151370,2,0,P|96:344|184:344,1,160
256,292,152810,1,8,0:0:0:0:
340,344,153290,6,0,P|421:342|477:290,1,160
456,196,154730,1,8,0:0:0:0:
476,100,155210,2,0,P|436:88|392:92,1,80,0|8,0:0|0:0,0:0:0:0:
312,132,156170,2,0,P|272:144|232:136,1,80,0|8,0:0|0:0,0:0:0:0:
160,76,157130,6,0,P|80:60|12:108,1,160,0|8,0:0|0:0,0:0:0:0:
48,292,159050,2,0,P|128:308|196:260,1,160,0|0,0:0|0:0,0:0:0:0:
220,176,160490,1,8,0:0:0:0:
256,192,160970,12,4,164810,0:0:0:0:
256,192,176330,12,0,178250,0:0:0:0:
24,256,180170,6,0,B|80:256|80:256|124:240|124:240|192:240,1,160,4|0,0:0|0:0,0:0:0:0:
256,176,181610,1,8,0:0:0:0:
328,240,182090,2,0,B|385:240|385:240|429:256|429:256|485:256,1,160,0|8,0:0|0:0,0:0:0:0:
432,72,184010,6,0,P|448:108|444:152,2,80,0|8|0,0:0|0:0|0:0,0:0:0:0:
340,40,185450,1,8,0:0:0:0:
248,68,185930,2,0,P|176:88|84:72,1,160
32,152,187370,1,8,0:0:0:0:
24,248,187850,6,0,P|104:260|152:320,1,160
244,352,189290,1,8,0:0:0:0:
336,312,189770,2,0,P|376:300|420:304,1,80,0|8,0:0|0:0,0:0:0:0:
484,236,190730,2,0,L|472:148,1,80,0|8,0:0|0:0,0:0:0:0:
424,76,191690,6,0,P|348:52|272:88,1,160,0|8,0:0|0:0,0:0:0:0:
300,276,193610,2,0,P|376:300|452:264,1,160
372,204,195050,1,8,0:0:0:0:
324,124,195530,6,0,B|280:112|228:128|228:128|160:112,1,160
72,116,196970,1,8,0:0:0:0:
36,208,197450,2,0,L|32:296,2,80,0|0|8,0:0|0:0|0:0,0:0:0:0:
176,76,199370,6,0,P|248:56|324:100,1,160
336,188,200810,1,8,0:0:0:0:
288,272,201290,2,0,B|244:272|244:272|188:312|188:312|136:312,1,160
56,268,202730,1,8,0:0:0:0:
12,180,203210,6,0,L|0:92,1,80,0|8,0:0|0:0,0:0:0:0:
76,40,204170,1,0,0:0:0:0:
164,80,204650,1,8,0:0:0:0:
260,88,205130,2,0,P|332:60|412:92,1,160
456,168,206570,1,8,0:0:0:0:
452,264,207050,6,0,P|392:312|300:296,1,160
260,224,208490,1,8,0:0:0:0:
198,304,208970,2,0,P|120:312|60:264,1,160
24,176,210410,1,8,0:0:0:0:
60,84,210890,6,0,B|96:52|96:52|120:112|196:112,1,160,4|0,0:0|0:0,0:0:0:0:
256,48,212330,1,8,0:0:0:0:
328,112,212810,2,0,B|390:112|414:52|414:52|450:84,1,160,0|0,0:0|0:0,0:0:0:0:
476,176,214250,1,8,0:0:0:0:
448,268,214730,6,0,P|372:312|292:304,1,160,0|0,0:0|0:0,0:0:0:0:
248,228,216170,1,8,0:0:0:0:
260,132,216650,2,0,P|336:88|416:96,1,160,0|0,0:0|0:0,0:0:0:0:
460,172,218090,1,8,0:0:0:0:
464,268,218570,6,0,P|424:296|380:296,1,80,0|8,0:0|0:0,0:0:0:0:
304,336,219530,2,0,P|268:316|216:320,1,80,0|8,0:0|0:0,0:0:0:0:
136,304,220490,2,0,P|92:232|96:148,1,160
144,76,221930,1,8,0:0:0:0:
236,36,222410,6,0,P|316:36|368:96,1,160
396,184,223850,1,8,0:0:0:0:
468,252,224330,2,0,P|476:292|464:332,2,80,0|8|0,0:0|0:0|0:0,0:0:0:0:
376,288,225770,1,8,0:0:0:0:
256,192,226250,12,0,228170,0:0:0:0:
