osu file format v14

[General]
AudioFilename: ZEA-03-Run To The World (Rock Ver.).mp3
AudioLeadIn: 0
PreviewTime: 6640
Countdown: 0
SampleSet: Soft
StackLeniency: 0.7
Mode: 0
LetterboxInBreaks: 0
WidescreenStoryboard: 1

[Editor]
Bookmarks: 6640,13261,19881,26502,33123,39743,46364,52985,59606,66226,72847,79468,86088,92709,99330,105950,112571,119192,125812,132433,139054,145675,152295,158916,165537
DistanceSpacing: 1
BeatDivisor: 4
GridSize: 4
TimelineZoom: 1.2

[Metadata]
Title:Run To The World (Rock Ver.)
TitleUnicode:Run To The World (Rock Ver.)
Artist:ZE:A
ArtistUnicode:ZE:A
Creator:HabiHolic
Version:Collab
Source:
Tags:더킥
BeatmapID:702933
BeatmapSetID:315245

[Difficulty]
HPDrainRate:7
CircleSize:4
OverallDifficulty:7
ApproachRate:8.5
SliderMultiplier:2
SliderTickRate:1

[Events]
//Background and Video events
0,0,"BG.jpg",0,0
//Break Periods
2,39633,45689
2,66218,78793
2,112770,131758
2,145771,151620
//Storyboard Layer 0 (Background)
//Storyboard Layer 1 (Fail)
//Storyboard Layer 2 (Pass)
//Storyboard Layer 3 (Foreground)
//Storyboard Sound Samples

[TimingPoints]
1675,413.793103448276,4,2,0,60,1,0
1675,413.793103448276,4,2,0,60,1,0
6640,-100,4,2,1,75,0,0
19881,-133.333333333333,4,2,1,75,0,0
26502,-133.333333333333,4,2,1,75,0,0
33123,-100,4,2,1,75,0,0
36019,-66.6666666666667,4,2,1,75,0,0
36433,-100,4,2,1,75,0,0
47606,-181.818181818181,4,2,1,75,0,0
49675,-100,4,2,1,75,0,0
51743,-133.333333333333,4,2,1,75,0,0
52985,-100,4,2,1,75,0,0
52985,-100,4,2,1,75,0,0
55468,-200,4,2,1,75,0,0
56295,-100,4,2,1,75,0,0
58778,-200,4,2,1,75,0,0
59606,-100,4,2,1,75,0,0
85675,-66.6666666666667,4,2,1,75,0,0
86088,-100,4,2,1,75,0,0
86088,-100,4,2,1,75,0,0
88985,-83.3333333333333,4,2,1,75,0,0
89399,-100,4,2,1,75,0,0
92295,-83.3333333333333,4,2,1,75,0,0
92709,-100,4,2,0,60,0,0
93123,-133.333333333333,4,2,1,75,0,0
93950,-66.6666666666667,4,2,1,75,0,0
94364,-133.333333333333,4,2,1,75,0,0
96019,-100,4,2,1,75,0,0
96640,-133.333333333333,4,2,1,75,0,0
97261,-66.6666666666667,4,2,1,75,0,0
97675,-100,4,2,1,75,0,0
98916,-76.9230769230769,4,2,1,75,0,0
99330,-66.6666666666667,4,2,1,75,0,0
99743,-100,4,2,1,75,0,0
103054,-83.3333333333333,4,2,1,75,0,0
104295,-76.9230769230769,4,2,1,75,0,0
105123,-100,4,2,1,75,0,0
111743,-133.333333333333,4,2,1,75,0,0
125812,-100,4,2,1,75,0,0
139054,-100,4,2,1,75,0,0
141950,-80,4,2,1,75,0,0
142364,-100,4,2,1,75,0,0
145261,-80,4,2,1,75,0,0
145675,-100,4,2,1,75,0,0
158916,-100,4,2,1,75,0,0

[Colours]
Combo1 : 199,145,242
Combo2 : 135,159,243
Combo3 : 46,226,109
Combo4 : 255,192,162

[HitObjects]
96,252,6640,6,0,L|104:364,1,100,4|0,0:0|0:0,0:0:0:0:
160,172,7054,1,8,0:0:0:0:
24,44,7261,1,0,0:0:0:0:
224,84,7468,2,0,L|220:28,2,50,2|2|2,0:0|0:0|0:0,0:0:0:0:
160,172,7881,1,8,0:0:0:0:
360,120,8088,1,0,0:0:0:0:
440,168,8295,2,0,P|456:120|444:68,1,100,2|2,0:0|0:0,0:0:0:0:
356,212,8709,2,0,P|392:248|448:252,1,100,8|0,0:0|0:0,0:0:0:0:
360,120,9123,2,0,P|308:124|272:160,1,100,2|2,0:0|0:0,0:0:0:0:
148,268,9537,6,0,L|124:112,1,150,8|0,0:0|0:0,0:0:0:0:
84,64,9950,2,0,P|80:120|60:160,1,100,4|0,0:0|0:0,0:0:0:0:
8,256,10364,2,0,L|20:356,1,100,8|0,0:0|0:0,0:0:0:0:
92,164,10778,1,2,0:0:0:0:
256,308,10985,1,2,0:0:0:0:
272,100,11192,1,8,0:0:0:0:
144,276,11399,1,0,0:0:0:0:
360,176,11606,6,0,L|368:12,1,150,2|0,0:0|0:0,0:0:0:0:
367,26,12019,1,8,0:0:0:0:
180,64,12226,1,0,0:0:0:0:
304,248,12433,2,0,P|352:264|400:256,1,100,2|2,0:0|0:0,0:0:0:0:
244,124,12847,1,8,0:0:0:0:
244,124,12950,1,2,0:0:0:0:
244,124,13053,1,2,0:0:0:0:
211,297,13261,6,0,L|80:310,1,100,6|0,0:0|0:0,0:0:0:0:
304,248,13675,1,8,0:0:0:0:
175,173,13881,1,2,0:0:0:0:
304,248,14088,2,0,L|422:240,1,100
211,297,14502,1,8,0:0:0:0:
85,216,14709,5,0,0:0:0:0:
314,93,14916,2,0,P|389:136|394:259,1,200,2|8,0:0|0:0,0:0:0:0:
228,131,15537,2,0,P|295:56|425:35,1,200,2|2,0:0|0:0,0:0:0:0:
301,202,16157,1,12,0:0:0:0:
124,134,16364,1,0,0:0:0:0:
301,202,16571,6,0,B|425:245|425:245|489:213,1,200,2|8,0:0|0:0,0:0:0:0:
316,304,17192,1,2,0:0:0:0:
285,95,17399,1,0,0:0:0:0:
197,216,17606,1,0,0:0:0:0:
45,118,17812,1,8,0:0:0:0:
189,28,18019,1,0,0:0:0:0:
210,304,18226,6,0,P|132:275|138:145,1,200,2|8,0:0|0:0,0:0:0:0:
285,95,18847,1,2,0:0:0:0:
197,216,19054,1,8,0:0:0:0:
197,216,19157,1,8,0:0:0:0:
197,216,19261,1,8,0:0:0:0:
189,28,19468,1,12,0:0:0:0:
330,81,19675,1,0,0:0:0:0:
242,288,19881,6,0,P|174:298|116:256,1,112.500004291535,4|0,0:0|0:0,0:0:0:0:
90,140,20502,1,0,0:0:0:0:
283,218,20709,2,0,B|373:256|373:256|445:246,1,150.000005722046,12|0,0:0|0:0,0:0:0:0:
497,182,21330,1,0,0:0:0:0:
369,85,21537,6,0,P|303:95|240:71,1,112.500004291535
124,26,22157,1,0,0:0:0:0:
9,195,22364,2,0,P|52:223|99:227,1,75.0000028610231,12|0,0:0|0:0,0:0:0:0:
221,197,22778,2,0,P|178:169|126:164,1,75.0000028610231
234,282,23192,6,0,P|282:258|305:198,1,112.500004291535,4|0,0:0|0:0,0:0:0:0:
303,60,23812,1,0,0:0:0:0:
171,131,24019,2,0,B|142:156|138:201|138:201|72:166,1,150.000005722046,12|0,0:0|0:0,0:0:0:0:
33,80,24640,1,0,0:0:0:0:
215,62,24847,6,0,P|272:57|349:72,1,112.500004291535
463,117,25468,1,0,0:0:0:0:
474,269,25675,2,0,B|440:313|440:313|393:331,1,75.0000028610231,12|0,0:0|0:0,0:0:0:0:
369,201,26088,6,0,B|340:161|340:161|286:140,1,75.0000028610231,4|0,0:0|0:0,0:0:0:0:
184,256,26502,6,0,P|129:268|77:250,2,112.500004291535,2|0|0,0:0|0:0|0:0,0:0:0:0:
275,219,27330,2,0,P|280:257|274:293,1,75.0000028610231,14|0,0:0|0:0,0:0:0:0:
224,136,27743,2,0,P|219:98|225:62,1,75.0000028610231,2|0,0:0|0:0,0:0:0:0:
396,164,28157,6,0,P|407:215|396:280,2,112.500004291535,2|0|2,0:0|0:0|0:0,0:0:0:0:
328,64,28985,1,14,0:0:0:0:
232,136,29192,1,2,0:0:0:0:
264,252,29398,1,2,0:0:0:0:
160,316,29606,1,0,0:0:0:0:
328,360,29812,5,2,0:0:0:0:
391,245,30123,2,0,P|379:300|348:347,1,112.500004291535,2|0,0:0|0:0,0:0:0:0:
340,143,30640,2,0,P|374:128|411:129,1,75.0000028610231,14|0,0:0|0:0,0:0:0:0:
264,204,31054,2,0,P|229:219|192:218,1,75.0000028610231,2|0,0:0|0:0,0:0:0:0:
112,184,31468,6,0,B|33:169|3:88|3:88|93:69|146:110,1,300.000011444092,10|10,0:0|0:0,0:0:0:0:
160,120,32399,1,10,0:0:0:0:
175,131,32502,1,10,0:0:0:0:
316,228,32709,1,2,0:0:0:0:
164,300,32916,1,10,0:0:0:0:
176,132,33123,6,0,L|192:20,1,100,4|0,0:0|0:0,0:0:0:0:
256,304,33537,1,8,0:0:0:0:
100,216,33743,2,0,P|52:204|0:208,1,100,2|0,0:0|0:0,0:0:0:0:
232,336,34157,1,2,0:0:0:0:
360,192,34364,6,0,P|380:144|480:100,1,150,8|0,0:0|0:0,0:0:0:0:
511,113,34778,1,2,0:0:0:0:
368,32,34985,1,0,0:0:0:0:
408,218,35192,2,0,P|434:283|396:354,1,150,8|0,0:0|0:0,0:0:0:0:
325,363,35606,2,0,L|164:362,1,150,2|0,0:0|0:0,0:0:0:0:
86,268,36019,6,0,P|117:304|141:204,1,225.000008583069,12|0,0:0|0:0,0:0:0:0:
84,40,36433,6,0,P|134:33|184:36,1,100,4|0,0:0|0:0,0:0:0:0:
47,60,36847,1,8,0:0:0:0:
387,93,37054,2,0,P|337:100|287:97,1,100,2|0,0:0|0:0,0:0:0:0:
420,106,37468,1,2,0:0:0:0:
197,258,37675,6,0,L|182:152,1,100,8|2,0:0|0:0,0:0:0:0:
296,232,38088,1,2,0:0:0:0:
92,242,38295,1,0,0:0:0:0:
303,242,38502,2,0,L|454:246,1,150,8|0,0:0|0:0,0:0:0:0:
472,324,38916,2,0,L|321:320,1,150
246,337,39330,1,12,0:0:0:0:
246,337,39433,1,8,0:0:0:0:
79,202,46364,6,0,P|141:245|177:245,1,100,2|0,0:0|0:0,0:0:0:0:
213,255,46675,1,0,0:0:0:0:
213,255,46778,1,8,0:0:0:0:
256,165,46985,1,2,0:0:0:0:
346,182,47192,1,0,0:0:0:0:
236,155,47399,1,0,0:0:0:0:
373,193,47606,6,2,B|364:260|321:282|321:282|283:294|239:286|205:255|205:255|154:285|173:346,1,330.000010070801,10|2,0:0|0:0,0:0:0:0:
285,203,49261,1,8,0:0:0:0:
285,203,49675,5,2,0:0:0:0:
226,119,49881,1,0,0:0:0:0:
226,119,49985,1,0,0:0:0:0:
226,119,50088,1,8,0:0:0:0:
298,59,50295,1,0,0:0:0:0:
402,73,50502,1,2,0:0:0:0:
263,50,50709,1,0,0:0:0:0:
435,81,50916,1,8,0:0:0:0:
435,81,51330,6,0,P|454:141|419:183,1,100,2|0,0:0|0:0,0:0:0:0:
376,213,51743,6,0,B|328:228|305:201|305:201|259:194|237:233,1,150,8|2,0:0|0:0,0:0:0:0:
148,345,52571,1,12,0:0:0:0:
148,345,52985,5,4,0:0:0:0:
200,76,53192,1,10,0:0:0:0:
192,52,53606,5,10,0:0:0:0:
264,280,53812,1,4,0:0:0:0:
100,180,54433,5,4,0:0:0:0:
352,52,54847,1,10,0:0:0:0:
348,336,55261,1,8,0:0:0:0:
264,280,55468,6,0,B|232:188|292:228|256:96,1,175,4|0,0:0|0:0,0:0:0:0:
244,76,56295,6,0,L|264:20,1,50,4|2,0:0|0:0,0:0:0:0:
352,52,56502,1,8,0:0:0:0:
352,52,56916,6,0,L|372:-4,1,50,4|2,0:0|0:0,0:0:0:0:
460,28,57123,1,8,0:0:0:0:
460,28,57743,5,4,0:0:0:0:
320,288,58157,1,10,0:0:0:0:
152,44,58571,1,8,0:0:0:0:
384,112,58778,6,0,B|344:128|312:120|312:120|276:100|276:100|244:96|208:108,1,175,6|0,0:0|0:0,0:0:0:0:
144,136,59606,5,4,0:0:0:0:
148,152,60019,1,8,0:0:0:0:
316,304,60433,2,0,B|344:228|336:188|336:188|296:200,1,150,2|0,0:0|0:0,0:0:0:0:
264,224,60847,1,8,0:0:0:0:
203,326,61054,6,0,B|158:323|158:323|142:286|109:270|109:270|123:242|117:197|117:197|149:179|147:145,1,250,2|0,0:0|0:0,0:0:0:0:
140,104,61675,1,8,0:0:0:0:
316,156,61881,1,0,0:0:0:0:
224,228,62088,1,2,0:0:0:0:
356,52,62295,6,0,P|404:92|364:256,1,250
352,304,62916,6,0,P|336:256|272:220,1,100,4|0,0:0|0:0,0:0:0:0:
172,72,63330,2,0,L|178:171,1,100,8|0,0:0|0:0,0:0:0:0:
260,112,63743,5,2,0:0:0:0:
84,204,63950,1,0,0:0:0:0:
272,276,64157,1,8,0:0:0:0:
76,120,64364,6,0,P|16:152|84:288,1,250,2|0,0:0|0:0,0:0:0:0:
96,332,64985,2,0,P|120:288|168:256,1,100,8|0,0:0|0:0,0:0:0:0:
388,272,65399,1,2,0:0:0:0:
204,364,65606,1,0,0:0:0:0:
224,112,65812,2,0,L|236:240,1,100,8|0,0:0|0:0,0:0:0:0:
211,287,79468,6,0,B|153:268|119:307|46:283,2,150,6|2|2,0:0|0:0|0:0,0:0:0:0:
343,263,80295,2,0,P|368:325|352:380,2,100,8|0|0,0:0|0:0|0:0,0:0:0:0:
255,162,80916,1,0,0:0:0:0:
189,43,81123,6,0,L|31:56,2,150,2|2|2,0:0|0:0|0:0,0:0:0:0:
326,32,81950,1,8,0:0:0:0:
397,162,82157,1,0,0:0:0:0:
248,75,82364,1,0,0:0:0:0:
400,79,82571,1,0,0:0:0:0:
323,204,82778,6,0,B|311:264|333:293|322:357,2,150,2|2|2,0:0|0:0|0:0,0:0:0:0:
243,320,83606,2,0,P|196:310|132:330,1,100,8|0,0:0|0:0,0:0:0:0:
409,248,84019,2,0,P|456:258|520:238,1,100
296,126,84433,6,0,P|238:198|260:261,2,150,2|2|2,0:0|0:0|0:0,0:0:0:0:
459,44,85261,1,8,0:0:0:0:
458,68,85364,1,2,0:0:0:0:
457,93,85467,1,2,0:0:0:0:
320,205,85675,6,0,L|147:170,1,150.000005722046,4|0,0:0|0:0,0:0:0:0:
370,137,86088,6,0,P|400:234|332:290,1,200,6|8,0:0|0:0,0:0:0:0:
357,53,86709,2,0,P|287:116|320:205,1,200,2|0,0:0|0:0,0:0:0:0:
370,137,87330,2,0,P|414:116|436:72,1,100,8|0,0:0|0:0,0:0:0:0:
320,205,87743,6,0,P|275:227|253:272,1,100,2|0,0:0|0:0,0:0:0:0:
288,364,88157,1,8,0:0:0:0:
394,258,88364,1,2,0:0:0:0:
273,138,88571,1,0,0:0:0:0:
288,364,88778,1,2,0:0:0:0:
370,137,88985,6,0,P|433:134|483:163,1,119.999996337891,8|0,0:0|0:0,0:0:0:0:
320,205,89399,6,0,P|220:201|194:116,1,200,6|8,0:0|0:0,0:0:0:0:
273,138,90019,2,0,L|167:314,1,200,2|0,0:0|0:0,0:0:0:0:
0,332,90640,2,0,L|100:338,1,100,8|2,0:0|0:0,0:0:0:0:
266,300,91054,5,2,0:0:0:0:
72,248,91261,1,0,0:0:0:0:
175,357,91468,1,8,0:0:0:0:
238,167,91675,1,2,0:0:0:0:
77,49,91881,2,0,L|69:169,1,100,0|2,0:0|0:0,0:0:0:0:
288,41,92295,5,12,0:0:0:0:
288,40,92399,2,0,B|228:70|228:70|175:55,1,119.999996337891,2|0,0:0|0:0,0:0:0:0:
168,100,92709,6,0,L|160:220,1,100,4|0,1:2|0:0,0:0:0:0:
276,340,93123,1,8,1:2:0:0:
161,199,93330,1,0,1:0:0:0:
161,199,93433,1,2,0:0:0:0:
161,199,93537,2,0,L|79:211,1,75.0000028610231,0|2,0:0|0:0,0:0:0:0:
352,160,93950,2,0,P|448:131|424:28,1,225.000008583069,8|0,1:2|0:0,0:0:0:0:
384,92,94364,5,0,1:0:0:0:
460,304,94571,1,2,0:0:0:0:
352,160,94778,1,8,1:2:0:0:
219,288,94985,2,0,P|249:265|286:265,1,75.0000028610231,0|0,1:2|0:0,0:0:0:0:
460,304,95399,1,2,0:0:0:0:
286,265,95606,2,0,P|263:235|263:198,1,75.0000028610231,8|0,1:2|0:0,0:0:0:0:
426,29,96019,6,0,B|368:36|368:36|312:16|312:16|231:27,1,200,4|8,0:0|1:2,0:0:0:0:
80,128,96640,2,0,L|154:134,1,75.0000028610231,0|2,1:0|0:0,0:0:0:0:
165,130,97261,6,0,B|220:216|192:304|128:300|116:208|148:219,1,225.000008583069,8|0,1:2|0:0,0:0:0:0:
147,218,97675,5,0,1:0:0:0:
348,204,97881,1,0,0:0:0:0:
252,288,98088,1,8,1:2:0:0:
453,303,98294,1,0,1:0:0:0:
108,372,98502,1,2,0:0:0:0:
132,368,98606,1,8,1:2:0:0:
156,364,98709,1,0,1:0:0:0:
348,204,98916,2,0,B|382:217|410:189|410:189|434:149|410:97|366:89,1,194.999991073609,8|0,1:2|0:0,0:0:0:0:
270,90,99330,6,0,P|198:101|125:80,1,150.000005722046,4|0,0:0|0:0,0:0:0:0:
140,209,99743,1,8,0:0:0:0:
267,233,99950,1,0,0:0:0:0:
404,131,100157,2,0,L|397:231,1,100,2|2,0:0|0:0,0:0:0:0:
384,320,100571,2,0,B|347:329|347:329|298:321|298:321|240:335|195:291,1,200,8|2,0:0|0:0,0:0:0:0:
87,99,101399,5,8,0:0:0:0:
56,225,101606,1,0,0:0:0:0:
176,176,101812,1,2,0:0:0:0:
154,304,102019,1,2,0:0:0:0:
298,159,102226,2,0,P|297:209|273:252,1,100,8|0,0:0|0:0,0:0:0:0:
401,224,102640,5,4,0:0:0:0:
367,71,102847,1,0,0:0:0:0:
367,71,103054,2,0,L|494:89,1,119.999996337891,8|0,0:0|0:0,0:0:0:0:
283,159,103468,2,2,L|159:188,1,119.999996337891
52,292,103881,1,8,0:0:0:0:
207,266,104088,1,0,0:0:0:0:
372,234,104295,6,0,B|398:172|398:172|461:145,1,129.999994049073,6|2,0:0|0:0,0:0:0:0:
465,318,104709,1,8,0:0:0:0:
295,323,104916,1,0,0:0:0:0:
295,323,105123,2,0,P|244:349|186:345,1,100,2|2,0:0|0:0,0:0:0:0:
40,231,105537,2,0,P|102:240|149:268,1,100,8|0,0:0|0:0,0:0:0:0:
64,336,105950,5,4,0:0:0:0:
284,80,106157,1,8,0:0:0:0:
64,336,106571,5,0,0:0:0:0:
284,80,106778,1,4,0:0:0:0:
284,80,107399,2,0,P|292:136|280:184,1,100,8|0,0:0|0:0,0:0:0:0:
392,352,107812,2,0,P|403:296|431:255,1,100,8|0,0:0|0:0,0:0:0:0:
488,344,108226,1,8,0:0:0:0:
320,232,108433,6,0,P|232:200|136:260,1,200,4|0,0:0|0:0,0:0:0:0:
143,248,109261,1,4,0:0:0:0:
448,108,109468,1,8,0:0:0:0:
143,248,109881,5,0,0:0:0:0:
448,108,110088,1,12,0:0:0:0:
448,108,110709,2,0,L|340:104,1,100,8|0,0:0|0:0,0:0:0:0:
192,56,111123,2,0,P|188:108|208:168,1,100,8|0,0:0|0:0,0:0:0:0:
416,208,111537,1,8,0:0:0:0:
176,248,111743,6,0,P|112:312|120:184,1,300.000011444092,8|2,0:0|0:0,0:0:0:0:
36,216,132433,6,0,L|32:164,1,50
136,224,132640,2,0,L|132:273,1,50
232,208,132847,2,0,L|228:156,1,50
332,216,133054,2,0,L|328:265,1,50
380,332,133261,5,0,0:0:0:0:
426,347,133364,1,0,0:0:0:0:
474,335,133467,1,0,0:0:0:0:
506,297,133571,1,0,0:0:0:0:
512,248,133674,1,0,0:0:0:0:
490,205,133778,1,0,0:0:0:0:
446,181,133881,1,0,0:0:0:0:
248,172,134088,6,0,L|232:272,1,100
188,76,134502,1,0,0:0:0:0:
340,28,134709,2,0,P|440:20|496:112,1,200
400,104,135330,1,0,0:0:0:0:
148,176,135537,1,0,0:0:0:0:
148,176,135640,1,0,0:0:0:0:
148,175,135743,6,0,P|98:180|56:156,1,100
128,52,136157,1,0,0:0:0:0:
272,168,136364,2,0,L|268:224,1,50
200,256,136571,6,0,L|208:368,1,100
300,304,136985,1,0,0:0:0:0:
112,316,137192,1,0,0:0:0:0:
212,88,137399,2,0,P|308:72|376:168,1,200
336,248,138019,1,0,0:0:0:0:
120,136,138226,1,0,0:0:0:0:
117,116,138329,1,0,0:0:0:0:
114,96,138432,1,0,0:0:0:0:
188,240,138640,2,0,L|180:348,1,100
64,104,139054,6,0,P|160:92|264:100,1,200,4|8,0:0|0:0,0:0:0:0:
252,296,139675,2,0,P|244:244|252:184,1,100,0|2,0:0|0:0,0:0:0:0:
332,348,140088,1,2,0:0:0:0:
336,160,140295,2,0,P|384:152|440:160,1,100,8|0,0:0|0:0,0:0:0:0:
248,197,140709,5,2,0:0:0:0:
248,197,141123,1,8,0:0:0:0:
160,320,141330,2,0,P|108:324|52:316,1,100,0|2,0:0|0:0,0:0:0:0:
4,236,141743,1,2,0:0:0:0:
112,248,141950,6,0,P|148:176|96:76,1,187.5,12|0,0:0|0:0,0:0:0:0:
56,32,142364,6,0,B|111:67|159:43|203:19|263:51,1,200,4|8,0:0|0:0,0:0:0:0:
412,152,142985,2,0,P|368:184|320:188,1,100,0|2,0:0|0:0,0:0:0:0:
204,160,143399,1,2,0:0:0:0:
340,100,143606,2,0,P|344:48|332:-4,1,100,8|0,0:0|0:0,0:0:0:0:
323,188,144019,5,2,0:0:0:0:
323,188,144433,1,8,0:0:0:0:
244,280,144640,2,0,P|236:328|248:384,1,100,0|2,0:0|0:0,0:0:0:0:
372,328,145054,1,2,0:0:0:0:
502,200,145261,6,0,B|442:183|442:183|386:203|386:203|322:187,1,187.5,12|0,0:0|0:0,0:0:0:0:
200,100,152295,6,0,P|104:76|40:144,1,200,4|8,0:0|0:0,0:0:0:0:
300,152,152916,2,0,L|324:52,1,100,0|2,0:0|0:0,0:0:0:0:
368,304,153330,2,0,P|420:308|460:284,1,100,2|8,0:0|0:0,0:0:0:0:
396,200,153743,1,0,0:0:0:0:
196,156,153950,6,0,L|212:356,1,200,2|8,0:0|0:0,0:0:0:0:
211,355,154571,1,0,0:0:0:0:
312,152,154778,1,0,0:0:0:0:
315,127,154881,1,0,0:0:0:0:
319,102,154984,1,0,0:0:0:0:
184,32,155192,2,0,P|132:28|88:56,1,100
216,200,155606,6,0,P|296:252|392:220,1,200
464,132,156226,1,0,0:0:0:0:
492,268,156433,2,0,L|480:372,1,100
256,288,156847,2,0,P|208:296|152:272,1,100
364,176,157261,2,0,L|348:376,1,200
256,288,157881,1,0,0:0:0:0:
312,80,158088,2,0,L|364:72,2,50
160,240,158502,2,0,L|148:136,1,100
116,48,158916,5,8,0:0:0:0:
84,204,159123,1,8,0:0:0:0:
120,80,159537,1,8,0:0:0:0:
136,280,159743,2,0,B|128:336|128:336|136:400,1,100,8|0,0:0|0:0,0:0:0:0:
84,204,160364,5,8,0:0:0:0:
280,52,160778,1,8,0:0:0:0:
264,272,161192,1,8,0:0:0:0:
152,148,161399,2,0,B|172:192|172:192|152:284,1,100,8|0,0:0|0:0,0:0:0:0:
120,332,162226,5,8,0:0:0:0:
152,148,162433,1,8,0:0:0:0:
120,332,162847,1,8,0:0:0:0:
60,56,163054,1,8,0:0:0:0:
60,56,163675,5,8,0:0:0:0:
20,208,164088,1,8,0:0:0:0:
148,112,164502,1,8,0:0:0:0:
108,188,164709,2,0,P|172:192|216:164,1,100,8|0,0:0|0:0,0:0:0:0:
384,92,165330,5,8,0:0:0:0:
352,132,165433,1,8,0:0:0:0:
320,172,165537,5,12,0:0:0:0:
256,192,165640,12,0,168847,0:0:0:0:
