osu file format v5

[General]
AudioFilename: Makenaide.mp3
AudioLeadIn: 0
PreviewTime: 54971
Countdown: 1
SampleSet: Soft
StackLeniency: 0.7
Mode: 0
LetterboxInBreaks: 1
EditorDistanceSpacing: 0.5

[Metadata]
Title:Makenaide
Artist:ZARD
Creator:Axess
Version:Hard
Source:Senbatsu Koukou Gakkou Yakyuu Taikai / Lucky Star
Tags:zard makenaide lucky star senbatsu yakyuu

[Difficulty]
HPDrainRate:7
CircleSize:6
OverallDifficulty:7
SliderMultiplier:1.4
SliderTickRate:2

[Events]
//Background and Video events
0,0,"bg.jpg"
//Break Periods
2,77799,81640
2,134965,156907
//Storyboard Layer 0 (Background)
//Storyboard Layer 1 (Failing)
//Storyboard Layer 2 (Passing)
//Storyboard Layer 3 (Foreground)
//Storyboard Sound Samples
//Background Colour Transformations
3,100,163,162,255

[TimingPoints]
-50,476.379515680826,4,2,0,100,1,0

[Colours]
Combo1 : 255,150,0
Combo2 : 5,240,5
Combo3 : 5,5,240
Combo4 : 240,5,5
Combo5 : 128,128,192

[HitObjects]
32,96,9477,1,0
64,48,9715,1,0
96,96,9953,1,0
128,144,10192,1,0
160,96,10430,1,0
192,48,10668,1,0
224,96,10906,1,0
256,144,11144,1,0
288,96,11383,1,0
320,48,11621,1,0
352,96,11859,1,0
384,144,12097,1,0
416,96,12335,1,0
448,48,12574,1,0
480,96,12812,1,0
448,144,13050,5,8
480,192,13288,5,0
448,144,13526,1,0
416,192,13765,1,0
384,144,14003,1,0
352,192,14241,1,0
320,144,14479,1,0
288,192,14717,1,0
256,144,14955,1,0
224,192,15194,1,0
192,144,15432,1,0
160,192,15670,1,0
128,144,15908,1,0
96,192,16146,1,0
64,144,16385,1,0
32,192,16623,1,0
0,240,16861,5,8
32,288,17099,5,0
64,240,17337,1,0
96,288,17576,1,0
128,240,17814,1,0
160,288,18052,1,0
192,240,18290,1,0
224,288,18528,1,0
256,240,18766,1,0
288,288,19005,1,0
320,240,19243,1,0
352,288,19481,1,0
384,240,19719,1,0
416,288,19957,1,0
448,240,20196,1,0
480,192,20434,1,0
480,248,20672,5,8
480,304,20910,5,0
448,352,21148,1,0
416,304,21387,1,4
336,224,21863,1,0
296,272,22101,1,0
296,328,22339,1,4
168,304,22816,1,0
168,360,23054,1,0
112,360,23292,1,0
112,304,23530,1,0
56,304,23768,1,0
56,248,24007,1,0
0,248,24245,1,0
0,248,24483,1,0
0,248,24721,1,4
32,64,25674,5,0
80,16,25912,1,0
128,64,26150,1,0
80,112,26389,1,0
128,64,26627,1,0
192,64,27103,1,0
192,64,27580,1,8
192,64,27818,1,12
256,64,28056,6,0,B|224:176|336:256|448:176|400:16,1,350
407,50,29485,5,0
464,48,29723,1,0
464,112,29961,1,0
464,48,30200,1,0
464,112,30438,1,0
464,176,30676,1,0
400,240,31152,1,8
336,240,31391,1,12
288,192,31629,6,2,L|256:128|224:208|160:208|112:128|80:320,1,490
32,304,33534,1,0
80,352,33772,1,0
144,352,34011,1,0
192,320,34249,2,0,B|256:288,1,70,0|0
256,352,34725,5,0
320,352,34963,1,0
320,288,35202,1,0
320,352,35440,1,0
384,352,35678,6,0,B|448:320,1,70
448,320,36154,6,2,L|448:112|352:112,1,280,2|6
320,112,37345,1,0
320,176,37583,1,0
384,176,37822,1,0
384,240,38060,1,0
336,272,38298,2,2,B|240:304|144:272,1,140,0|4
199,285,39013,6,2,L|47:253|119:205,1,210
96,64,40442,6,0,L|144:160|272:160|320:48,1,350,0|8
304,160,42347,2,0,B|240:160,4,35
240,160,43062,2,2,B|92:160,1,140,0|4
96,96,44253,5,0
48,48,44491,1,0
96,0,44729,1,0
144,48,44967,1,8
240,144,45444,1,0
288,96,45682,1,0
352,96,45920,2,2,B|416:144|368:256,1,140,0|4
336,288,46873,5,0
288,256,47111,1,0
240,288,47349,1,8
192,192,47826,1,0
160,240,48064,1,0
104,216,48302,2,0,L|88:136|152:88,1,140
184,128,49017,5,8
224,80,49255,1,8
256,128,49493,1,8
304,88,49731,2,10,L|440:104|487:180,1,210,10|14
416,224,50922,5,8
352,256,51160,1,8
288,224,51398,2,10,B|192:320|64:192,1,210
100,223,52351,2,10,L|96:64,1,140,8|8
96,88,53066,2,2,B|160:88,10,35,2|2|2|2|2|2|2|2|2|2|6
256,32,55210,5,0
208,64,55448,1,0
256,88,55686,1,0
304,112,55924,1,0
256,144,56162,1,8
256,216,56639,1,8
256,272,57115,1,8
368,272,57591,1,8
424,240,57830,1,8
424,304,58068,1,12
320,232,58544,5,8
256,224,59021,1,8
256,160,59497,1,8
256,160,59735,1,8
256,160,59973,1,12
160,64,60450,5,0
200,24,60688,1,0
200,104,60926,1,0
248,64,61164,2,0,L|328:64,1,70
318,64,61641,1,8
368,32,61879,1,12
424,32,62117,6,0,B|368:72|376:152|448:152,1,140
472,152,62832,5,0
472,224,63308,1,8
472,280,63546,1,8
416,280,63784,1,8
352,360,64261,1,8
320,310,64737,2,2,B|232:312|240:160,1,140
208,168,65452,1,0
264,168,65690,1,4
351,118,66166,6,2,B|432:112|496:144|512:224|304:256,1,280
392,288,67357,1,8
344,320,67595,2,2,B|240:320,4,70,8|0|0|0|0
344,264,68786,2,2,B|344:104,1,140
344,176,69501,1,4
392,80,70215,5,8
352,128,70454,2,8,L|288:104|232:136|160:104|88:140,1,280
56,168,71645,1,8
104,264,72121,1,8
48,264,72359,1,8
80,376,72836,1,8
144,264,73312,1,8
200,376,73788,1,8
288,320,74265,2,10,L|328:320|328:296|368:296|368:320|408:320|408:280|472:280|472:248|448:248|448:192|400:192|400:176,1,420
256,192,75932,12,4,77599
64,192,82840,5,0
104,152,83078,1,0
144,192,83316,1,0
176,240,83554,1,0
208,192,83792,1,8
320,248,84269,1,8
320,136,84745,1,8
320,136,84983,1,12
320,192,85221,6,0,B|320:280|408:312|496:280|496:160,1,280
440,168,86412,5,0
480,64,86889,1,8
480,64,87127,1,8
480,64,87365,1,8
480,64,87603,1,8
480,64,87842,1,8
376,64,88318,1,8
376,64,88556,1,12
320,64,88794,6,0,C|280:88|256:56|304:168|256:112|112:192,1,420
40,176,90462,5,0
32,280,90938,1,8
32,280,91176,1,8
32,280,91414,1,8
144,280,91891,1,8
240,240,92367,1,0
200,280,92605,1,4
240,320,92844,6,0,C|368:320|264:264|392:264,1,350
368,208,94273,5,0
368,152,94511,1,0
424,152,94749,1,0
368,152,94987,1,0
312,152,95225,1,0
264,112,95464,2,2,B|264:336,1,210
264,322,96416,6,0,C|352:312|304:272|368:152,1,280
336,112,97607,5,0
280,16,98084,1,0
216,112,98560,1,8
216,112,98798,1,12
160,240,99513,5,0
192,192,99751,1,0
160,240,99989,1,0
200,288,100227,1,8
248,200,100704,2,2,B|512:304|112:80,1,350,2|10
152,104,102133,2,2,B|152:264,1,140,8|0
112,280,102847,1,0
152,320,103086,1,0
192,280,103324,1,0
232,320,103562,1,4
384,256,104038,5,0
384,256,104277,1,0
384,256,104515,1,8
384,96,104991,5,0
384,96,105229,1,0
384,96,105468,1,8
256,64,105944,5,8
224,112,106182,1,8
192,64,106420,1,8
160,16,106659,1,8
80,64,107135,1,8
80,64,107373,1,8
80,64,107611,1,12
96,136,108088,5,0
48,160,108326,1,0
96,192,108564,2,2,B|128:288|240:256,3,140
203,263,110231,2,2,L|280:264|280:304|360:304|360:264|424:264|424:320,1,350,2|6
352,64,112375,5,0
296,64,112613,1,0
352,64,112851,1,0
296,64,113090,1,0
240,64,113328,1,4
128,64,113804,5,8
24,64,114281,1,8
24,160,114757,1,0
80,160,114995,1,0
136,160,115233,1,4
64,256,115710,5,8
24,352,116186,1,8
128,320,116662,2,2,L|192:288|256:336,1,140
128,320,117615,1,8
248,328,118092,1,0
304,328,118330,1,8
424,328,118806,1,0
472,288,119044,1,4
416,272,119283,6,0,C|352:248|416:208,1,140
456,184,119997,5,8
512,96,120474,1,0
496,40,120712,1,0
448,64,120950,2,2,B|344:64,6,70,0|0|0|0|0|0|8
392,64,122617,1,8
336,64,122855,1,12
336,176,123332,5,8
240,224,123808,1,8
192,120,124285,1,8
192,64,124523,1,8
136,64,124761,2,10,B|136:224,2,140
80,64,125952,1,8
40,176,126428,1,0
40,176,126666,1,0
64,312,127381,5,8
64,312,127619,2,10,B|136:368|192:312,2,140
120,312,128810,1,8
224,312,129287,1,8
224,312,129525,2,10,L|328:312,4,70,10|2|2|2|10
320,312,130954,2,8,L|392:240,1,70,8|0
368,264,131430,2,10,B|374:59|118:59|148:287,1,420,10|10
256,192,133098,12,4,134765
256,32,158107,5,0
296,80,158346,1,0
240,104,158584,1,0
272,152,158822,1,0
328,128,159060,1,4
256,224,159537,5,8
280,312,160013,1,8
168,328,160489,1,0
120,288,160728,1,0
144,232,160966,1,4
120,120,161442,5,8
32,192,161919,1,8
56,80,162395,1,0
104,48,162633,1,0
160,32,162871,1,4
240,128,163348,5,0
288,88,163586,1,0
272,32,163824,1,0
328,40,164062,1,8
440,40,164539,1,8
384,40,164777,1,12
384,96,165015,6,0,C|352:152|472:168,1,140
472,168,165730,5,8
440,272,166206,1,0
464,224,166444,1,0
440,272,166682,1,8
328,264,167159,1,8
288,352,167635,2,2,B|248:352,4,35,2|2|2|2|10
288,352,168350,1,8
232,352,168588,1,12
216,232,169064,5,8
104,232,169541,1,8
160,232,170017,1,0
160,232,170255,1,0
216,232,170493,1,8
104,232,170970,1,8
216,232,171446,1,8
216,232,171684,1,8
104,232,172161,1,8
160,232,172399,1,12
256,256,173113,5,8
256,256,173352,2,10,B|256:448|256:-64|256:184,1,280,10|2
304,168,174543,1,8
304,56,175019,1,8
344,96,175257,1,8
424,168,175734,1,8
320,224,176210,1,8
312,104,176686,1,8
224,160,177163,6,10,C|176:112|144:160|80:192|144:224|176:288|224:224,1,420
256,192,178830,12,4,180974
32,32,182879,5,0
88,32,183117,1,0
32,88,183356,1,0
88,88,183594,1,0
144,32,183832,1,4
144,144,184308,5,8
248,184,184785,1,8
352,160,185261,1,0
392,120,185499,1,0
432,80,185738,1,4
312,16,186214,5,8
280,120,186690,1,8
200,40,187167,1,0
240,80,187405,1,0
280,120,187643,1,4
200,40,188119,5,8
280,120,188596,1,8
280,120,188834,1,8
280,232,189310,1,8
280,176,189549,1,12
336,176,189787,6,0,C|168:176,1,140
144,176,190501,5,8
224,248,190978,1,0
224,192,191216,1,0
280,192,191454,1,8
280,304,191930,1,8
384,248,192407,1,8
384,128,192883,1,0
352,80,193121,1,0
328,128,193360,1,12
256,192,193836,5,8
256,192,194312,1,8
256,192,194789,1,0
256,136,195027,1,0
256,80,195265,1,8
136,80,195741,2,10,B|344:128|248:200,1,210
384,224,196932,1,8
384,224,197171,1,12
256,232,197885,5,8
256,232,198123,2,10,L|256:288|256:96|256:152,1,280,10|2
256,128,199314,1,8
256,32,199791,1,8
256,88,200029,1,8
256,200,200505,1,8
256,200,200982,1,8
256,312,201458,1,12
192,320,201934,6,2,B|81:107|444:107|305:344,1,420,10|10
256,192,203602,12,4,206698
