osu file format v5

[General]
AudioFilename: Makenaide.mp3
AudioLeadIn: 0
PreviewTime: 54971
Countdown: 1
SampleSet: Soft
StackLeniency: 0.7
Mode: 0
LetterboxInBreaks: 1
EditorDistanceSpacing: 0.5

[Metadata]
Title:Makenaide
Artist:ZARD
Creator:Axess
Version:Easy
Source:Senbatsu Koukou Gakkou Yakyuu Taikai / Lucky Star
Tags:zard makenaide lucky star senbatsu yakyuu

[Difficulty]
HPDrainRate:2
CircleSize:4
OverallDifficulty:2
SliderMultiplier:1.4
SliderTickRate:1

[Events]
//Background and Video events
0,0,"bg.jpg"
//Break Periods
2,77799,81640
2,134965,156907
//Storyboard Layer 0 (Background)
//Storyboard Layer 1 (Failing)
//Storyboard Layer 2 (Passing)
//Storyboard Layer 3 (Foreground)
//Storyboard Sound Samples
//Background Colour Transformations
3,100,163,162,255

[TimingPoints]
-50,476.379515680826,4,2,0,100,1,0

[Colours]
Combo1 : 255,150,0
Combo2 : 5,240,5
Combo3 : 5,5,240
Combo4 : 240,5,5
Combo5 : 128,128,192

[HitObjects]
64,64,25674,1,0
192,64,26150,1,0
320,64,26627,1,0
448,64,27103,1,0
448,192,27580,1,8
448,256,27818,1,8
448,320,29485,5,0
320,320,29961,1,0
192,320,30438,1,8
128,320,30676,1,8
64,256,31152,1,8
64,192,31391,1,8
128,64,33296,5,0
256,64,33772,1,0
384,64,34249,1,0
384,192,34725,1,8
384,256,34963,1,8
384,320,35202,1,8
320,320,35440,1,12
256,320,37107,5,0
128,320,37583,1,0
128,192,38060,1,8
128,192,38298,1,8
256,192,38774,1,8
256,192,39013,1,8
186,192,40442,6,0,B|359:192,2,140
186,192,41633,1,0
96,96,42347,1,0
160,32,42824,2,0,B|416:32,1,210
448,96,44253,5,0
320,96,44729,1,0
320,224,45206,1,0
192,224,45682,1,0
128,160,45920,1,8
128,288,46397,1,8
256,288,46873,5,0
384,288,47349,1,0
320,160,47826,1,8
256,160,48064,1,8
192,160,48302,2,8,B|160:64|64:64|32:192,1,210,8|4
44,154,49255,5,0
32,224,49493,1,0
32,288,49731,2,0,B|224:288,1,140,0|8
224,288,50446,1,12
352,288,50922,5,0
352,160,51398,1,0
352,32,51875,1,0
224,32,52351,1,0
96,32,52828,1,0
96,160,53304,2,2,B|416:160,1,280
448,64,55210,5,8
320,64,55686,1,8
192,64,56162,1,8
64,64,56639,5,8
64,192,57115,1,8
192,192,57591,1,8
320,192,58068,1,12
448,192,58544,5,8
448,320,59021,1,8
320,320,59497,1,8
192,320,59973,1,8
64,320,60450,5,8
64,192,60926,1,8
64,64,61402,1,8
192,64,61879,1,12
192,192,62355,5,0
192,320,62832,5,8
320,320,63308,1,8
320,192,63784,1,8
320,64,64261,1,8
448,64,64737,1,8
448,192,65213,1,8
448,320,65690,1,12
320,320,66166,5,8
192,320,66643,1,8
64,320,67119,1,8
64,192,67595,1,8
64,64,68072,1,8
192,64,68548,1,8
320,64,69025,1,8
448,64,69501,1,12
448,192,69977,5,0
320,192,70454,6,2,B|160:192,7,140
180,192,74265,6,2,B|257:36|448:192|256:352|145:190,1,420,0|0
256,192,75932,12,4,77599
64,64,82840,5,0
192,64,83316,1,0
320,64,83792,1,0
448,64,84269,1,0
448,192,84745,1,8
448,256,84983,1,8
64,320,86412,5,0
192,320,86889,1,0
320,320,87365,1,0
448,320,87842,1,0
448,192,88318,1,8
448,128,88556,1,8
256,64,90462,5,0
256,192,90938,1,0
256,320,91414,1,0
384,320,91891,1,0
384,192,92367,1,0
256,192,92844,1,4
128,192,94273,5,0
256,192,94749,1,0
384,192,95225,1,0
384,64,95702,1,0
256,64,96178,1,0
256,192,96655,1,4
256,320,97607,5,0
256,192,98084,1,0
256,64,98560,1,0
128,64,99036,1,0
128,192,99513,1,8
128,256,99751,1,8
128,320,99989,1,8
192,320,100227,1,8
320,320,100704,1,4
384,192,101418,5,0
256,192,101895,1,8
192,192,102133,1,8
64,192,102609,1,8
64,256,102847,1,8
64,320,103086,1,8
128,320,103324,1,8
192,320,103562,1,12
320,320,104038,5,0
448,320,104515,1,0
448,192,104991,1,0
448,64,105468,1,0
320,64,105944,5,0
128,64,106659,1,0
128,192,107135,1,8
128,256,107373,1,8
128,320,107611,1,12
256,320,108088,5,0
384,320,108564,1,0
384,192,109040,1,0
384,64,109517,2,2,B|192:64,1,140
174,64,110231,2,2,B|32:128|32:256|187:326,1,350
288,320,112375,6,8,B|288:160,2,140
416,320,113804,2,8,B|416:160,3,140
416,64,115710,2,8,B|256:64,3,140
160,64,117615,2,8,B|0:64,2,140
160,192,119044,2,8,B|352:192,1,140,8|12
416,192,119997,6,8,B|256:192,3,140
160,192,121903,2,8,B|0:192,2,140
288,192,123332,2,8,B|288:32,4,140
416,192,125714,2,8,B|416:352,2,140,8|8|12
192,64,127381,5,8
192,128,127619,1,8
32,352,128572,1,0
160,352,129048,1,0
288,352,129525,1,0
416,352,130001,1,0
416,224,130477,1,0
416,96,130954,1,0
288,96,131430,2,2,L|224:32|192:96|160:32|128:96|96:32|32:96,1,420
256,192,133098,12,4,134765
32,32,158107,5,0
128,128,158584,1,0
224,224,159060,1,0
320,320,159537,1,0
416,224,160013,1,0
416,96,160489,1,0
288,32,160966,1,4
192,128,161442,5,0
96,224,161919,1,0
32,320,162395,1,0
160,320,162871,1,0
288,320,163348,1,0
384,224,163824,1,0
480,320,164300,1,0
480,192,164777,1,4
480,64,165253,5,8
352,64,165730,5,0
256,160,166206,1,0
160,64,166682,1,0
64,160,167159,1,0
64,288,167635,1,0
160,352,168111,1,0
288,352,168588,1,4
416,352,169064,5,0
480,224,169541,1,0
480,96,170017,1,0
352,32,170493,1,0
224,32,170970,1,0
96,32,171446,1,0
32,128,171923,1,0
128,192,172399,1,4
256,192,172875,5,8
384,192,173352,5,0
384,64,173828,1,0
256,64,174304,1,0
256,192,174781,1,0
256,320,175257,1,0
128,320,175734,1,0
128,192,176210,1,0
256,192,176686,1,0
384,192,177163,2,2,L|384:32|128:32|128:192,2,560,2|2|6
384,192,182879,6,8,L|384:32,2,140
384,192,184308,2,8,L|384:352,2,140
384,192,185738,1,8
256,192,186214,2,8,L|96:192,2,140
256,192,187643,2,8,L|448:192,4,140,8|8|8|8|12
64,64,190501,6,8,L|64:256,1,140
193,204,191454,2,8,L|193:44,1,140
321,65,192407,2,8,L|321:216,2,140,8|8|12
450,65,193836,6,8,L|449:224,1,140,0|0
448,320,194789,2,8,L|288:320,1,140
191,320,195741,2,8,L|31:320,3,140,8|8|8|12
52,192,197885,5,8
52,192,198123,2,8,L|52:30,1,140,8|0
187,54,199076,2,8,L|371:54,5,140
329,185,201934,2,10,B|424:220|420:364|300:359|156:329|96:240|168:124|215:188,1,420
256,192,203602,12,4,206698
