osu file format v5

[General]
AudioFilename: Hoshi no Kagayaki Yo.mp3
AudioLeadIn: 0
PreviewTime: -1
Countdown: 1
SampleSet: Normal
StackLeniency: 0.7
Mode: 0
LetterboxInBreaks: 1

[Metadata]
Title:Hoshi no Kagayaki Yo
Artist:ZARD
Creator:dipsy
Version:Mouri Kogoro
Source:
Tags:

[Difficulty]
HPDrainRate:0
CircleSize:3
OverallDifficulty:2
SliderMultiplier:0.899999999999999
SliderTickRate:1

[Events]
//Background and Video events
0,0,"conan279.jpg"
//Break Periods
2,47804,59901
//Storyboard Layer 0 (Background)
//Storyboard Layer 1 (Failing)
//Storyboard Layer 2 (Passing)
//Storyboard Layer 3 (Foreground)
//Storyboard Sound Samples
//Background Colour Transformations
3,100,163,162,255

[TimingPoints]
13371,368.098159509202,4,1,0,70,1
61101,372.670807453416,4,1,0,70,1
94133,368.098159509202,4,1,0,70,1
130607,372.670807453416,4,1,0,70,1

[Colours]
Combo1 : 255,128,192
Combo2 : 128,255,0
Combo3 : 255,0,255
Combo4 : 255,255,0

[HitObjects]
173,101,24966,1,0
134,162,25334,2,0,B|115:200|138:221,2,45
187,209,26070,2,0,B|187:250|201:269,4,45
243,163,27174,1,0
314,81,27726,5,0
339,101,27910,1,0
378,162,28278,2,0,B|397:200|374:221,2,45
325,209,29014,2,0,B|325:250|311:269,4,45
269,163,30118,1,0
157,72,30855,6,0,B|122:128|124:174,1,89.9999999999999
94,220,31591,2,0,B|126:272|165:282,1,89.9999999999999
210,330,32328,2,0,B|245:344|262:339,1,45
289,341,32696,2,0,B|366:333|386:323,1,89.9999999999999
430,277,33432,1,2
469,216,33800,1,2
467,144,34168,5,8
467,144,34352,1,8
467,144,34536,1,8
432,80,34904,1,8
432,80,35088,1,8
432,80,35272,1,8
360,69,35640,2,0,B|306:35|264:58,1,89.9999999999999
339,283,36745,5,0
364,215,37113,1,0
366,213,37297,2,0,B|328:194|307:217,7,45
269,221,38953,1,0
198,303,39505,5,0
173,283,39689,1,0
134,222,40057,2,0,B|115:184|138:163,2,45
187,175,40793,2,0,B|187:134|201:115,4,45
243,221,41897,1,0
355,312,42450,5,0
355,312,42634,2,0,B|390:256|388:210,1,89.9999999999999
395,157,43370,1,0
327,78,43923,1,0
261,48,44291,1,0
154,64,44843,1,0
91,99,45211,1,2
48,157,45579,1,2
26,225,45947,5,8
26,225,46131,1,8
26,225,46315,1,8
67,283,46683,1,8
67,283,46867,1,8
67,283,47051,1,8
67,283,47236,1,8
130,317,47604,1,0
131,110,61101,6,0,B|183:87|224:115,1,89.9999999999999
225,182,61846,2,0,B|244:221|244:243,4,45
276,277,63150,1,0
276,277,63337,1,0
279,133,64082,5,0
340,170,64455,2,0,B|374:197|373:206,6,45
318,238,65945,2,0,B|337:295|323:332,1,89.9999999999999
381,110,67063,6,0,B|329:87|288:115,1,89.9999999999999
287,182,67808,2,0,B|268:221|268:243,4,45
214,182,68927,1,0
149,149,69299,1,0
256,192,69858,12,0,71908
381,274,73026,6,0,B|329:297|288:269,1,89.9999999999999
287,202,73771,2,0,B|268:163|268:141,4,45
236,107,75075,1,0
236,107,75262,1,0
233,251,76007,5,0
172,214,76380,2,0,B|138:187|139:178,6,45
194,146,77870,2,0,B|175:89|189:52,1,89.9999999999999
131,274,78988,6,0,B|183:297|224:269,1,89.9999999999999
225,202,79733,2,0,B|244:163|244:141,4,45
295,218,80852,1,0
357,253,81224,1,0
256,192,81597,12,0,83461
