osu file format v5

[General]
AudioFilename: Hoshi no Kagayaki Yo.mp3
AudioLeadIn: 0
PreviewTime: -1
Countdown: 1
SampleSet: Normal
StackLeniency: 0.7
Mode: 0
LetterboxInBreaks: 1

[Metadata]
Title:Hoshi no Kagayaki Yo
Artist:ZARD
Creator:dipsy
Version:Kudo Shinichi
Source:
Tags:

[Difficulty]
HPDrainRate:4
CircleSize:5
OverallDifficulty:6
SliderMultiplier:2
SliderTickRate:1

[Events]
//Background and Video events
0,0,"conan279.jpg"
//Break Periods
2,48356,58517
2,83661,93451
2,117339,127684
//Storyboard Layer 0 (Background)
//Storyboard Layer 1 (Failing)
//Storyboard Layer 2 (Passing)
//Storyboard Layer 3 (Foreground)
//Storyboard Sound Samples
//Background Colour Transformations
3,100,163,162,255

[TimingPoints]
13371,368.098159509202,4,1,0,70,1
61101,372.670807453416,4,1,0,70,1
94133,368.098159509202,4,1,0,70,1
130607,372.670807453416,4,1,0,70,1

[Colours]
Combo1 : 255,128,192
Combo2 : 128,255,0
Combo3 : 255,0,255
Combo4 : 255,255,0

[HitObjects]
191,138,13370,5,0
216,106,13463,1,0
251,82,13555,1,0
282,107,13647,1,0
308,136,13739,1,0
253,194,13923,6,4,B|256:315,3,100
333,313,14659,1,0
333,313,14751,1,0
333,313,14843,1,0
257,338,15027,1,0
257,338,15119,1,0
257,338,15211,1,0
182,308,15395,1,0
182,308,15487,1,0
182,308,15579,1,0
254,274,15763,1,0
254,274,15855,1,0
254,274,15947,1,0
257,194,16131,6,0,B|257:80,1,100
259,13,16499,1,0
206,73,16683,2,0,B|265:116|316:52,4,100,0|4|4|4|4
192,152,17604,1,0
192,152,17696,1,0
192,152,17788,1,0
258,196,17972,1,0
258,196,18064,1,0
258,196,18156,1,0
258,194,18340,1,0
258,194,18432,1,0
258,194,18524,1,0
325,150,18708,1,0
325,150,18800,1,0
325,150,18892,1,0
257,193,19076,2,0,B|257:336,1,100
257,373,19444,2,0,B|257:253,1,100
255,193,19812,6,4,B|256:78,1,100
257,13,20180,2,4,B|256:136,1,100
322,158,20548,2,0,B|390:158,2,50
256,111,20917,2,0,B|256:171,2,50
193,161,21285,2,0,B|129:160,2,50
253,213,21653,1,0
196,270,21837,6,0,B|404:272,1,200
347,208,22389,2,0,B|351:140|328:93,1,100
334,109,22757,2,0,B|305:177|367:228,1,100
263,207,23125,2,0,B|310:152|264:96,1,100
276,114,23493,2,0,B|240:166|269:215,1,100
185,214,23861,2,0,B|212:144|196:101,1,100
200,116,24229,2,0,B|165:173|191:221,1,100
256,172,24597,1,0
256,172,24690,1,0
256,172,24782,1,0
323,129,24966,6,0,B|412:77|503:201,1,200
491,268,25518,1,0
427,218,25702,2,0,B|338:270|247:146,1,200
256,78,26254,1,0
257,158,26438,1,0
255,237,26622,1,0
256,316,26806,2,0,B|256:108,1,200
305,52,27358,5,2
256,116,27542,5,2
207,52,27726,5,0
189,129,27910,6,0,B|100:77|9:201,1,200
21,268,28463,1,0
85,218,28647,2,0,B|174:270|265:146,1,200
256,78,29199,1,0
255,158,29383,1,0
259,237,29567,1,0
256,316,29751,2,0,B|256:108,1,200
250,36,30303,5,2
250,36,30487,5,2
250,36,30671,5,2
207,97,30855,6,0,B|234:207|113:267,1,200
123,261,31591,2,0,B|126:133,1,100
96,86,31959,2,0,B|34:167,1,100
36,245,32328,1,0
82,309,32512,2,0,C|107:333|131:308|154:332|176:308|196:332|219:309|240:333|263:308|283:334|302:309|326:334|360:316,2,400
40,240,34168,1,0
101,189,34352,1,0
165,141,34536,1,0
206,72,34720,2,0,C|323:73,1,100
345,142,35088,1,0
411,189,35272,1,0
473,238,35456,1,0
256,192,35640,12,0,36377
259,22,36745,6,0,C|260:244,1,200
198,171,37297,1,0
152,104,37481,1,0
75,105,37665,1,0
32,168,37849,1,0
80,232,38033,1,0
152,232,38217,1,0
104,296,38401,1,0
56,360,38585,2,0,C|264:360,1,200
252,105,39505,5,0
253,22,39690,6,0,C|252:244,1,200
314,171,40242,1,0
360,104,40426,1,0
437,105,40610,1,0
480,168,40794,1,0
432,232,40978,1,0
360,232,41162,1,0
408,296,41346,1,0
456,360,41530,2,0,C|248:360,1,200
259,120,42450,5,0
249,199,42634,2,0,C|188:204|174:260|228:295|261:280,2,200
251,198,43923,2,0,C|312:203|326:259|272:294|239:279,2,200
256,192,45027,12,0,48156
256,32,59567,6,0,C|258:137,1,100
64,320,60119,1,8
448,320,60487,1,8
361,99,61085,6,0,C|141:100,2,200
326,171,62051,1,0
406,172,62236,1,0
326,171,62420,1,0
406,172,62604,2,0,C|500:232|494:328|386:336,1,300
409,335,63340,1,0
348,281,63524,1,0
348,281,63616,1,0
348,281,63708,1,0
348,281,63892,1,4
293,339,64076,6,4,C|295:117,1,200
345,76,64628,1,0
416,112,64812,1,0
346,150,64996,1,0
417,187,65180,1,0
348,227,65410,1,0
418,264,65594,2,0,C|502:360|404:347,2,200
151,99,67067,6,0,C|371:100,2,200
186,171,67987,1,0
106,172,68171,1,0
186,171,68355,1,0
106,172,68539,2,0,C|12:232|18:328|126:336,1,300
103,335,69321,1,0
164,281,69505,1,0
164,281,69597,1,0
164,281,69690,1,0
161,201,69874,1,0
161,201,69966,1,0
161,201,70058,1,0
206,135,70242,1,0
247,203,70426,1,0
289,135,70610,1,0
329,204,70794,1,0
329,204,70886,1,0
329,204,70978,1,0
256,192,71162,12,0,72653
64,32,73026,5,2
432,32,73399,1,2
256,352,73771,2,0,C|256:240,1,100
256,252,74144,2,0,C|255:130,1,100
174,151,74517,2,0,C|190:43|285:39|346:151,1,300
334,194,75262,1,0
403,233,75448,1,8
401,313,75635,1,8
335,354,75821,1,8
257,333,76007,6,0,C|292:286|214:240|268:204,2,200
257,333,76939,1,0
255,253,77125,1,0
255,172,77312,1,0
256,192,77498,12,0,78243
256,192,78616,5,0
256,32,78989,5,8
64,320,79361,1,8
432,320,79734,1,8
80,128,80107,1,8
432,128,80479,1,8
256,352,80852,1,8
256,32,81225,1,8
256,192,81597,12,0,83461
61,77,94501,6,0,C|60:189,1,100
60,176,94869,1,0
21,245,95053,1,0
100,248,95237,1,0
135,181,95421,1,0
177,250,95605,1,0
137,180,95789,2,0,C|354:184,1,200
279,128,96341,2,0,C|493:134,1,200
451,77,97445,6,0,C|452:189,1,100
452,176,97813,1,0
491,245,97997,1,0
412,248,98181,1,0
377,181,98365,1,0
335,250,98549,1,0
375,180,98733,2,0,C|158:184,1,200
233,128,99285,2,0,C|19:134,1,200
260,359,100390,5,0
329,320,100574,1,0
392,271,100758,1,0
432,202,100942,1,0
385,136,101126,1,0
329,78,101310,1,0
260,36,101494,1,0
260,36,101679,1,0
193,80,101863,1,0
137,137,102047,1,0
83,196,102231,1,0
138,253,102415,1,0
197,306,102599,1,0
260,354,102783,1,0
260,354,102967,2,0,C|259:131,3,200
179,151,104255,5,0
221,83,104439,1,0
258,153,104623,1,0
298,83,104807,1,0
340,150,104991,1,0
258,153,105175,2,0,C|261:362,1,200
80,352,106096,5,4
432,352,106464,1,4
256,16,107016,1,0
256,95,107200,1,0
257,174,107384,1,0
197,227,107568,2,0,C|231:327|348:336,2,200
432,352,109040,5,4
80,352,109408,1,4
256,16,109960,1,0
256,95,110144,1,0
255,174,110328,1,0
304,237,110513,2,0,C|182:236,2,100
257,302,111065,2,0,C|257:73,1,200
256,96,111985,5,0
183,128,112169,1,0
131,188,112353,1,0
184,247,112537,1,0
255,283,112721,1,0
329,253,112906,1,0
385,196,113090,1,0
337,131,113274,1,0
261,104,113458,1,0
261,104,113642,2,0,C|256:316,1,200
260,383,114194,5,0
324,336,114378,1,0
256,293,114562,1,0
191,245,114746,1,0
254,196,114930,1,0
322,155,115114,1,0
254,111,115298,1,0
189,63,115482,1,0
256,20,115666,1,0
321,66,115850,1,0
254,111,116034,1,0
186,153,116218,1,0
253,195,116402,1,0
322,234,116586,1,0
255,278,116771,2,0,C|257:61,1,200
256,192,128734,12,0,129654
259,157,130022,6,0,C|260:215,2,50
151,285,130607,6,0,C|371:284,2,200
186,213,131573,1,0
106,212,131758,1,0
64,279,131942,1,0
106,212,132126,2,0,C|12:152|18:56|126:48,1,300
103,49,132862,1,0
164,103,133046,1,0
164,103,133138,1,0
164,103,133230,1,0
164,103,133414,1,4
219,45,133598,6,4,C|217:267,1,200
167,308,134150,1,0
96,272,134334,1,0
166,234,134518,1,0
95,197,134702,1,0
164,157,134932,1,0
94,120,135116,2,0,C|10:24|108:37,2,200
361,285,136589,6,0,C|141:284,2,200
326,213,137509,1,0
406,212,137693,1,0
436,284,137877,1,0
406,212,138061,2,0,C|500:152|494:56|386:48,1,300
416,48,138843,1,0
352,96,139027,1,0
352,96,139119,1,0
352,96,139212,1,0
288,144,139396,1,0
288,144,139488,1,0
288,144,139580,1,0
224,192,139764,1,0
160,240,139948,1,0
96,288,140132,1,0
32,336,140316,1,0
32,336,140408,1,0
32,336,140500,1,0
264,343,141041,5,0
264,343,141134,1,0
264,343,141228,1,0
309,277,141414,1,0
309,277,141507,1,0
309,277,141600,1,0
349,346,141787,1,0
349,346,141880,1,0
349,346,141973,1,0
390,277,142159,1,0
390,277,142252,1,0
390,277,142346,1,0
256,192,142532,12,0,143650
338,233,144039,6,0,C|322:341|227:345|166:233,1,300
178,190,144784,1,0
109,151,144970,1,8
111,71,145157,1,8
177,30,145343,1,8
255,51,145529,6,0,C|220:98|298:144|244:180,2,200
255,51,146461,1,0
258,130,146647,1,0
257,212,146834,1,0
256,192,147020,12,0,147765
16,32,148122,6,0,C|16:256,1,200
496,352,148867,2,0,C|496:144,1,200
0,352,149613,2,0,C|208:352,1,200
496,32,150358,2,0,C|288:32,1,200
256,192,151119,12,0,152983
257,64,153526,5,0
288,88,153619,1,0
315,116,153712,1,0
334,149,153805,1,0
336,188,153898,1,0
336,228,153992,1,0
324,266,154085,1,0
303,300,154178,1,0
266,317,154271,1,0
257,237,154457,5,0
257,237,154551,1,0
257,237,154644,1,0
200,181,154830,5,0
200,181,154923,1,0
200,181,155016,1,0
256,124,155203,5,0
256,124,155296,1,0
256,124,155389,1,0
201,65,155575,5,0
201,65,155669,1,0
201,65,155762,1,0
256,7,155948,5,0
256,7,156041,1,0
256,7,156134,1,0
313,63,156321,5,0
313,63,156414,1,0
313,63,156507,1,0
257,119,156693,5,0
257,119,156787,1,0
257,119,156880,1,0
315,173,157066,5,0
315,173,157159,1,0
315,173,157252,1,0
257,229,157439,5,0
257,229,157532,1,0
257,229,157625,1,0
257,229,157811,6,0,C|256:344,6,100
257,229,159116,5,0
218,216,159209,1,0
186,191,159302,1,0
162,158,159395,1,0
148,120,159488,1,0
163,82,159582,1,0
192,55,159675,1,0
224,32,159768,1,0
258,11,159861,1,0
301,78,160047,6,4,C|302:184,1,100
257,332,160607,5,0
257,332,160700,1,0
257,332,160793,1,0
255,252,160979,5,0
255,252,161072,1,0
255,252,161166,1,0
256,172,161352,5,0
256,172,161445,1,0
256,172,161538,1,0
254,91,161725,5,0
254,91,161818,1,0
254,91,161911,1,0
254,11,162097,5,0
215,19,162190,5,0
183,43,162284,5,0
156,72,162377,5,0
131,103,162470,5,0
112,138,162563,5,0
95,174,162656,5,0
89,213,162749,5,0
96,252,162843,5,0
117,285,162936,5,0
145,312,163029,5,0
178,333,163122,5,0
217,336,163215,5,0
256,331,163308,5,0
292,314,163402,5,0
322,288,163495,5,0
340,252,163588,5,0
349,213,163681,5,0
348,173,163774,5,0
340,133,163867,5,0
325,95,163961,5,0
312,57,164054,5,0
295,20,164147,5,0
262,176,164520,5,0
224,190,164613,5,0
198,220,164706,5,0
186,258,164799,5,0
189,297,164892,5,0
203,334,164985,5,0
231,362,165079,5,0
269,372,165172,5,0
303,351,165265,5,0
317,313,165358,5,0
322,273,165451,5,0
316,233,165544,5,0
292,200,165638,5,0
257,128,165824,5,0
257,128,165917,1,0
257,128,166010,1,0
257,47,166197,5,0
257,47,166290,1,0
257,47,166383,1,0
257,128,166569,1,4
258,207,166756,1,4
233,364,167128,6,0,C|295:362,6,50
