osu file format v5

[General]
AudioFilename: Hoshi no Kagayaki Yo.mp3
AudioLeadIn: 0
PreviewTime: -1
Countdown: 1
SampleSet: Normal
StackLeniency: 0.7
Mode: 0
LetterboxInBreaks: 1

[Metadata]
Title:Hoshi no Kagayaki Yo
Artist:ZARD
Creator:dipsy
Version:Hattori Heiji
Source:
Tags:

[Difficulty]
HPDrainRate:4
CircleSize:4
OverallDifficulty:5
SliderMultiplier:1.8
SliderTickRate:1

[Events]
//Background and Video events
0,0,"conan279.jpg"
//Break Periods
2,48356,58517
2,83661,93451
2,117339,127684
//Storyboard Layer 0 (Background)
//Storyboard Layer 1 (Failing)
//Storyboard Layer 2 (Passing)
//Storyboard Layer 3 (Foreground)
//Storyboard Sound Samples
//Background Colour Transformations
3,100,163,162,255

[TimingPoints]
13371,368.098159509202,4,1,0,70,1
61101,372.670807453416,4,1,0,70,1
94133,368.098159509202,4,1,0,70,1
130607,372.670807453416,4,1,0,70,1

[Colours]
Combo1 : 255,128,192
Combo2 : 128,255,0
Combo3 : 255,0,255
Combo4 : 255,255,0

[HitObjects]
256,272,13370,2,0,B|256:320,4,45
256,192,13923,6,4,B|256:64,3,90
188,77,14659,1,0
188,77,14843,1,0
256,54,15027,1,0
256,54,15211,1,0
324,75,15395,1,0
324,75,15579,1,0
258,110,15763,1,0
258,110,15947,1,0
255,181,16131,6,0,B|256:288,1,90
256,342,16499,1,0
312,315,16683,2,0,B|247:268|196:332,4,90,0|4|4|4|4
318,242,17604,1,0
318,242,17788,1,0
257,202,17972,1,0
257,202,18156,1,0
257,204,18340,1,0
257,204,18524,1,0
197,244,18708,1,0
197,244,18892,1,0
144,192,19076,2,0,B|144:64,1,90
192,48,19444,2,0,B|304:48,1,90
344,88,19812,6,4,B|344:192,1,90
280,152,20180,2,4,B|168:152,1,90
184,224,20548,2,0,B|120:224,2,45
248,264,20917,2,0,B|248:200,2,45
304,224,21285,2,0,B|368:224,2,45
259,171,21653,1,0
310,120,21837,6,0,B|102:118,1,180
128,190,22389,2,0,B|124:258|147:305,1,90
208,296,22757,2,0,B|276:300|323:277,1,90
296,216,23125,2,0,B|300:148|277:101,1,90
216,128,23493,2,0,B|148:124|101:147,1,90
104,64,23861,2,0,B|174:37|217:53,1,90
264,56,24229,2,0,B|321:21|369:47,1,90
354,108,24597,2,0,B|410:109,2,45
395,167,24966,6,0,B|447:256|323:347,1,180
279,319,25518,1,0
207,315,25702,2,0,B|155:226|279:135,1,180
307,112,26254,2,0,B|389:114|429:150,2,90
334,45,26806,2,0,B|455:47|451:200,1,180
272,253,27726,5,0
208,285,27910,2,0,B|119:337|28:213,1,180
43,168,28463,1,0
93,116,28647,2,0,B|182:64|273:188,1,180
192,202,29199,1,0
246,248,29383,1,0
307,210,29567,1,0
291,139,29751,2,0,B|412:141|404:297,1,180
155,260,30855,6,0,B|128:150|249:90,1,180
354,53,31591,2,0,B|351:181,1,90
328,211,31959,2,0,B|430:213,1,90
490,215,32328,1,0
490,286,32512,2,0,C|465:262|441:287|418:263|396:287|376:263|353:286|332:262|309:287|289:261|270:286|246:261|212:279,2,405
463,219,34352,1,0
459,147,34536,1,0
457,75,34720,2,0,C|340:74,1,90
329,135,35088,1,0
289,74,35272,1,0
249,134,35456,1,0
256,192,35640,12,0,36377
253,362,36745,6,0,C|252:140,1,180
317,211,37297,1,0
355,271,37481,1,0
400,214,37665,1,0
360,153,37849,1,0
432,154,38033,1,0
396,91,38217,1,0
467,91,38401,1,0
440,24,38585,2,0,C|232:24,1,180
260,279,39505,5,0
259,362,39690,6,0,C|260:140,1,180
195,214,40242,1,0
157,275,40426,1,0
108,221,40610,1,0
146,160,40794,1,0
74,165,40978,1,0
111,103,41162,1,0
39,103,41346,1,0
70,38,41530,2,0,C|278:38,1,180
253,264,42450,5,0
253,264,42634,2,0,B|447:264,2,180
259,264,43923,2,0,B|65:264,2,180
256,192,45027,12,0,48156
256,352,59567,6,0,C|254:247,1,90
330,140,60119,1,8
186,142,60487,1,8
342,320,61101,6,0,B|149:320,2,180
317,252,62032,1,0
244,252,62219,1,0
172,249,62405,1,0
133,188,62591,2,0,B|416:191,1,270
460,147,63337,1,0
458,3,63709,1,4
314,13,64082,6,4,C|312:235,1,180
258,241,64641,1,0
229,175,64827,1,0
193,112,65014,1,0
158,175,65200,1,0
122,237,65386,1,0
256,192,65573,12,0,66318
361,285,67063,6,0,C|141:284,2,180
335,217,67995,1,0
263,217,68181,1,0
190,218,68368,1,0
118,218,68554,2,0,B|7:140|52:62|211:61,1,270
258,64,69299,1,0
327,84,69486,1,0
327,84,69672,1,0
352,151,69858,2,0,B|410:152,2,45
316,213,70231,1,0
251,243,70417,1,0
185,211,70604,1,0
138,156,70790,2,0,B|78:156,2,45
256,192,71163,12,0,72653
336,114,73026,5,2
175,115,73399,1,2
256,32,73771,2,0,C|256:144,1,90
256,122,74144,2,0,C|257:244,1,90
338,233,74517,2,0,C|322:341|227:345|178:260,1,270
182,225,75262,1,0
113,186,75448,1,8
115,106,75635,1,8
181,65,75821,1,8
252,54,76007,6,0,C|217:101|295:147|241:183,2,180
255,51,76939,1,0
257,131,77125,1,0
257,212,77312,1,0
256,192,77498,12,0,78243
256,192,78616,5,0
259,352,78989,5,8
140,245,79361,1,8
26,132,79734,1,8
141,21,80107,1,8
255,132,80479,1,8
367,18,80852,1,8
479,132,81225,1,8
256,192,81597,12,0,83461
436,342,94409,6,0,C|331:340,1,90
313,276,94777,1,0
256,320,94961,1,0
197,278,95237,1,0
138,319,95421,1,0
79,276,95605,1,0
88,200,95789,2,0,C|304:200,1,180
256,136,96341,2,0,C|40:136,1,180
345,40,97445,6,0,C|241:38,1,90
203,88,97813,1,0
255,137,97998,1,0
201,184,98182,1,0
257,228,98366,1,0
204,277,98550,1,0
154,328,98734,2,0,C|372:331,1,180
396,294,99286,2,0,C|396:104,1,180
115,50,100390,5,0
58,94,100574,1,0
117,134,100758,2,0,B|117:238,1,90
59,267,101126,1,0
117,308,101310,1,0
177,269,101494,2,0,B|269:273,2,90
120,223,102047,1,0
117,151,102231,1,0
118,79,102415,1,0
180,43,102599,1,0
252,30,102783,1,0
252,30,102967,2,0,C|253:253,3,180
319,235,104255,5,0
284,298,104439,1,0
255,363,104623,1,0
220,300,104807,1,0
177,241,104991,1,0
254,231,105175,2,0,C|251:22,1,180
256,192,105912,12,0,106648
256,368,107016,5,0
256,296,107200,1,0
255,224,107384,1,0
304,171,107568,2,0,C|270:71|153:62,2,225
256,192,108856,12,0,109593
256,368,109961,5,0
255,296,110145,1,0
256,224,110329,1,0
217,163,110513,2,0,C|339:164,3,90
254,29,111433,1,0
255,145,111985,5,0
306,194,112169,1,0
350,250,112353,1,0
301,303,112537,1,0
254,357,112721,1,0
205,302,112906,1,0
155,250,113090,1,0
195,190,113274,1,0
252,147,113458,1,0
252,218,113642,2,0,C|257:6,1,180
184,39,114194,5,0
128,84,114378,1,0
71,129,114562,2,0,B|72:248,1,90
129,262,114930,1,0
186,305,115114,1,0
257,307,115298,1,0
328,307,115482,1,0
387,267,115666,1,0
443,222,115850,2,0,B|442:124,1,90
390,81,116218,1,0
328,43,116402,1,0
256,35,116586,1,0
257,106,116771,2,0,C|255:323,1,180
256,192,128734,12,0,129654
253,227,130022,6,0,C|252:169,2,45
361,99,130607,6,0,C|141:100,2,180
395,162,131538,1,0
433,223,131725,1,0
396,284,131911,1,0
351,340,132097,2,0,B|100:342|101:276,1,270
101,207,132843,1,0
105,63,133215,1,4
176,188,133588,6,4,C|178:-34,1,180
241,41,134147,1,0
300,81,134333,1,0
356,126,134520,1,0
412,170,134706,1,0
466,216,134892,1,0
414,266,135079,2,0,B|214:265,2,180
361,99,136569,6,0,C|141:100,2,180
395,162,137500,1,0
433,223,137687,1,0
396,284,137873,1,0
351,340,138059,2,0,B|100:342|101:276,1,270
101,207,138805,1,0
105,63,139177,1,4
176,188,139550,6,4,C|178:-34,1,180
241,41,140109,1,0
300,81,140295,1,0
356,126,140482,1,0
412,170,140668,1,0
466,216,140854,1,0
409,260,141041,1,0
409,260,141134,1,0
409,260,141228,1,0
350,301,141414,2,0,B|350:355,2,45
291,259,141787,1,0
291,259,141880,1,0
291,259,141973,1,0
238,308,142159,2,0,B|239:376,2,45
256,192,142532,12,0,143650
126,120,144023,6,0,B|426:120,1,270
400,48,144768,1,0
469,87,144954,1,8
467,167,145141,1,8
401,208,145327,1,8
400,279,145513,5,0
254,254,145886,1,0
112,283,146259,1,0
181,264,146445,1,0
254,254,146631,1,0
325,265,146818,1,0
256,192,147004,12,0,147749
498,354,148122,6,0,C|498:130,1,180
393,33,148867,2,0,C|176:32,1,180
38,76,149613,2,0,C|39:299,1,180
172,363,150358,2,0,C|380:363,1,180
256,192,151103,12,0,152967
43,124,153526,6,0,B|106:124,3,45
92,159,153898,2,0,B|144:161,3,45
151,193,154271,1,0
96,232,154457,6,0,B|96:288,2,45
168,232,154830,6,0,B|168:288,2,45
240,232,155203,6,0,B|240:304,2,45
312,232,155575,6,0,B|312:296,2,45
384,232,155948,6,0,B|384:304,2,45
344,168,156321,6,0,B|344:104,2,45
272,168,156693,6,0,B|272:104,2,45
200,168,157066,6,0,B|200:112,2,45
128,168,157439,6,0,B|128:96,2,45
136,240,157811,6,0,C|256:240,6,90
136,312,159116,6,0,B|136:368,8,45
208,312,160047,6,4,C|207:206,1,100
208,72,160607,6,0,B|272:72,2,45
272,96,160979,6,0,B|272:32,2,45
328,144,161352,6,0,B|264:144,2,45
368,80,161725,6,0,B|368:136,2,45
440,88,162097,5,0
480,144,162284,5,0
440,200,162470,5,0
488,256,162656,5,0
440,312,162843,5,0
392,256,163029,5,0
344,312,163215,5,0
296,256,163402,5,0
248,312,163588,5,0
200,256,163774,5,0
152,312,163961,5,0
256,128,164520,5,0
256,128,164613,5,0
256,128,164706,5,0
256,128,164799,5,0
256,128,164892,5,0
256,128,164985,5,0
256,128,165079,5,0
256,128,165172,5,0
256,128,165265,5,0
256,128,165358,5,0
256,128,165451,5,0
256,272,165824,5,0
256,272,165917,1,0
256,272,166010,1,0
256,200,166197,5,0
256,200,166290,1,0
256,200,166383,1,0
256,128,166569,1,4
256,128,166756,1,4
279,20,167128,6,0,C|217:22,6,50
